osu file format v14

[General]
AudioFilename: -+.mp3
AudioLeadIn: 0
PreviewTime:86931
Countdown: 0
SampleSet: Normal
StackLeniency: 0.7
Mode: 1
LetterboxInBreaks: 0
WidescreenStoryboard: 1
EpilepsyWarning: 1

[Editor]
DistanceSpacing: 1.1
BeatDivisor: 4
GridSize: 32
TimelineZoom: 4.099998

[Metadata]
Title:-+
TitleUnicode:-+
Artist:daisan
ArtistUnicode:daisan
Creator:Starfy
Version:aabc's Inner Oni
Source:BOF2013
Tags:minus plus konzertsaal - THE BMS OF FIGHTERS 2013 Dirt Art Color Teller xellox piano StarForYou Kyle Y IamKwaN happy623 -N_a_n_a_k_o- Nanako Kencho Chaoslitz [ Drop ] choikapo Regou Rizia Kawaiwkyik Nakano Itsuki StarrStyx Prophecy aabc271 Nardoxyribonucleic Skylish ll-oscar autofanboy alienflybot hokin1995 pwhk hong kong hk muse dash electronic instrumental
BeatmapID:855610
BeatmapSetID:389617

[Difficulty]
HPDrainRate:5
CircleSize:4.5
OverallDifficulty:5.5
ApproachRate:7
SliderMultiplier:1.4
SliderTickRate:1

[Events]
//Background and Video events
0,0,"BG.png",0,-30
//Break Periods
//Storyboard Layer 0 (Background)
//Storyboard Layer 1 (Fail)
//Storyboard Layer 2 (Pass)
//Storyboard Layer 3 (Foreground)
//Storyboard Layer 4 (Overlay)
//Storyboard Sound Samples

[TimingPoints]
2607,324.324324324324,4,1,0,64,1,0
2607,-142.857142857143,4,1,0,64,0,0
12985,-117.647058823529,4,1,0,88,0,0
13147,-117.647058823529,4,1,0,76,0,0
22715,-100,4,1,0,88,0,0
23363,-100,4,1,0,96,0,1
33742,-100,4,1,0,92,0,0
44282,-142.857142857143,4,1,0,68,0,0
54661,-142.857142857143,4,1,0,70,0,0
57255,-142.857142857143,4,1,0,72,0,0
59850,-142.857142857143,4,1,0,74,0,0
62282,-142.857142857143,4,1,0,76,0,0
62444,-139.130434782609,4,1,0,77,0,0
62525,-137.339055793991,4,1,0,78,0,0
62606,-135.593220338983,4,1,0,78,0,0
62769,-132.231404958678,4,1,0,79,0,0
62850,-130.612244897959,4,1,0,80,0,0
62931,-129.032258064516,4,1,0,80,0,0
63012,-127.490039840637,4,1,0,81,0,0
63093,-125.984251968504,4,1,0,81,0,0
63255,-123.076923076923,4,1,0,82,0,0
63336,-121.673003802281,4,1,0,83,0,0
63417,-120.300751879699,4,1,0,83,0,0
63579,-117.647058823529,4,1,0,84,0,0
63661,-116.363636363636,4,1,0,84,0,0
63742,-115.107913669065,4,1,0,85,0,0
63823,-113.879003558719,4,1,0,86,0,0
63904,-112.676056338028,4,1,0,86,0,0
64066,-110.344827586207,4,1,0,87,0,0
64147,-109.215017064846,4,1,0,88,0,0
64228,-108.108108108108,4,1,0,88,0,0
64309,-107.023411371237,4,1,0,89,0,0
64390,-105.960264900662,4,1,0,89,0,0
64471,-104.918032786885,4,1,0,90,0,0
64552,-103.896103896104,4,1,0,90,0,0
64634,-102.893890675241,4,1,0,91,0,0
64715,-101.910828025478,4,1,0,91,0,0
64877,-100,4,1,0,92,0,0
70066,-100,4,1,0,94,0,0
75255,-100,4,1,0,90,0,0
75579,-101.010101010101,4,1,0,90,0,0
75904,-102.040816326531,4,1,0,89,0,0
76228,-103.092783505155,4,1,0,89,0,0
76390,-103.626943005181,4,1,0,88,0,0
76552,-104.166666666667,4,1,0,88,0,0
80769,-100,4,1,0,90,0,0
82066,-96.1538461538461,4,1,0,90,0,0
83039,-94.3396226415094,4,1,0,92,0,0
84336,-92.5925925925926,4,1,0,92,0,0
85634,-89.2857142857143,4,1,0,94,0,0
88228,-98.0392156862745,4,1,0,96,0,1
98444,-98.0392156862745,4,1,0,96,0,0
98931,-89.2857142857143,4,1,0,98,0,1
99904,-88.4955752212389,4,1,0,98,0,1
100552,-87.719298245614,4,1,0,98,0,1
101201,-86.5800865800866,4,1,0,99,0,1
101688,-85.4700854700855,4,1,0,99,0,1
102174,-84.3881856540084,4,1,0,100,0,1
103634,-84.3881856540084,4,1,0,96,0,1
103796,-88.3002207505519,4,1,0,96,0,1
103958,-92.5925925925926,4,1,0,96,0,1
105093,-91.743119266055,4,1,0,96,0,1
105255,-90.9090909090909,4,1,0,96,0,1
106390,-90.0900900900901,4,1,0,97,0,1
106552,-89.2857142857143,4,1,0,97,0,1
107688,-88.4955752212389,4,1,0,97,0,1
107850,-87.719298245614,4,1,0,97,0,1
108985,-86.5800865800866,4,1,0,98,0,1
110282,-85.4700854700855,4,1,0,99,0,1
111579,-84.9256900212314,4,1,0,100,0,1
111742,-84.3881856540084,4,1,0,100,0,1
112877,-84.3881856540084,4,1,0,76,0,1
114174,-100,4,1,0,64,0,0
115471,-104.323308270677,4,1,0,56,0,0
116769,-109.037328094303,4,1,0,48,0,0
118066,370.37037037037,4,1,0,40,1,0
118806,-101.25,4,1,0,35,0,0
119547,379.746835443038,4,1,0,30,1,0
120917,413.793103448276,4,1,0,20,1,0
122439,491.803278688525,4,1,0,10,1,0
122561,-100,4,1,0,5,0,0

[Colours]
Combo1 : 41,214,166
Combo2 : 128,0,255
Combo3 : 128,255,255
Combo4 : 3,90,252

[HitObjects]
256,192,2607,5,8,0:0:0:0:
256,192,3255,5,0,0:0:0:0:
256,192,3904,1,0,0:0:0:0:
256,192,4552,5,8,0:0:0:0:
256,192,5201,5,0,0:0:0:0:
256,192,6498,1,0,0:0:0:0:
256,192,7796,1,0,0:0:0:0:
256,192,8444,5,8,0:0:0:0:
256,192,9093,5,0,0:0:0:0:
256,192,9742,5,8,0:0:0:0:
256,192,10390,5,0,0:0:0:0:
256,192,11688,5,8,0:0:0:0:
256,192,12985,1,12,0:0:0:0:
256,192,13634,5,0,0:0:0:0:
256,192,14282,1,0,0:0:0:0:
256,192,14931,5,8,0:0:0:0:
256,192,15579,5,0,0:0:0:0:
256,192,16877,1,0,0:0:0:0:
256,192,18174,1,0,0:0:0:0:
256,192,18498,1,0,0:0:0:0:
256,192,18823,5,8,0:0:0:0:
256,192,19471,5,0,0:0:0:0:
256,192,19796,5,8,0:0:0:0:
256,192,20120,1,8,0:0:0:0:
256,192,20769,5,0,0:0:0:0:
256,192,21093,1,0,0:0:0:0:
256,192,21417,1,0,0:0:0:0:
256,192,21742,1,0,0:0:0:0:
256,192,22066,5,8,0:0:0:0:
256,192,22715,5,0,0:0:0:0:
256,192,22796,1,0,0:0:0:0:
256,192,22877,5,8,0:0:0:0:
256,192,22958,1,8,0:0:0:0:
256,192,23039,5,0,0:0:0:0:
256,192,23120,1,0,0:0:0:0:
256,192,23201,5,8,0:0:0:0:
256,192,23363,1,12,0:0:0:0:
256,192,23688,5,0,0:0:0:0:
256,192,23769,1,0,0:0:0:0:
256,192,23850,5,8,0:0:0:0:
256,192,24012,1,8,0:0:0:0:
256,192,24093,1,8,0:0:0:0:
256,192,24174,5,0,0:0:0:0:
256,192,24255,1,0,0:0:0:0:
256,192,24336,5,8,0:0:0:0:
256,192,24417,5,0,0:0:0:0:
256,192,24498,1,0,0:0:0:0:
256,192,24661,1,0,0:0:0:0:
256,192,24823,1,0,0:0:0:0:
256,192,24904,1,0,0:0:0:0:
256,192,24985,5,8,0:0:0:0:
256,192,25147,1,0,0:0:0:0:
256,192,25228,5,8,0:0:0:0:
256,192,25309,1,8,0:0:0:0:
256,192,25390,1,8,0:0:0:0:
256,192,25471,5,0,0:0:0:0:
256,192,25552,1,0,0:0:0:0:
256,192,25634,1,0,0:0:0:0:
256,192,25796,5,8,0:0:0:0:
256,192,25958,5,0,0:0:0:0:
256,192,26120,1,0,0:0:0:0:
256,192,26201,1,0,0:0:0:0:
256,192,26282,5,8,0:0:0:0:
256,192,26444,5,0,0:0:0:0:
256,192,26525,1,0,0:0:0:0:
256,192,26606,5,8,0:0:0:0:
256,192,26769,5,0,0:0:0:0:
256,192,26850,5,8,0:0:0:0:
256,192,26931,1,8,0:0:0:0:
256,192,27093,5,0,0:0:0:0:
256,192,27174,5,8,0:0:0:0:
256,192,27255,1,8,0:0:0:0:
256,192,27336,1,8,0:0:0:0:
256,192,27417,5,0,0:0:0:0:
256,192,27498,1,0,0:0:0:0:
256,192,27579,1,0,0:0:0:0:
256,192,27742,5,8,0:0:0:0:
256,192,27823,1,8,0:0:0:0:
256,192,27904,5,0,0:0:0:0:
256,192,27985,1,0,0:0:0:0:
256,192,28066,1,0,0:0:0:0:
256,192,28228,5,8,0:0:0:0:
256,192,28309,1,8,0:0:0:0:
256,192,28390,5,0,0:0:0:0:
256,192,28552,1,0,0:0:0:0:
256,192,28715,5,0,0:0:0:0:
256,192,28796,1,0,0:0:0:0:
256,192,28877,5,8,0:0:0:0:
256,192,29039,5,0,0:0:0:0:
256,192,29120,1,0,0:0:0:0:
256,192,29201,1,0,0:0:0:0:
256,192,29282,5,8,0:0:0:0:
256,192,29363,1,8,0:0:0:0:
256,192,29525,5,0,0:0:0:0:
256,192,29688,5,8,0:0:0:0:
256,192,29850,5,0,0:0:0:0:
256,192,30012,1,0,0:0:0:0:
256,192,30093,5,8,0:0:0:0:
256,192,30174,1,8,0:0:0:0:
256,192,30336,5,0,0:0:0:0:
256,192,30417,5,8,0:0:0:0:
256,192,30498,5,0,0:0:0:0:
256,192,30579,5,8,0:0:0:0:
256,192,30661,1,8,0:0:0:0:
256,192,30823,1,8,0:0:0:0:
256,192,30985,1,8,0:0:0:0:
256,192,31066,5,0,0:0:0:0:
256,192,31147,5,8,0:0:0:0:
256,192,31228,1,8,0:0:0:0:
256,192,31309,5,0,0:0:0:0:
256,192,31390,1,0,0:0:0:0:
256,192,31471,1,0,0:0:0:0:
256,192,31634,5,8,0:0:0:0:
256,192,31715,5,0,0:0:0:0:
256,192,31796,5,8,0:0:0:0:
256,192,31877,5,0,0:0:0:0:
256,192,31958,1,0,0:0:0:0:
256,192,32120,5,8,0:0:0:0:
256,192,32282,5,0,0:0:0:0:
256,192,32444,1,0,0:0:0:0:
256,192,32606,1,0,0:0:0:0:
256,192,32688,1,0,0:0:0:0:
256,192,32769,5,8,0:0:0:0:
256,192,32931,5,0,0:0:0:0:
256,192,33012,5,8,0:0:0:0:
256,192,33093,5,0,0:0:0:0:
256,192,33174,5,8,0:0:0:0:
256,192,33255,1,8,0:0:0:0:
256,192,33336,5,0,0:0:0:0:
256,192,33417,5,8,0:0:0:0:
256,192,33498,5,0,0:0:0:0:
256,192,33579,1,0,0:0:0:0:
256,192,33742,1,4,0:0:0:0:
256,192,33904,1,0,0:0:0:0:
256,192,33985,1,0,0:0:0:0:
256,192,34066,5,8,0:0:0:0:
256,192,34228,1,8,0:0:0:0:
256,192,34390,5,0,0:0:0:0:
256,192,34552,1,0,0:0:0:0:
256,192,34634,1,0,0:0:0:0:
256,192,34715,5,8,0:0:0:0:
256,192,34877,1,8,0:0:0:0:
256,192,35039,5,0,0:0:0:0:
256,192,35201,1,0,0:0:0:0:
256,192,35282,1,0,0:0:0:0:
256,192,35363,5,8,0:0:0:0:
256,192,35525,1,8,0:0:0:0:
256,192,35688,5,0,0:0:0:0:
256,192,35769,1,0,0:0:0:0:
256,192,35850,5,8,0:0:0:0:
256,192,35931,1,8,0:0:0:0:
256,192,36012,1,8,0:0:0:0:
256,192,36174,1,8,0:0:0:0:
256,192,36336,5,0,0:0:0:0:
256,192,36498,1,0,0:0:0:0:
256,192,36579,1,0,0:0:0:0:
256,192,36661,5,8,0:0:0:0:
256,192,36823,1,8,0:0:0:0:
256,192,36985,5,0,0:0:0:0:
256,192,37147,1,0,0:0:0:0:
256,192,37228,1,0,0:0:0:0:
256,192,37309,5,8,0:0:0:0:
256,192,37471,1,8,0:0:0:0:
256,192,37634,5,0,0:0:0:0:
256,192,37796,1,0,0:0:0:0:
256,192,37877,1,0,0:0:0:0:
256,192,37958,5,8,0:0:0:0:
256,192,38120,1,8,0:0:0:0:
256,192,38282,1,8,0:0:0:0:
256,192,38444,1,8,0:0:0:0:
256,192,38525,1,8,0:0:0:0:
256,192,38606,5,0,0:0:0:0:
256,192,38688,1,0,0:0:0:0:
256,192,38769,5,8,0:0:0:0:
256,192,38931,5,4,0:0:0:0:
256,192,39093,1,0,0:0:0:0:
256,192,39174,1,0,0:0:0:0:
256,192,39255,5,8,0:0:0:0:
256,192,39417,5,0,0:0:0:0:
256,192,39498,5,8,0:0:0:0:
256,192,39579,5,0,0:0:0:0:
256,192,39661,1,0,0:0:0:0:
256,192,39742,5,8,0:0:0:0:
256,192,39904,5,0,0:0:0:0:
256,192,40066,5,8,0:0:0:0:
256,192,40228,5,0,0:0:0:0:
256,192,40390,1,0,0:0:0:0:
256,192,40471,1,0,0:0:0:0:
256,192,40552,5,8,0:0:0:0:
256,192,40715,1,0,0:0:0:0:
256,192,40796,5,8,0:0:0:0:
256,192,40877,5,0,0:0:0:0:
256,192,40958,5,8,0:0:0:0:
256,192,41039,1,8,0:0:0:0:
256,192,41201,5,0,0:0:0:0:
256,192,41282,5,8,0:0:0:0:
256,192,41363,1,8,0:0:0:0:
256,192,41525,5,4,0:0:0:0:
256,192,41688,1,0,0:0:0:0:
256,192,41769,1,0,0:0:0:0:
256,192,41850,5,8,0:0:0:0:
256,192,42012,5,0,0:0:0:0:
256,192,42093,5,8,0:0:0:0:
256,192,42174,5,0,0:0:0:0:
256,192,42255,1,0,0:0:0:0:
256,192,42336,5,8,0:0:0:0:
256,192,42498,5,0,0:0:0:0:
256,192,42579,5,8,0:0:0:0:
256,192,42661,1,8,0:0:0:0:
256,192,42823,5,4,0:0:0:0:
256,192,42985,1,0,0:0:0:0:
256,192,43066,5,8,0:0:0:0:
256,192,43147,5,0,0:0:0:0:
256,192,43228,5,8,0:0:0:0:
256,192,43309,1,8,0:0:0:0:
256,192,43471,5,0,0:0:0:0:
256,192,43552,1,0,0:0:0:0:
256,192,43634,5,8,0:0:0:0:
256,192,43715,1,8,0:0:0:0:
256,192,43796,5,0,0:0:0:0:
256,192,43877,5,8,0:0:0:0:
256,192,43958,1,8,0:0:0:0:
256,192,44120,5,4,0:0:0:0:
256,192,45093,1,0,0:0:0:0:
256,192,45255,5,8,0:0:0:0:
256,192,45417,1,8,0:0:0:0:
256,192,45742,1,8,0:0:0:0:
256,192,46066,1,8,0:0:0:0:
256,192,46390,5,0,0:0:0:0:
256,192,47688,1,0,0:0:0:0:
256,192,47850,5,8,0:0:0:0:
256,192,48012,1,8,0:0:0:0:
256,192,48174,5,0,0:0:0:0:
256,192,48336,5,8,0:0:0:0:
256,192,48498,5,0,0:0:0:0:
256,192,48661,5,8,0:0:0:0:
256,192,48985,5,0,0:0:0:0:
256,192,50282,1,0,0:0:0:0:
256,192,50444,5,8,0:0:0:0:
256,192,50606,1,8,0:0:0:0:
256,192,50931,1,8,0:0:0:0:
256,192,51255,1,8,0:0:0:0:
256,192,51579,5,0,0:0:0:0:
256,192,52715,1,0,0:0:0:0:
256,192,52877,1,0,0:0:0:0:
256,192,53039,5,8,0:0:0:0:
256,192,53201,1,8,0:0:0:0:
256,192,53363,5,0,0:0:0:0:
256,192,53525,5,8,0:0:0:0:
256,192,53688,5,0,0:0:0:0:
256,192,53850,1,0,0:0:0:0:
256,192,54174,5,8,0:0:0:0:
256,192,54498,1,8,0:0:0:0:
256,192,55471,5,0,0:0:0:0:
256,192,55634,5,8,0:0:0:0:
256,192,55796,1,8,0:0:0:0:
256,192,56120,1,8,0:0:0:0:
256,192,56444,5,0,0:0:0:0:
256,192,56769,5,8,0:0:0:0:
256,192,57093,1,8,0:0:0:0:
256,192,58066,5,0,0:0:0:0:
256,192,58228,5,8,0:0:0:0:
256,192,58390,1,8,0:0:0:0:
256,192,58552,5,0,0:0:0:0:
256,192,58715,5,8,0:0:0:0:
256,192,58877,5,0,0:0:0:0:
256,192,59039,1,0,0:0:0:0:
256,192,59363,5,8,0:0:0:0:
256,192,59688,1,8,0:0:0:0:
256,192,60661,5,0,0:0:0:0:
256,192,60823,5,8,0:0:0:0:
256,192,60985,1,8,0:0:0:0:
256,192,61147,5,0,0:0:0:0:
256,192,61309,5,8,0:0:0:0:
256,192,61471,5,0,0:0:0:0:
256,192,61634,5,8,0:0:0:0:
256,192,61796,5,0,0:0:0:0:
256,192,61958,5,8,0:0:0:0:
256,192,62282,5,0,0:0:0:0:
256,192,62444,1,0,0:0:0:0:
256,192,62525,1,0,0:0:0:0:
256,192,62606,5,8,0:0:0:0:
256,192,62769,5,0,0:0:0:0:
256,192,62850,5,8,0:0:0:0:
256,192,62931,5,0,0:0:0:0:
256,192,63012,1,0,0:0:0:0:
256,192,63093,5,8,0:0:0:0:
256,192,63255,5,0,0:0:0:0:
256,192,63336,1,0,0:0:0:0:
256,192,63417,5,8,0:0:0:0:
256,192,63579,1,8,0:0:0:0:
256,192,63661,5,0,0:0:0:0:
256,192,63742,1,0,0:0:0:0:
256,192,63823,1,0,0:0:0:0:
256,192,63904,5,8,0:0:0:0:
256,192,64066,5,0,0:0:0:0:
256,192,64147,5,8,0:0:0:0:
256,192,64228,1,8,0:0:0:0:
256,192,64309,1,8,0:0:0:0:
256,192,64390,5,0,0:0:0:0:
256,192,64471,1,0,0:0:0:0:
256,192,64552,5,8,0:0:0:0:
256,192,64634,5,0,0:0:0:0:
256,192,64715,1,0,0:0:0:0:
256,192,64877,1,4,0:0:0:0:
256,192,65363,1,4,0:0:0:0:
256,192,65688,5,0,0:0:0:0:
256,192,65742,5,8,0:0:0:0:
256,192,65796,1,8,0:0:0:0:
256,192,65850,1,8,0:0:0:0:
256,192,65904,1,8,0:0:0:0:
256,192,65958,1,8,0:0:0:0:
256,192,66012,5,0,0:0:0:0:
256,192,66174,1,4,0:0:0:0:
256,192,66661,1,4,0:0:0:0:
256,192,66985,5,8,0:0:0:0:
256,192,67039,5,0,0:0:0:0:
256,192,67093,1,0,0:0:0:0:
256,192,67147,1,0,0:0:0:0:
256,192,67201,1,0,0:0:0:0:
256,192,67255,1,0,0:0:0:0:
256,192,67309,5,8,0:0:0:0:
256,192,67471,1,4,0:0:0:0:
256,192,67958,1,4,0:0:0:0:
256,192,68282,5,8,0:0:0:0:
256,192,68336,5,0,0:0:0:0:
256,192,68390,1,0,0:0:0:0:
256,192,68444,1,0,0:0:0:0:
256,192,68498,1,0,0:0:0:0:
256,192,68552,5,8,0:0:0:0:
256,192,68606,5,0,0:0:0:0:
256,192,68769,5,8,0:0:0:0:
256,192,68850,1,8,0:0:0:0:
256,192,68931,5,0,0:0:0:0:
256,192,69012,1,0,0:0:0:0:
256,192,69093,1,0,0:0:0:0:
256,192,69174,1,0,0:0:0:0:
256,192,69255,5,8,0:0:0:0:
256,192,69336,1,8,0:0:0:0:
256,192,69417,1,8,0:0:0:0:
256,192,69498,1,8,0:0:0:0:
256,192,69579,5,0,0:0:0:0:
256,192,69661,1,0,0:0:0:0:
256,192,69742,5,8,0:0:0:0:
256,192,69823,5,0,0:0:0:0:
256,192,69904,1,0,0:0:0:0:
256,192,70066,5,12,0:0:0:0:
256,192,70552,1,12,0:0:0:0:
256,192,70877,5,0,0:0:0:0:
256,192,70931,5,8,0:0:0:0:
256,192,70985,1,8,0:0:0:0:
256,192,71039,1,8,0:0:0:0:
256,192,71093,1,8,0:0:0:0:
256,192,71147,1,8,0:0:0:0:
256,192,71201,5,0,0:0:0:0:
256,192,71363,5,12,0:0:0:0:
256,192,71850,1,12,0:0:0:0:
256,192,72174,1,8,0:0:0:0:
256,192,72228,5,0,0:0:0:0:
256,192,72282,1,0,0:0:0:0:
256,192,72336,1,0,0:0:0:0:
256,192,72390,1,0,0:0:0:0:
256,192,72444,1,0,0:0:0:0:
256,192,72498,5,8,0:0:0:0:
256,192,72661,1,12,0:0:0:0:
256,192,73147,1,12,0:0:0:0:
256,192,73471,5,0,0:0:0:0:
256,192,73525,5,8,0:0:0:0:
256,192,73579,1,8,0:0:0:0:
256,192,73633,1,8,0:0:0:0:
256,192,73687,1,8,0:0:0:0:
256,192,73741,5,0,0:0:0:0:
256,192,73795,5,8,0:0:0:0:
256,192,73958,1,8,0:0:0:0:
256,192,74039,1,8,0:0:0:0:
256,192,74120,5,0,0:0:0:0:
256,192,74201,1,0,0:0:0:0:
256,192,74282,1,0,0:0:0:0:
256,192,74363,1,0,0:0:0:0:
256,192,74444,5,8,0:0:0:0:
256,192,74525,1,8,0:0:0:0:
256,192,74606,1,8,0:0:0:0:
256,192,74688,1,8,0:0:0:0:
256,192,74769,5,0,0:0:0:0:
256,192,74850,1,0,0:0:0:0:
256,192,74931,1,0,0:0:0:0:
256,192,75012,5,8,0:0:0:0:
256,192,75093,1,8,0:0:0:0:
256,192,75255,1,12,0:0:0:0:
256,192,75579,1,8,0:0:0:0:
256,192,75904,5,0,0:0:0:0:
256,192,76228,5,8,0:0:0:0:
256,192,76390,1,8,0:0:0:0:
256,192,76552,5,0,0:0:0:0:
256,192,76877,1,0,0:0:0:0:
256,192,77201,5,8,0:0:0:0:
256,192,77525,1,8,0:0:0:0:
256,192,77688,1,8,0:0:0:0:
256,192,77850,5,0,0:0:0:0:
256,192,78174,5,8,0:0:0:0:
256,192,78498,1,8,0:0:0:0:
256,192,78823,1,8,0:0:0:0:
256,192,78985,5,0,0:0:0:0:
256,192,79147,5,8,0:0:0:0:
256,192,79471,1,8,0:0:0:0:
256,192,79634,5,0,0:0:0:0:
256,192,79715,1,0,0:0:0:0:
256,192,79796,5,8,0:0:0:0:
256,192,80039,1,8,0:0:0:0:
256,192,80282,5,0,0:0:0:0:
256,192,80444,5,12,0:0:0:0:
256,192,80769,1,8,0:0:0:0:
256,192,80850,1,8,0:0:0:0:
256,192,80931,5,0,0:0:0:0:
256,192,81012,1,0,0:0:0:0:
256,192,81093,5,8,0:0:0:0:
256,192,81255,1,8,0:0:0:0:
256,192,81417,1,8,0:0:0:0:
256,192,81579,1,8,0:0:0:0:
256,192,81742,5,4,0:0:0:0:
256,192,82066,1,0,0:0:0:0:
256,192,82147,1,0,0:0:0:0:
256,192,82228,1,0,0:0:0:0:
256,192,82309,1,0,0:0:0:0:
256,192,82390,5,8,0:0:0:0:
256,192,82634,1,8,0:0:0:0:
256,192,82877,1,8,0:0:0:0:
256,192,83039,5,4,0:0:0:0:
256,192,83201,5,8,0:0:0:0:
256,192,83282,1,8,0:0:0:0:
256,192,83363,5,0,0:0:0:0:
256,192,83444,1,0,0:0:0:0:
256,192,83525,5,8,0:0:0:0:
256,192,83688,5,0,0:0:0:0:
256,192,83769,1,0,0:0:0:0:
256,192,83850,1,0,0:0:0:0:
256,192,83931,5,8,0:0:0:0:
256,192,84012,5,0,0:0:0:0:
256,192,84093,1,0,0:0:0:0:
256,192,84174,5,8,0:0:0:0:
256,192,84336,5,0,0:0:0:0:
256,192,84417,1,0,0:0:0:0:
256,192,84498,5,8,0:0:0:0:
256,192,84579,1,8,0:0:0:0:
256,192,84661,5,0,0:0:0:0:
256,192,84742,1,0,0:0:0:0:
256,192,84823,5,8,0:0:0:0:
256,192,84985,5,0,0:0:0:0:
256,192,85066,5,8,0:0:0:0:
256,192,85147,1,8,0:0:0:0:
256,192,85228,1,8,0:0:0:0:
256,192,85309,5,0,0:0:0:0:
256,192,85390,1,0,0:0:0:0:
256,192,85471,5,8,0:0:0:0:
256,192,85634,1,12,0:0:0:0:
256,192,85796,1,8,0:0:0:0:
256,192,85877,5,0,0:0:0:0:
256,192,85958,5,8,0:0:0:0:
256,192,86039,1,8,0:0:0:0:
256,192,86120,1,8,0:0:0:0:
256,192,86201,5,0,0:0:0:0:
256,192,86282,5,8,0:0:0:0:
256,192,86363,1,8,0:0:0:0:
256,192,86444,1,8,0:0:0:0:
256,192,86525,5,0,0:0:0:0:
256,192,86606,5,8,0:0:0:0:
256,192,86688,1,8,0:0:0:0:
256,192,86769,5,0,0:0:0:0:
256,192,86850,5,8,0:0:0:0:
256,192,86931,5,0,0:0:0:0:
256,192,88228,5,12,0:0:0:0:
256,192,88552,5,0,0:0:0:0:
256,192,88796,5,8,0:0:0:0:
256,192,88877,5,0,0:0:0:0:
256,192,89039,1,0,0:0:0:0:
256,192,89201,5,8,0:0:0:0:
256,192,89363,5,0,0:0:0:0:
256,192,89525,5,8,0:0:0:0:
256,192,89688,1,8,0:0:0:0:
256,192,89769,1,8,0:0:0:0:
256,192,89850,1,8,0:0:0:0:
256,192,90012,5,0,0:0:0:0:
256,192,90174,5,8,0:0:0:0:
256,192,90255,1,8,0:0:0:0:
256,192,90336,5,0,0:0:0:0:
256,192,90417,5,8,0:0:0:0:
256,192,90498,1,8,0:0:0:0:
256,192,90661,1,8,0:0:0:0:
256,192,90742,1,8,0:0:0:0:
256,192,90823,5,0,0:0:0:0:
256,192,90985,5,8,0:0:0:0:
256,192,91147,1,8,0:0:0:0:
256,192,91309,5,0,0:0:0:0:
256,192,91634,1,0,0:0:0:0:
256,192,91796,5,8,0:0:0:0:
256,192,91958,5,0,0:0:0:0:
256,192,92039,5,8,0:0:0:0:
256,192,92120,5,0,0:0:0:0:
256,192,92282,1,0,0:0:0:0:
256,192,92363,1,0,0:0:0:0:
256,192,92444,5,8,0:0:0:0:
256,192,92606,5,0,0:0:0:0:
256,192,92769,5,8,0:0:0:0:
256,192,92850,1,8,0:0:0:0:
256,192,92931,5,0,0:0:0:0:
256,192,93012,1,0,0:0:0:0:
256,192,93093,1,0,0:0:0:0:
256,192,93255,1,0,0:0:0:0:
256,192,93417,5,8,0:0:0:0:
256,192,93742,5,0,0:0:0:0:
256,192,93985,5,8,0:0:0:0:
256,192,94066,5,0,0:0:0:0:
256,192,94228,1,0,0:0:0:0:
256,192,94390,5,8,0:0:0:0:
256,192,94552,5,0,0:0:0:0:
256,192,94715,1,0,0:0:0:0:
256,192,94877,1,0,0:0:0:0:
256,192,94958,1,0,0:0:0:0:
256,192,95039,1,0,0:0:0:0:
256,192,95201,5,8,0:0:0:0:
256,192,95363,1,8,0:0:0:0:
256,192,95444,1,8,0:0:0:0:
256,192,95525,5,0,0:0:0:0:
256,192,95606,5,8,0:0:0:0:
256,192,95688,5,0,0:0:0:0:
256,192,95850,1,0,0:0:0:0:
256,192,96012,5,8,0:0:0:0:
256,192,96174,1,8,0:0:0:0:
256,192,96255,1,8,0:0:0:0:
256,192,96336,5,0,0:0:0:0:
256,192,96498,1,0,0:0:0:0:
256,192,96661,1,0,0:0:0:0:
256,192,96742,1,0,0:0:0:0:
256,192,96823,1,0,0:0:0:0:
256,192,96904,1,0,0:0:0:0:
256,192,96985,5,8,0:0:0:0:
256,192,97147,5,0,0:0:0:0:
256,192,97309,5,8,0:0:0:0:
256,192,97471,1,8,0:0:0:0:
256,192,97552,1,8,0:0:0:0:
256,192,97634,5,0,0:0:0:0:
256,192,97715,1,0,0:0:0:0:
256,192,97796,1,0,0:0:0:0:
256,192,97958,5,8,0:0:0:0:
256,192,98039,1,8,0:0:0:0:
256,192,98120,1,8,0:0:0:0:
256,192,98201,1,8,0:0:0:0:
256,192,98282,5,0,0:0:0:0:
256,192,98444,5,8,0:0:0:0:
256,192,98931,1,12,0:0:0:0:
256,192,99093,5,0,0:0:0:0:
256,192,99255,5,8,0:0:0:0:
256,192,99336,1,8,0:0:0:0:
256,192,99417,5,0,0:0:0:0:
256,192,99498,5,8,0:0:0:0:
256,192,99579,1,8,0:0:0:0:
256,192,99661,5,0,0:0:0:0:
256,192,99742,1,0,0:0:0:0:
256,192,99904,5,8,0:0:0:0:
256,192,99985,5,0,0:0:0:0:
256,192,100066,1,0,0:0:0:0:
256,192,100147,5,8,0:0:0:0:
256,192,100228,1,8,0:0:0:0:
256,192,100309,5,0,0:0:0:0:
256,192,100390,1,0,0:0:0:0:
256,192,100552,5,8,0:0:0:0:
256,192,100634,5,0,0:0:0:0:
256,192,100715,1,0,0:0:0:0:
256,192,100796,5,8,0:0:0:0:
256,192,100877,1,8,0:0:0:0:
256,192,100958,1,8,0:0:0:0:
256,192,101039,5,0,0:0:0:0:
256,192,101201,5,12,0:0:0:0:
256,192,101363,5,0,0:0:0:0:
256,192,101444,5,8,0:0:0:0:
256,192,101525,5,0,0:0:0:0:
256,192,101688,5,12,0:0:0:0:
256,192,101850,1,8,0:0:0:0:
256,192,101931,1,8,0:0:0:0:
256,192,102012,5,0,0:0:0:0:
256,192,102174,5,12,0:0:0:0:
256,192,102336,1,8,0:0:0:0:
256,192,102417,5,0,0:0:0:0:
256,192,102498,1,0,0:0:0:0:
256,192,102579,5,8,0:0:0:0:
256,192,102661,1,8,0:0:0:0:
256,192,102742,5,0,0:0:0:0:
256,192,102823,5,8,0:0:0:0:
256,192,102904,1,8,0:0:0:0:
256,192,102985,5,0,0:0:0:0:
256,192,103066,1,0,0:0:0:0:
256,192,103147,5,8,0:0:0:0:
256,192,103228,5,0,0:0:0:0:
256,192,103309,1,0,0:0:0:0:
256,192,103390,1,0,0:0:0:0:
256,192,103471,1,0,0:0:0:0:
256,192,103634,5,12,0:0:0:0:
256,192,103958,5,0,0:0:0:0:
256,192,104120,5,8,0:0:0:0:
256,192,104282,5,0,0:0:0:0:
256,192,104363,5,8,0:0:0:0:
256,192,104444,5,0,0:0:0:0:
256,192,104525,5,8,0:0:0:0:
256,192,104606,5,0,0:0:0:0:
256,192,104769,5,8,0:0:0:0:
256,192,104931,1,12,0:0:0:0:
256,192,105255,5,0,0:0:0:0:
256,192,105417,5,8,0:0:0:0:
256,192,105579,5,0,0:0:0:0:
256,192,105661,5,8,0:0:0:0:
256,192,105742,1,8,0:0:0:0:
256,192,105823,5,0,0:0:0:0:
256,192,105904,1,0,0:0:0:0:
256,192,106066,5,8,0:0:0:0:
256,192,106228,1,12,0:0:0:0:
256,192,106552,5,0,0:0:0:0:
256,192,106715,5,8,0:0:0:0:
256,192,106877,5,0,0:0:0:0:
256,192,106958,5,8,0:0:0:0:
256,192,107039,1,8,0:0:0:0:
256,192,107120,1,8,0:0:0:0:
256,192,107201,5,0,0:0:0:0:
256,192,107363,5,8,0:0:0:0:
256,192,107525,1,12,0:0:0:0:
256,192,107850,1,8,0:0:0:0:
256,192,108012,5,0,0:0:0:0:
256,192,108174,5,8,0:0:0:0:
256,192,108255,5,0,0:0:0:0:
256,192,108336,1,0,0:0:0:0:
256,192,108417,5,8,0:0:0:0:
256,192,108498,1,8,0:0:0:0:
256,192,108661,5,0,0:0:0:0:
256,192,108823,5,12,0:0:0:0:
256,192,108985,1,8,0:0:0:0:
256,192,109066,5,0,0:0:0:0:
256,192,109147,1,0,0:0:0:0:
256,192,109228,1,0,0:0:0:0:
256,192,109309,5,8,0:0:0:0:
256,192,109471,1,8,0:0:0:0:
256,192,109552,5,0,0:0:0:0:
256,192,109634,5,0,0:0:0:0:
256,192,109715,5,8,0:0:0:0:
256,192,109796,1,8,0:0:0:0:
256,192,109958,5,0,0:0:0:0:
256,192,110120,5,12,0:0:0:0:
256,192,110282,1,8,0:0:0:0:
256,192,110363,5,0,0:0:0:0:
256,192,110444,5,8,0:0:0:0:
256,192,110525,5,0,0:0:0:0:
256,192,110606,1,0,0:0:0:0:
256,192,110769,1,0,0:0:0:0:
256,192,110850,1,0,0:0:0:0:
256,192,110931,5,8,0:0:0:0:
256,192,111012,1,8,0:0:0:0:
256,192,111093,1,8,0:0:0:0:
256,192,111174,1,8,0:0:0:0:
256,192,111255,1,8,0:0:0:0:
256,192,111417,5,0,0:0:0:0:
256,192,111742,5,12,0:0:0:0:
256,192,111904,1,12,0:0:0:0:
256,192,112066,1,12,0:0:0:0:
256,192,112228,1,12,0:0:0:0:
256,192,112471,1,12,0:0:0:0:
256,192,112715,5,4,0:0:0:0:
256,192,112877,12,0,114012,0:0:0:0:
256,192,114174,5,4,0:0:0:0:
256,192,115471,5,8,0:0:0:0:
256,192,116769,5,0,0:0:0:0:
256,192,118066,5,8,0:0:0:0:
256,192,118806,5,0,0:0:0:0:
256,192,119547,5,8,0:0:0:0:
256,192,120917,5,0,0:0:0:0:
256,192,122439,5,8,0:0:0:0:
256,192,122561,12,0,124590,0:0:0:0:
