osu file format v14

[General]
AudioFilename: -+.mp3
AudioLeadIn: 0
PreviewTime:86931
Countdown: 0
SampleSet: Normal
StackLeniency: 0.5
Mode: 0
LetterboxInBreaks: 0
WidescreenStoryboard: 1
EpilepsyWarning: 1

[Editor]
Bookmarks: 69742,106958,108255
DistanceSpacing: 1.3
BeatDivisor: 4
GridSize: 32
TimelineZoom: 5.799997

[Metadata]
Title:-+
TitleUnicode:-+
Artist:daisan
ArtistUnicode:daisan
Creator:Starfy
Version:StarrStyx's Expert
Source:BOF2013
Tags:minus plus konzertsaal - THE BMS OF FIGHTERS 2013 Dirt Art Color Teller xellox piano StarForYou Kyle Y IamKwaN happy623 -N_a_n_a_k_o- Nanako Kencho Chaoslitz [ Drop ] choikapo Regou Rizia Kawaiwkyik Nakano Itsuki StarrStyx Prophecy aabc271 Nardoxyribonucleic Skylish ll-oscar autofanboy alienflybot hokin1995 pwhk hong kong hk muse dash electronic instrumental
BeatmapID:1354519
BeatmapSetID:389617

[Difficulty]
HPDrainRate:6
CircleSize:4
OverallDifficulty:8
ApproachRate:9.5
SliderMultiplier:1.92
SliderTickRate:1

[Events]
//Background and Video events
0,0,"BG.png",0,0
//Break Periods
//Storyboard Layer 0 (Background)
//Storyboard Layer 1 (Fail)
//Storyboard Layer 2 (Pass)
//Storyboard Layer 3 (Foreground)
//Storyboard Layer 4 (Overlay)
//Storyboard Sound Samples

[TimingPoints]
2607,324.324324324324,4,1,6,20,1,0
2607,-200,4,1,6,20,0,0
12985,-200,4,3,20,50,0,0
13066,-200,4,1,6,50,0,0
20769,-125,4,1,6,50,0,0
22066,-200,4,1,6,50,0,0
22715,-100,4,1,6,60,0,0
23039,-100,4,1,6,70,0,0
23363,-83.3333333333333,4,1,6,85,0,1
32444,-83.3333333333333,4,1,6,85,0,0
33742,-83.3333333333333,4,1,6,85,0,1
33904,-83.3333333333333,4,1,6,85,0,0
35039,-83.3333333333333,4,1,6,85,0,1
35198,-83.3333333333333,4,1,6,85,0,0
36336,-83.3333333333333,4,1,6,85,0,1
36498,-83.3333333333333,4,1,6,85,0,0
37634,-83.3333333333333,4,1,6,85,0,1
37796,-83.3333333333333,4,1,6,85,0,0
38931,-83.3333333333333,4,1,6,85,0,1
39093,-83.3333333333333,4,1,6,85,0,0
40228,-83.3333333333333,4,1,6,85,0,1
40390,-83.3333333333333,4,1,6,85,0,0
41525,-83.3333333333333,4,1,6,85,0,1
41688,-83.3333333333333,4,1,6,85,0,0
42823,-83.3333333333333,4,1,6,85,0,1
42985,-83.3333333333333,4,1,6,85,0,0
44120,-100,4,3,20,40,0,0
44201,-100,4,2,1,40,0,0
45093,-166.666666666667,4,2,1,40,0,0
54498,-100,4,3,20,50,0,0
54579,-100,4,2,1,50,0,0
62282,-100,4,1,6,50,0,0
62606,-100,4,1,6,55,0,0
63579,-100,4,2,1,60,0,0
64228,-80,4,1,6,70,0,0
64877,-100,4,1,6,70,0,0
73958,-83.3333333333333,4,1,6,70,0,0
75255,-100,4,1,6,60,0,0
85634,-100,4,1,6,85,0,0
86931,-166.666666666667,4,1,5,85,0,0
87093,-125,4,1,6,85,0,0
88228,-83.3333333333333,4,1,6,85,0,1
98444,-166.666666666667,4,1,6,85,0,1
98931,-83.3333333333333,4,1,6,85,0,1
108823,-71.4285714285714,4,1,6,85,0,1
111417,-57.1428571428571,4,1,6,85,0,1
114174,-166.666666666667,4,1,6,85,0,0
118066,370.37037037037,4,1,6,35,1,0
118066,-200,4,1,6,35,0,0
119547,379.746835443038,4,1,6,30,1,0
119547,-166.666666666667,4,1,6,30,0,0
120917,413.793103448276,4,1,6,25,1,0
120917,-166.666666666667,4,1,6,25,0,0
122439,491.803278688525,4,1,6,20,1,0
122439,-166.666666666667,4,1,6,20,0,0

[Colours]
Combo1 : 41,214,166
Combo2 : 128,0,255
Combo3 : 128,255,255
Combo4 : 3,90,252

[HitObjects]
208,159,2607,6,0,P|153:90|48:102,2,192
112,177,4552,1,0,0:0:0:0:
315,279,5201,2,0,B|187:203|187:337|31:272,1,288,2|0,0:0|0:0,0:0:0:0:
179,108,6498,2,0,B|326:47|326:181|454:105,1,288,2|0,0:0|0:0,0:0:0:0:
253,189,7796,6,0,B|246:260|246:260|262:307|262:307|255:388,2,192
149,322,9742,1,0,0:0:0:0:
326,227,10390,2,0,P|339:172|333:240,1,288,2|0,0:0|0:0,0:0:0:0:
136,138,11688,2,0,P|69:214|157:164,1,288,2|0,0:0|0:0,0:0:0:0:
302,52,12985,6,0,P|279:141|337:219,1,192,2|0,0:0|0:0,0:0:0:0:
390,122,14282,1,0,0:0:0:0:
256,266,14931,1,0,0:0:0:0:
461,307,15579,6,0,B|409:287|372:328|372:328|332:298|332:298|298:360|233:358|203:329,1,288,2|0,0:0|0:0,0:0:0:0:
35,220,16877,2,0,P|174:213|216:86,1,288,2|0,0:0|0:0,0:0:0:0:
87,30,18174,6,0,L|104:125,1,96
181,314,18823,2,0,L|197:219,1,96
295,66,19471,2,0,L|311:160,1,96
413,308,20120,2,0,L|429:213,1,96
209,139,20769,6,0,P|207:181|231:224,1,76.8,2|0,0:0|0:0,0:0:0:0:
437,126,21093,2,0,P|399:131|367:152,1,76.8
223,293,21417,2,0,P|261:294|295:278,1,76.8
312,89,21742,2,0,P|290:121|286:159,1,76.8
404,355,22066,2,0,L|428:213,1,144,2|0,0:0|0:0,0:0:0:0:
434,86,22715,6,0,P|409:96|372:93,3,48
304,133,23039,2,0,P|279:123|242:126,3,48
171,65,23363,6,0,L|165:135,1,57.5999982421876,12|0,0:0|0:0,0:0:0:0:
264,204,23525,2,0,L|268:261,1,57.5999982421876,8|0,0:0|0:0,0:0:0:0:
395,370,23688,1,6,0:0:0:0:
429,332,23769,1,0,0:0:0:0:
438,282,23850,1,2,0:0:0:0:
417,235,23931,1,2,0:0:0:0:
377,202,24012,5,2,0:0:0:0:
326,191,24093,1,0,0:0:0:0:
275,194,24174,1,8,0:0:0:0:
238,229,24255,1,0,0:0:0:0:
201,265,24336,1,6,0:0:0:0:
154,287,24417,1,0,0:0:0:0:
104,279,24498,1,0,0:0:0:0:
67,244,24579,1,0,0:0:0:0:
52,193,24661,6,0,P|50:165|64:137,1,57.5999982421876,8|0,0:0|0:0,0:0:0:0:
129,72,24823,2,0,P|152:56|183:54,1,57.5999982421876,8|0,0:0|0:0,0:0:0:0:
289,73,24985,1,6,0:0:0:0:
311,118,25066,1,0,0:0:0:0:
303,168,25147,1,2,0:0:0:0:
265,204,25228,1,2,0:0:0:0:
236,247,25309,5,2,0:0:0:0:
222,296,25390,1,0,0:0:0:0:
242,343,25471,1,8,0:0:0:0:
287,366,25552,1,0,0:0:0:0:
339,362,25634,1,6,0:0:0:0:
384,337,25715,1,0,0:0:0:0:
405,290,25796,1,0,0:0:0:0:
389,240,25877,1,0,0:0:0:0:
344,213,25958,5,8,0:0:0:0:
98,250,26120,2,0,P|126:254|155:250,1,57.5999982421876
294,145,26282,1,6,0:0:0:0:
163,42,26444,6,0,P|157:77|173:116,1,57.5999982421876
280,276,26606,1,2,0:0:0:0:
309,64,26769,6,0,P|275:64|245:82,1,57.5999982421876,8|0,0:0|0:0,0:0:0:0:
124,175,26931,2,0,L|52:169,3,57.5999982421876,6|0|0|0,0:0|0:0|0:0|0:0,0:0:0:0:
32,282,27255,5,10,0:0:0:0:
79,260,27336,1,0,0:0:0:0:
130,264,27417,1,8,0:0:0:0:
174,289,27498,1,8,0:0:0:0:
214,321,27579,1,4,0:0:0:0:
261,340,27660,1,0,0:0:0:0:
312,337,27741,1,10,0:0:0:0:
358,314,27822,1,2,0:0:0:0:
391,273,27904,5,10,0:0:0:0:
412,226,27985,1,10,0:0:0:0:
407,176,28066,1,2,0:0:0:0:
375,136,28147,1,10,0:0:0:0:
331,108,28228,1,14,0:0:0:0:
282,94,28309,1,2,0:0:0:0:
233,111,28390,1,8,0:0:0:0:
204,153,28471,1,2,0:0:0:0:
196,204,28552,6,0,P|196:236|209:266,1,57.5999982421876,8|0,0:0|0:0,0:0:0:0:
305,293,28715,2,0,P|332:308|365:312,1,57.5999982421876,10|0,0:0|0:0,0:0:0:0:
407,176,28877,6,0,P|370:171|332:184,1,57.5999982421876,10|0,0:0|0:0,0:0:0:0:
203,153,29039,2,0,P|178:167|160:188,1,57.5999982421876,8|0,0:0|0:0,0:0:0:0:
301,349,29201,6,0,P|308:321|302:286,1,57.5999982421876,10|0,0:0|0:0,0:0:0:0:
283,131,29363,2,0,P|270:105|243:82,1,57.5999982421876,10|0,0:0|0:0,0:0:0:0:
87,152,29525,2,0,P|78:179|80:207,3,57.5999982421876,4|0|0|0,0:0|0:0|0:0|0:0,0:0:0:0:
232,295,29850,6,0,P|238:267|236:239,1,57.5999982421876,8|0,0:0|0:0,0:0:0:0:
160,63,30012,2,0,P|158:91|164:119,1,57.5999982421876,10|0,0:0|0:0,0:0:0:0:
359,164,30174,6,0,P|330:162|302:168,1,57.5999982421876,6|0,0:0|0:0,0:0:0:0:
96,282,30336,2,0,P|124:283|152:277,1,57.5999982421876
252,99,30498,6,0,P|237:124|232:152,1,57.5999982421876,2|0,0:0|0:0,0:0:0:0:
339,339,30661,2,0,P|342:310|334:283,1,57.5999982421876,10|0,0:0|0:0,0:0:0:0:
170,193,30823,6,0,P|189:213|215:225,1,57.5999982421876,12|0,0:0|0:0,0:0:0:0:
406,233,30985,2,0,P|426:213|438:187,1,57.5999982421876,2|0,0:0|0:0,0:0:0:0:
337,57,31147,5,10,0:0:0:0:
333,90,31228,1,0,0:0:0:0:
329,125,31309,1,0,0:0:0:0:
325,159,31390,1,0,0:0:0:0:
321,194,31471,2,0,L|313:260,1,57.5999982421876
160,381,31634,5,10,0:0:0:0:
178,352,31715,1,0,0:0:0:0:
183,318,31796,1,2,0:0:0:0:
173,285,31877,1,0,0:0:0:0:
151,259,31958,5,8,0:0:0:0:
113,222,32039,1,0,0:0:0:0:
85,179,32120,1,4,0:0:0:0:
87,127,32201,1,0,0:0:0:0:
117,85,32282,1,8,0:0:0:0:
167,75,32363,1,0,0:0:0:0:
218,79,32444,6,0,P|245:87|266:106,1,57.5999982421876,8|8,0:0|0:0,0:0:0:0:
151,259,32606,2,0,P|144:229|157:192,1,57.5999982421876,8|8,0:0|0:0,0:0:0:0:
331,165,32769,2,0,P|311:184|283:192,1,57.5999982421876,6|0,0:0|0:0,0:0:0:0:
87,127,32931,2,0,P|113:115|141:117,1,57.5999982421876,8|0,0:0|0:0,0:0:0:0:
295,268,33093,6,0,P|262:266|234:248,1,57.5999982421876,6|2,0:0|0:0,0:0:0:0:
311,39,33255,2,0,P|334:61|344:93,1,57.5999982421876,10|0,0:0|0:0,0:0:0:0:
164,148,33417,2,0,P|189:135|218:134,1,57.5999982421876,6|6,0:0|0:0,0:0:0:0:
424,251,33579,2,0,P|395:250|369:237,1,57.5999982421876,6|6,0:0|0:0,0:0:0:0:
218,134,33742,5,12,0:0:0:0:
418,154,33904,1,0,0:0:0:0:
197,173,34066,1,4,0:0:0:0:
450,123,34228,1,0,0:0:0:0:
274,349,34390,5,0,0:0:0:0:
374,2,34552,1,8,0:0:0:0:
398,266,34715,1,4,0:0:0:0:
270,77,34877,1,2,0:0:0:0:
185,359,35039,5,8,0:0:0:0:
239,169,35201,1,8,0:0:0:0:
223,376,35363,1,4,0:0:0:0:
214,148,35525,2,0,P|215:183|234:221,1,57.5999982421876
396,334,35688,5,0,0:0:0:0:
43,270,35850,1,8,0:0:0:0:
369,158,36012,1,4,0:0:0:0:
190,381,36174,2,0,P|186:354|196:313,1,57.5999982421876,2|0,0:0|0:0,0:0:0:0:
314,139,36336,5,8,0:0:0:0:
149,207,36498,1,0,0:0:0:0:
356,155,36661,1,4,0:0:0:0:
111,191,36823,2,0,P|144:187|180:198,1,57.5999982421876
340,281,36985,5,0,0:0:0:0:
229,29,37147,1,8,0:0:0:0:
170,355,37309,1,4,0:0:0:0:
346,131,37471,2,0,P|315:125|281:136,1,57.5999982421876,2|0,0:0|0:0,0:0:0:0:
127,223,37634,5,8,0:0:0:0:
325,300,37796,1,0,0:0:0:0:
325,300,37877,1,8,0:0:0:0:
325,300,37958,1,4,0:0:0:0:
232,81,38120,1,14,0:0:0:0:
69,282,38282,5,8,0:0:0:0:
115,303,38363,1,4,0:0:0:0:
165,294,38444,1,8,0:0:0:0:
200,258,38525,1,8,0:0:0:0:
241,227,38606,1,6,0:0:0:0:
287,205,38687,1,0,0:0:0:0:
338,201,38768,1,4,0:0:0:0:
384,221,38849,1,4,0:0:0:0:
422,256,38931,5,12,0:0:0:0:
241,227,39093,1,0,0:0:0:0:
459,226,39255,1,4,0:0:0:0:
218,269,39417,1,0,0:0:0:0:
370,80,39579,5,0,0:0:0:0:
309,384,39742,1,8,0:0:0:0:
480,193,39904,1,4,0:0:0:0:
206,299,40066,1,2,0:0:0:0:
292,59,40228,6,0,P|291:99|308:132,1,57.5999982421876,8|0,0:0|0:0,0:0:0:0:
372,222,40390,2,0,P|374:193|367:165,1,57.5999982421876,8|0,0:0|0:0,0:0:0:0:
251,45,40552,1,4,0:0:0:0:
401,249,40715,1,0,0:0:0:0:
129,137,40877,5,0,0:0:0:0:
447,184,41039,1,8,0:0:0:0:
60,250,41201,1,4,0:0:0:0:
412,72,41363,1,6,0:0:0:0:
246,337,41525,5,8,0:0:0:0:
278,155,41688,1,8,0:0:0:0:
323,363,41850,2,0,P|327:335|321:307,1,57.5999982421876,4|0,0:0|0:0,0:0:0:0:
208,129,42012,2,0,P|204:157|210:185,1,57.5999982421876,12|0,0:0|0:0,0:0:0:0:
391,279,42174,6,0,P|378:258|342:236,1,57.5999982421876,6|0,0:0|0:0,0:0:0:0:
128,229,42336,2,0,P|144:253|168:268,1,57.5999982421876,6|0,0:0|0:0,0:0:0:0:
400,165,42498,6,0,P|378:153|336:152,1,57.5999982421876,6|0,0:0|0:0,0:0:0:0:
172,361,42661,2,0,P|193:372|235:373,1,57.5999982421876,6|0,0:0|0:0,0:0:0:0:
480,228,42823,5,4,0:0:0:0:
439,188,42904,1,0,0:0:0:0:
383,177,42985,1,4,0:0:0:0:
331,198,43066,1,0,0:0:0:0:
290,239,43147,5,4,0:0:0:0:
249,279,43228,1,0,0:0:0:0:
193,290,43309,1,4,0:0:0:0:
141,269,43390,1,0,0:0:0:0:
98,230,43471,5,6,0:0:0:0:
72,165,43552,1,4,0:0:0:0:
87,97,43633,1,4,0:0:0:0:
135,48,43714,1,4,0:0:0:0:
202,29,43796,5,4,0:0:0:0:
286,45,43877,1,4,0:0:0:0:
343,109,43958,1,6,0:0:0:0:
357,194,44039,1,4,0:0:0:0:
317,270,44120,5,2,0:0:0:0:
108,300,45093,5,0,0:0:0:0:
150,225,45255,1,0,0:0:0:0:
200,296,45417,2,0,B|246:291|246:291|274:300|274:300|319:296,1,115.199996484375,0|2,0:0|0:0,0:0:0:0:
391,185,46066,2,0,P|394:243|447:289,2,115.199996484375
283,54,47688,5,0,0:0:0:0:
228,121,47850,1,0,0:0:0:0:
146,148,48012,1,0,0:0:0:0:
67,111,48174,6,0,L|58:179,1,57.5999982421876,0|2,0:0|0:0,0:0:0:0:
79,300,48498,1,0,0:0:0:0:
7,255,48661,2,0,P|55:221|127:228,2,115.199996484375,0|2|0,0:0|0:0|0:0,0:0:0:0:
338,341,50282,5,0,0:0:0:0:
417,306,50444,1,0,0:0:0:0:
347,255,50606,2,0,L|353:191,1,57.5999982421876
450,83,50931,2,0,L|456:147,1,57.5999982421876,2|0,0:0|0:0,0:0:0:0:
273,149,51255,2,0,P|315:112|371:106,2,115.199996484375,0|2|0,0:0|0:0|0:0,0:0:0:0:
96,347,52715,5,0,0:0:0:0:
148,278,52877,1,0,0:0:0:0:
147,191,53039,1,0,0:0:0:0:
94,122,53201,6,0,L|160:109,1,57.5999982421876,2|0,0:0|0:0,0:0:0:0:
172,197,53525,2,0,L|238:210,1,57.5999982421876,2|0,0:0|0:0,0:0:0:0:
268,86,53850,2,0,L|334:73,1,57.5999982421876
346,193,54174,2,0,L|412:206,1,57.5999982421876,2|0,0:0|0:0,0:0:0:0:
252,361,54498,6,0,B|308:308|266:248|266:248|232:193|246:123|341:83|341:83|226:8|151:61|130:117,1,576,2|0,0:0|0:0,0:0:0:0:
88,211,55634,1,0,0:0:0:0:
161,381,55796,2,0,L|175:270,1,96
28,141,56120,2,0,P|47:183|90:211,1,96,2|0,0:0|0:0,0:0:0:0:
318,126,56444,2,0,P|271:121|229:143,1,96
327,285,56769,2,0,L|438:299,1,96,2|0,0:0|0:0,0:0:0:0:
253,347,57093,6,0,B|215:297|214:225|291:168|355:189|355:189|307:127|290:33|290:33|226:99|248:193,1,576
327,285,58228,1,0,0:0:0:0:
159,267,58390,2,0,L|64:257,1,96
215,100,58715,2,0,P|263:97|309:126,1,96,2|0,0:0|0:0,0:0:0:0:
277,349,59039,2,0,P|250:308|252:254,1,96
440,139,59363,2,0,L|429:234,1,96,2|0,0:0|0:0,0:0:0:0:
256,155,59688,6,0,P|340:205|169:191,1,576
249,262,60823,1,0,0:0:0:0:
84,156,60985,2,0,P|111:117|154:98,1,96
334,294,61309,2,0,P|286:289|248:261,1,96,2|0,0:0|0:0,0:0:0:0:
398,86,61634,2,0,P|417:129|412:176,1,96,2|0,0:0|0:0,0:0:0:0:
244,357,61958,2,0,L|248:253,1,96,2|0,0:0|0:0,0:0:0:0:
255,48,62282,5,0,0:0:0:0:
181,26,62444,1,0,0:0:0:0:
98,52,62606,1,0,0:0:0:0:
41,130,62769,1,0,0:0:0:0:
24,234,62931,1,0,0:0:0:0:
86,330,63093,1,0,0:0:0:0:
207,357,63255,1,0,0:0:0:0:
329,301,63417,1,0,0:0:0:0:
399,175,63579,5,0,0:0:0:0:
358,149,63660,1,0,0:0:0:0:
310,145,63741,1,0,0:0:0:0:
267,167,63822,1,0,0:0:0:0:
235,202,63903,1,0,0:0:0:0:
201,236,63985,1,0,0:0:0:0:
160,261,64066,1,0,0:0:0:0:
112,265,64147,1,0,0:0:0:0:
68,245,64228,6,0,P|43:240|13:241,14,30,2|0|0|0|0|0|0|0|2|0|0|0|0|0|0,0:0|0:0|0:0|0:0|0:0|0:0|0:0|0:0|0:0|0:0|0:0|0:0|0:0|0:0|0:0,0:0:0:0:
105,315,64877,6,0,B|96:176|96:176|144:220,1,192,10|0,0:0|0:0,0:0:0:0:
258,341,65363,1,10,0:0:0:0:
500,128,65688,6,0,L|499:144,5,16
470,213,65850,2,0,L|472:229,11,16
411,163,66174,2,0,B|263:156|263:156|311:189,1,192,10|0,0:0|0:0,0:0:0:0:
480,306,66661,1,10,0:0:0:0:
110,127,66985,6,0,L|111:111,5,16
154,52,67147,2,0,L|152:36,11,16
224,77,67471,2,0,B|218:139|218:139|227:186|227:186|219:273,1,192,10|0,0:0|0:0,0:0:0:0:
377,129,67958,1,10,0:0:0:0:
5,274,68282,6,0,L|6:258,5,16
18,187,68444,2,0,L|16:171,11,16
75,234,68769,6,0,P|98:237|122:233,1,48,2|0,0:0|0:0,0:0:0:0:
270,108,68931,2,0,P|255:126|247:149,1,48
275,340,69093,2,0,P|266:318|250:299,1,48
125,88,69255,6,0,P|133:109|149:128,1,48
373,244,69417,2,0,P|354:229|331:221,1,48,2|0,0:0|0:0,0:0:0:0:
106,359,69579,2,0,P|127:350|146:334,1,48
270,108,69742,5,0,0:0:0:0:
270,108,69823,1,0,0:0:0:0:
270,108,69904,1,0,0:0:0:0:
270,108,69985,1,0,0:0:0:0:
270,108,70066,2,0,B|342:101|342:101|384:119|384:119|480:110,1,192,10|0,0:0|0:0,0:0:0:0:
329,201,70552,1,10,0:0:0:0:
196,225,70877,6,0,L|195:241,5,16
221,309,71039,2,0,L|222:324,11,16
152,363,71363,2,0,P|191:294|116:219,1,192,10|0,0:0|0:0,0:0:0:0:
273,246,71850,1,10,0:0:0:0:
314,113,72174,6,0,L|313:97,5,16
365,43,72336,2,0,L|367:27,11,16
417,96,72661,2,0,B|402:229|402:229|353:198,1,192,10|0,0:0|0:0,0:0:0:0:
161,67,73147,1,10,0:0:0:0:
228,225,73471,6,0,L|227:241,5,16
189,309,73633,2,0,L|191:325,11,16
254,368,73958,6,0,P|264:342|265:311,1,57.5999982421876,2|0,0:0|0:0,0:0:0:0:
141,154,74120,2,0,P|158:175|184:192,1,57.5999982421876
383,163,74282,2,0,P|355:167|328:181,1,57.5999982421876
92,327,74444,6,0,P|119:322|146:308,1,57.5999982421876
262,52,74606,2,0,P|252:78|251:108,1,57.5999982421876,2|0,0:0|0:0,0:0:0:0:
412,319,74769,2,0,P|394:297|368:280,1,57.5999982421876
103,64,74931,5,2,0:0:0:0:
56,97,75012,1,0,0:0:0:0:
35,150,75093,1,0,0:0:0:0:
46,206,75174,1,2,0:0:0:0:
85,247,75255,1,8,0:0:0:0:
253,155,75417,5,0,0:0:0:0:
250,107,75498,1,0,0:0:0:0:
248,59,75579,1,8,0:0:0:0:
360,199,75742,5,0,0:0:0:0:
357,151,75823,1,0,0:0:0:0:
355,103,75904,1,8,0:0:0:0:
464,239,76066,5,0,0:0:0:0:
461,191,76147,1,0,0:0:0:0:
459,143,76228,1,8,0:0:0:0:
290,250,76390,5,0,0:0:0:0:
249,276,76471,1,0,0:0:0:0:
209,302,76552,1,8,0:0:0:0:
26,205,76715,5,0,0:0:0:0:
69,225,76796,1,0,0:0:0:0:
113,245,76877,1,8,0:0:0:0:
334,107,77039,5,0,0:0:0:0:
294,132,77120,1,0,0:0:0:0:
253,158,77201,1,8,0:0:0:0:
89,42,77363,5,0,0:0:0:0:
134,55,77444,1,0,0:0:0:0:
180,69,77525,1,8,0:0:0:0:
255,267,77688,1,4,0:0:0:0:
455,82,77850,6,0,P|475:125|473:172,1,96,8|0,0:0|0:0,0:0:0:0:
255,267,78174,1,4,0:0:0:0:
255,267,78255,1,0,0:0:0:0:
255,267,78336,1,0,0:0:0:0:
39,172,78498,2,0,P|36:125|57:82,1,96,8|0,0:0|0:0,0:0:0:0:
261,39,78823,1,4,0:0:0:0:
261,39,78904,1,0,0:0:0:0:
261,39,78985,1,0,0:0:0:0:
182,247,79147,6,0,P|165:291|171:338,1,96,8|0,0:0|0:0,0:0:0:0:
347,186,79471,2,0,P|394:179|433:151,1,96,4|4,0:0|0:0,0:0:0:0:
219,112,79715,1,8,0:0:0:0:
219,112,79796,2,0,P|137:105|96:35,2,144,4|4|4,0:0|0:0|0:0,0:0:0:0:
494,66,80444,5,10,0:0:0:0:
447,67,80525,1,0,0:0:0:0:
417,103,80606,1,0,0:0:0:0:
424,149,80687,1,0,0:0:0:0:
454,187,80769,1,4,0:0:0:0:
476,228,80850,1,0,0:0:0:0:
475,276,80931,1,0,0:0:0:0:
453,318,81012,1,0,0:0:0:0:
419,352,81093,1,8,0:0:0:0:
375,371,81174,1,0,0:0:0:0:
328,367,81255,1,8,0:0:0:0:
288,342,81336,1,0,0:0:0:0:
253,309,81417,1,8,0:0:0:0:
207,295,81498,1,0,0:0:0:0:
159,299,81579,1,4,0:0:0:0:
116,321,81660,1,0,0:0:0:0:
69,334,81742,6,0,P|42:333|15:317,3,48,10|0|0|0,0:0|0:0|0:0|0:0,0:0:0:0:
62,252,82066,1,4,0:0:0:0:
100,224,82147,1,0,0:0:0:0:
117,180,82228,1,0,0:0:0:0:
105,134,82309,1,0,0:0:0:0:
69,103,82390,2,0,L|213:95,2,144,6|4|4,0:0|0:0|0:0,0:0:0:0:
206,1,83039,5,10,0:0:0:0:
259,17,83120,1,0,0:0:0:0:
297,59,83201,1,8,0:0:0:0:
306,115,83282,1,0,0:0:0:0:
287,169,83363,1,4,0:0:0:0:
265,221,83444,1,0,0:0:0:0:
275,277,83525,1,8,0:0:0:0:
312,320,83606,1,0,0:0:0:0:
364,343,83688,1,8,0:0:0:0:
420,346,83769,1,8,0:0:0:0:
470,319,83850,1,0,0:0:0:0:
498,269,83931,1,8,0:0:0:0:
501,211,84012,1,4,0:0:0:0:
483,157,84093,1,0,0:0:0:0:
440,120,84174,1,0,0:0:0:0:
385,108,84255,1,0,0:0:0:0:
332,130,84336,6,0,P|312:137|275:131,3,48,10|0|8|0,0:0|0:0|0:0|0:0,0:0:0:0:
234,107,84661,1,4,0:0:0:0:
185,75,84742,1,8,0:0:0:0:
127,70,84823,1,8,0:0:0:0:
74,93,84904,1,8,0:0:0:0:
40,139,84985,2,0,P|31:164|34:196,7,48,6|0|0|4|0|0|4|0,0:0|0:0|0:0|0:0|0:0|0:0|0:0|0:0,0:0:0:0:
89,262,85634,6,0,L|86:302,30,24,2|0|0|0|0|0|0|0|0|0|0|0|0|0|0|0|0|0|0|0|0|0|0|0|0|0|0|0|0|0|0,0:0|0:0|0:0|0:0|0:0|0:0|0:0|0:0|0:0|0:0|0:0|0:0|0:0|0:0|0:0|0:0|0:0|0:0|0:0|0:0|0:0|0:0|0:0|0:0|0:0|0:0|0:0|0:0|0:0|0:0|0:0,0:0:0:0:
186,170,86931,6,0,P|104:190|39:139,2,172.799994726563,4|0|0,0:0|0:0|0:0,0:0:0:0:
364,353,88228,6,0,L|372:237,1,115.199996484375,8|8,0:0|0:0,0:0:0:0:
380,85,88552,1,4,0:0:0:0:
239,195,88715,1,0,0:0:0:0:
212,182,88796,1,0,0:0:0:0:
186,170,88877,2,0,L|190:112,1,57.5999982421876
62,207,89039,2,0,L|67:275,1,57.5999982421876,8|0,0:0|0:0,0:0:0:0:
171,366,89201,1,4,0:0:0:0:
345,194,89363,5,0,0:0:0:0:
348,221,89444,1,0,0:0:0:0:
352,250,89525,2,0,L|408:240,1,57.5999982421876,8|0,0:0|0:0,0:0:0:0:
303,356,89688,2,0,L|247:346,1,57.5999982421876,8|0,0:0|0:0,0:0:0:0:
150,248,89850,1,4,0:0:0:0:
322,84,90012,5,0,0:0:0:0:
295,97,90093,1,8,0:0:0:0:
269,109,90174,2,0,L|273:166,1,57.5999982421876
146,305,90336,2,0,L|150:247,1,57.5999982421876,8|0,0:0|0:0,0:0:0:0:
78,139,90498,2,0,B|133:113|133:113|186:120,1,115.199996484375,4|0,0:0|0:0,0:0:0:0:
337,218,90742,1,0,0:0:0:0:
337,218,90823,6,0,L|456:207,1,115.199996484375,8|2,0:0|0:0,0:0:0:0:
364,109,91147,1,6,0:0:0:0:
320,343,91309,1,0,0:0:0:0:
349,346,91390,1,0,0:0:0:0:
200,190,91552,1,0,0:0:0:0:
170,196,91633,1,8,0:0:0:0:
38,335,91796,6,0,L|157:346,1,115.199996484375,6|0,0:0|0:0,0:0:0:0:
283,250,92039,1,0,0:0:0:0:
283,250,92120,2,0,B|340:245|340:245|396:285,1,115.199996484375,8|0,0:0|0:0,0:0:0:0:
475,139,92363,1,0,0:0:0:0:
475,139,92444,2,0,B|425:167|425:167|357:155,1,115.199996484375,4|8,0:0|0:0,0:0:0:0:
294,63,92688,1,8,0:0:0:0:
294,63,92769,2,0,L|355:57,1,57.5999982421876,4|0,0:0|0:0,0:0:0:0:
183,175,92931,2,0,L|240:180,1,57.5999982421876,8|8,0:0|0:0,0:0:0:0:
117,56,93093,2,0,L|178:50,1,57.5999982421876,4|0,0:0|0:0,0:0:0:0:
24,211,93255,1,8,0:0:0:0:
24,211,93336,1,0,0:0:0:0:
24,211,93417,6,0,P|119:227|49:284,1,230.39999296875,8|4,0:0|0:0,0:0:0:0:
85,163,93904,1,0,0:0:0:0:
85,163,93985,1,0,0:0:0:0:
85,163,94066,2,0,L|96:98,1,57.5999982421876
194,222,94228,2,0,L|205:287,1,57.5999982421876,8|0,0:0|0:0,0:0:0:0:
277,97,94390,1,4,0:0:0:0:
419,249,94552,1,0,0:0:0:0:
419,249,94634,1,0,0:0:0:0:
419,249,94715,6,0,B|377:245|377:245|353:258|353:258|299:253,1,115.199996484375,8|8,0:0|0:0,0:0:0:0:
189,137,95039,1,4,0:0:0:0:
332,6,95201,1,0,0:0:0:0:
359,36,95282,1,8,0:0:0:0:
374,77,95363,1,0,0:0:0:0:
372,120,95444,1,0,0:0:0:0:
353,159,95525,1,8,0:0:0:0:
189,137,95688,1,4,0:0:0:0:
77,259,95850,5,0,0:0:0:0:
77,259,95931,1,0,0:0:0:0:
77,259,96012,2,0,P|59:233|58:192,1,57.5999982421876,8|0,0:0|0:0,0:0:0:0:
198,140,96174,2,0,P|215:114|216:73,1,57.5999982421876,8|0,0:0|0:0,0:0:0:0:
107,13,96336,1,4,0:0:0:0:
268,226,96498,5,0,0:0:0:0:
268,226,96579,1,8,0:0:0:0:
268,226,96661,2,0,L|207:233,1,57.5999982421876
342,149,96823,2,0,L|403:156,1,57.5999982421876,8|0,0:0|0:0,0:0:0:0:
465,256,96985,1,4,0:0:0:0:
314,370,97147,5,8,0:0:0:0:
317,338,97228,1,8,0:0:0:0:
320,306,97309,1,4,0:0:0:0:
142,50,97471,5,4,0:0:0:0:
143,66,97552,1,4,0:0:0:0:
145,83,97633,1,4,0:0:0:0:
146,100,97715,1,4,0:0:0:0:
148,117,97796,1,8,0:0:0:0:
149,134,97877,1,4,0:0:0:0:
151,151,97958,5,4,0:0:0:0:
98,130,98039,1,0,0:0:0:0:
47,153,98120,1,4,0:0:0:0:
27,205,98201,1,4,0:0:0:0:
49,257,98282,1,4,0:0:0:0:
101,277,98363,1,0,0:0:0:0:
153,255,98444,6,0,P|193:258|146:266,1,143.999995605469,6|0,0:0|0:0,0:0:0:0:
145,277,98931,6,0,L|150:343,1,57.5999982421876,6|0,0:0|0:0,0:0:0:0:
272,180,99093,2,0,L|267:246,1,57.5999982421876
177,22,99255,5,8,0:0:0:0:
178,36,99336,1,4,0:0:0:0:
179,50,99417,1,0,0:0:0:0:
180,65,99498,1,12,0:0:0:0:
181,79,99579,5,12,0:0:0:0:
200,131,99660,1,0,0:0:0:0:
183,185,99741,1,8,0:0:0:0:
136,217,99822,1,0,0:0:0:0:
86,230,99904,6,0,P|57:231|30:215,1,57.5999982421876,8|0,0:0|0:0,0:0:0:0:
88,112,100066,2,0,P|72:87|72:56,1,57.5999982421876,8|0,0:0|0:0,0:0:0:0:
215,90,100228,1,4,0:0:0:0:
251,62,100309,1,0,0:0:0:0:
295,49,100390,1,8,0:0:0:0:
340,54,100471,1,8,0:0:0:0:
381,74,100552,6,0,P|407:85|444:80,1,57.5999982421876,4|4,0:0|0:0,0:0:0:0:
307,173,100715,2,0,P|284:190|270:224,1,57.5999982421876,8|8,0:0|0:0,0:0:0:0:
405,338,100877,5,4,0:0:0:0:
444,297,100958,1,0,0:0:0:0:
456,241,101039,1,4,0:0:0:0:
437,188,101120,1,4,0:0:0:0:
392,154,101201,6,0,P|260:138|314:39,1,287.999991210938,6|0,0:0|0:0,0:0:0:0:
329,113,101688,6,0,B|269:149|234:103|234:103|192:157|192:157|148:110|80:127,1,287.999991210938,6|0,0:0|0:0,0:0:0:0:
29,193,102174,6,0,B|58:227|117:212|117:212|70:284|92:340,1,230.39999296875,10|0,0:0|0:0,0:0:0:0:
246,290,102579,1,2,0:0:0:0:
246,289,102661,2,0,P|217:289|191:300,1,57.5999982421876,2|2,0:0|0:0,0:0:0:0:
342,213,102823,2,0,P|357:188|360:160,1,57.5999982421876,2|2,0:0|0:0,0:0:0:0:
354,333,102985,2,0,P|367:358|390:375,1,57.5999982421876,2|2,0:0|0:0,0:0:0:0:
468,268,103147,5,4,0:0:0:0:
250,164,103309,2,0,L|279:160,7,28.7999991210938,8|0|0|0|8|0|0|0,0:0|0:0|0:0|0:0|0:0|0:0|0:0|0:0,0:0:0:0:
389,98,103634,6,0,P|299:133|210:43,1,230.39999296875,8|0,0:0|0:0,0:0:0:0:
125,15,104039,1,0,0:0:0:0:
105,67,104120,1,4,0:0:0:0:
127,119,104201,1,0,0:0:0:0:
147,172,104282,1,0,0:0:0:0:
121,223,104363,1,0,0:0:0:0:
76,259,104444,6,0,P|47:260|13:245,1,57.5999982421876
146,171,104606,2,0,P|151:199|167:224,1,57.5999982421876,8|0,0:0|0:0,0:0:0:0:
255,278,104769,2,0,P|268:253|290:235,1,57.5999982421876,4|0,0:0|0:0,0:0:0:0:
447,186,104931,6,0,B|433:149|388:148|388:148|390:229|491:266,1,230.39999296875,8|0,0:0|0:0,0:0:0:0:
503,104,105336,1,0,0:0:0:0:
450,79,105417,1,4,0:0:0:0:
398,101,105498,1,0,0:0:0:0:
347,124,105579,1,0,0:0:0:0:
294,107,105660,1,0,0:0:0:0:
259,59,105742,6,0,P|246:33|245:5,1,57.5999982421876,8|4,0:0|0:0,0:0:0:0:
203,150,105904,2,0,P|187:173|163:188,1,57.5999982421876,0|8,0:0|0:0,0:0:0:0:
18,147,106066,2,0,P|5:121|4:93,1,57.5999982421876,4|0,0:0|0:0,0:0:0:0:
111,95,106228,6,0,B|88:133|92:181|92:181|69:203|69:203|103:263|58:326,1,230.39999296875,8|0,0:0|0:0,0:0:0:0:
2,255,106634,1,0,0:0:0:0:
51,228,106715,1,4,0:0:0:0:
107,235,106796,1,0,0:0:0:0:
149,274,106877,1,0,0:0:0:0:
189,314,106958,1,0,0:0:0:0:
237,344,107039,6,0,P|266:350|301:338,1,57.5999982421876,8|0,0:0|0:0,0:0:0:0:
391,371,107201,2,0,P|410:348|417:312,1,57.5999982421876,8|0,0:0|0:0,0:0:0:0:
500,260,107363,2,0,P|490:231|462:207,1,57.5999982421876,12|0,0:0|0:0,0:0:0:0:
327,94,107525,6,0,B|496:80|496:80|427:51,1,230.39999296875,8|0,0:0|0:0,0:0:0:0:
302,6,107931,1,0,0:0:0:0:
256,37,108012,1,4,0:0:0:0:
236,90,108093,1,0,0:0:0:0:
252,145,108174,1,0,0:0:0:0:
297,180,108255,1,0,0:0:0:0:
354,181,108336,6,0,P|383:186|410:208,1,57.5999982421876,4|4,0:0|0:0,0:0:0:0:
324,357,108498,2,0,P|326:328|316:301,1,57.5999982421876,8|8,0:0|0:0,0:0:0:0:
230,224,108661,2,0,P|211:246|185:257,1,57.5999982421876,4|0,0:0|0:0,0:0:0:0:
0,159,108823,6,0,B|86:185|162:159|162:159|103:173|89:234,1,268.799991796875,2|0,0:0|0:0,0:0:0:0:
230,224,109228,1,0,0:0:0:0:
254,162,109309,1,4,0:0:0:0:
233,100,109390,1,0,0:0:0:0:
177,66,109471,1,2,0:0:0:0:
110,71,109552,1,2,0:0:0:0:
64,118,109634,6,0,P|92:136|131:140,1,67.1999979492188,10|2,0:0|0:0,0:0:0:0:
306,60,109796,2,0,P|283:32|249:20,1,67.1999979492188,8|0,0:0|0:0,0:0:0:0:
352,211,109958,2,0,P|388:214|420:198,1,67.1999979492188,14|2,0:0|0:0,0:0:0:0:
254,162,110120,6,0,P|122:207|34:130,1,268.799991796875,10|2,0:0|0:0,0:0:0:0:
85,59,110525,1,2,0:0:0:0:
172,57,110606,1,2,0:0:0:0:
239,111,110688,1,2,0:0:0:0:
255,195,110769,1,2,0:0:0:0:
213,270,110850,1,2,0:0:0:0:
132,300,110931,6,0,L|82:291,10,33.5999989746094,6|0|0|0|0|0|0|0|0|0|0,0:0|0:0|0:0|0:0|0:0|0:0|0:0|0:0|0:0|0:0|0:0,0:0:0:0:
251,174,111417,6,0,P|318:257|245:368,1,252.000002403259,4|0,0:0|0:0,0:0:0:0:
135,208,111742,6,0,P|83:216|31:226,1,84.0000008010864,4|0,0:0|0:0,0:0:0:0:
287,176,111904,2,0,B|391:194,1,84.0000008010864,4|0,0:0|0:0,0:0:0:0:
98,67,112066,2,0,B|-6:85,1,84.0000008010864,4|0,0:0|0:0,0:0:0:0:
414,67,112228,5,4,0:0:0:0:
256,366,112471,1,4,0:0:0:0:
98,67,112715,1,12,0:0:0:0:
256,192,112796,12,0,114012,0:0:0:0:
127,58,114174,6,0,P|114:88|122:127,1,57.5999982421876,2|0,0:0|0:0,0:0:0:0:
186,155,114498,2,0,P|199:124|190:86,1,57.5999982421876
361,326,115471,6,0,L|439:337,1,57.5999982421876,2|0,0:0|0:0,0:0:0:0:
399,251,115796,2,0,L|341:242,1,57.5999982421876
76,335,116769,6,0,L|69:266,1,57.5999982421876,2|0,0:0|0:0,0:0:0:0:
153,297,117093,2,0,L|158:354,1,57.5999982421876
302,100,118066,6,0,P|297:147|323:187,1,96,2|0,0:0|0:0,0:0:0:0:
399,252,118806,2,0,P|424:212|420:165,1,96,2|0,0:0|0:0,0:0:0:0:
266,182,119547,6,0,L|349:189,1,57.5999982421876,2|0,0:0|0:0,0:0:0:0:
311,173,119926,2,0,L|253:168,1,57.5999982421876
159,301,120917,6,0,P|187:311|228:305,1,57.5999982421876,2|0,0:0|0:0,0:0:0:0:
269,318,121330,2,0,P|241:308|199:314,1,57.5999982421876
97,78,122439,6,0,B|82:103|82:103|86:150,1,57.5999982421876,2|0,0:0|0:0,0:0:0:0:
243,154,122930,2,0,B|258:129|258:129|254:81,1,57.5999982421876
156,171,123586,6,0,L|147:270,1,95.9999970703126
256,64,124570,6,0,L|257:79,2,9.59999970703126
256,192,124775,12,0,127357,0:0:0:0:
