osu file format v14

[General]
AudioFilename: -+.mp3
AudioLeadIn: 0
PreviewTime:86931
Countdown: 0
SampleSet: Normal
StackLeniency: 0.7
Mode: 0
LetterboxInBreaks: 0
WidescreenStoryboard: 1
EpilepsyWarning: 1

[Editor]
Bookmarks: 63577,123352
DistanceSpacing: 1.6
BeatDivisor: 4
GridSize: 4
TimelineZoom: 2.000001

[Metadata]
Title:-+
TitleUnicode:-+
Artist:daisan
ArtistUnicode:daisan
Creator:Starfy
Version:Starfy&623's Hyper
Source:BOF2013
Tags:minus plus konzertsaal - THE BMS OF FIGHTERS 2013 Dirt Art Color Teller xellox piano StarForYou Kyle Y IamKwaN happy623 -N_a_n_a_k_o- Nanako Kencho Chaoslitz [ Drop ] choikapo Regou Rizia Kawaiwkyik Nakano Itsuki StarrStyx Prophecy aabc271 Nardoxyribonucleic Skylish ll-oscar autofanboy alienflybot hokin1995 pwhk hong kong hk muse dash electronic instrumental
BeatmapID:859275
BeatmapSetID:389617

[Difficulty]
HPDrainRate:5
CircleSize:4
OverallDifficulty:6
ApproachRate:8
SliderMultiplier:1.2
SliderTickRate:1

[Events]
//Background and Video events
0,0,"BG.png",0,0
//Break Periods
//Storyboard Layer 0 (Background)
//Storyboard Layer 1 (Fail)
//Storyboard Layer 2 (Pass)
//Storyboard Layer 3 (Foreground)
//Storyboard Layer 4 (Overlay)
//Storyboard Sound Samples

[TimingPoints]
2607,324.324324324324,4,2,1,20,1,0
2607,-133.333333333333,4,2,1,20,0,0
12985,-133.333333333333,4,2,2,30,0,0
13147,-133.333333333333,4,2,1,30,0,0
18174,-133.333333333333,4,2,1,30,0,0
23363,-80,4,1,1,80,0,1
23688,-100,4,1,1,70,0,1
31147,-100,4,1,1,70,0,1
33742,-100,4,1,1,60,0,0
44120,-133.333333333333,4,1,3,60,0,0
44769,-133.333333333333,4,2,1,40,0,0
54498,-133.333333333333,4,2,2,40,0,0
54579,-133.333333333333,4,2,1,40,0,0
62282,-133.333333333333,4,1,1,50,0,0
62606,-133.333333333333,4,1,1,60,0,0
63579,-133.333333333333,4,1,1,70,0,0
64228,-133.333333333333,4,1,1,70,0,0
64877,-100,4,1,1,70,0,0
65688,-100,4,1,6,70,0,0
66174,-100,4,1,1,70,0,0
66985,-100,4,1,6,70,0,0
67471,-100,4,1,1,70,0,0
68282,-100,4,1,6,70,0,0
68769,-100,4,1,1,70,0,0
70877,-100,4,1,6,70,0,0
71363,-100,4,1,1,70,0,0
72174,-100,4,1,6,70,0,0
72661,-100,4,1,1,70,0,0
73471,-100,4,1,6,70,0,0
73958,-100,4,1,1,70,0,0
75255,-100,4,1,1,50,0,0
80444,-100,4,1,1,60,0,0
83039,-100,4,1,1,70,0,0
84985,-133.333333333333,4,1,1,70,0,0
85634,-66.6666666666667,4,1,1,5,0,0
86931,-200,4,1,5,80,0,1
87417,-200,4,1,1,50,0,0
87904,-200,4,1,1,60,0,0
88228,-100,4,1,1,70,0,1
90985,-100,4,1,6,70,0,1
91147,-100,4,1,1,70,0,1
91309,-100,4,1,6,70,0,1
91471,-100,4,1,1,70,0,1
91634,-100,4,1,6,70,0,1
91796,-100,4,1,1,70,0,1
91958,-100,4,1,6,70,0,1
92120,-100,4,1,1,70,0,1
97471,-83.3333333333333,4,1,1,70,0,1
97958,-66.6666666666667,4,1,1,70,0,1
98444,-133.333333333333,4,1,1,70,0,1
98606,-133.333333333333,4,1,1,70,0,1
98931,-100,4,1,1,70,0,1
102174,-100,4,1,1,80,0,1
103634,-100,4,1,1,70,0,1
112715,-133.333333333333,4,1,1,70,0,1
114012,-100,4,1,1,5,0,1
114174,-133.333333333333,4,1,3,40,0,0
114215,-133.333333333333,4,2,1,40,0,0
118066,370.37037037037,4,2,1,35,1,0
118066,-133.333333333333,4,2,1,35,0,0
119547,379.746835443038,4,2,1,30,1,0
119547,-133.333333333333,4,2,1,30,0,0
120917,413.793103448276,4,2,1,25,1,0
120917,-133.333333333333,4,2,1,25,0,0
122439,491.803278688525,4,2,1,20,1,0
122439,-400,4,2,1,20,0,0

[Colours]
Combo1 : 41,214,166
Combo2 : 128,0,255
Combo3 : 128,255,255
Combo4 : 3,90,252

[HitObjects]
40,316,2607,6,0,P|132:288|204:324,1,180.000006866455,2|0,0:0|0:0,0:0:0:0:
328,192,3904,2,0,P|236:220|164:184,1,180.000006866455,2|0,0:0|0:0,0:0:0:0:
320,92,5201,2,0,P|396:120|276:280,1,360.000013732911,2|2,0:0|0:0,0:0:0:0:
289,286,7796,6,0,B|240:272|240:272|192:300|112:280,1,180.000006866455,2|0,0:0|0:0,0:0:0:0:
268,188,9093,2,0,B|317:202|317:202|365:174|442:193,1,180.000006866455,2|0,0:0|0:0,0:0:0:0:
289,286,10390,2,0,P|197:257|300:92,1,360.000013732911,2|2,0:0|0:0,0:0:0:0:
308,100,12985,6,0,B|332:152|332:152|316:280,1,180.000006866455,6|0,0:0|0:0,0:0:0:0:
164,364,14282,2,0,B|148:242|148:242|172:190,1,180.000006866455,2|0,0:0|0:0,0:0:0:0:
344,140,15579,2,0,B|376:228|376:228|540:172|468:0,1,360.000013732911,2|2,0:0|0:0,0:0:0:0:
344,140,17525,1,0,0:0:0:0:
173,88,18174,6,0,L|72:84,1,90.0000034332277,6|0,0:0|0:0,0:0:0:0:
36,160,18823,2,0,P|28:188|40:256,1,90.0000034332277,6|0,0:0|0:0,0:0:0:0:
96,312,19471,2,0,P|139:321|183:311,1,90.0000034332277,6|0,0:0|0:0,0:0:0:0:
256,256,20120,2,0,L|364:260,1,90.0000034332277,6|0,0:0|0:0,0:0:0:0:
404,192,20769,6,0,L|408:144,1,45.0000017166138,4|4,0:0|0:0,0:0:0:0:
340,112,21093,2,0,L|336:160,1,45.0000017166138,4|4,0:0|0:0,0:0:0:0:
261,170,21417,2,0,L|265:122,1,45.0000017166138,4|4,0:0|0:0,0:0:0:0:
197,90,21741,2,0,L|193:138,1,45.0000017166138,4|4,0:0|0:0,0:0:0:0:
188,212,22066,2,0,P|112:188|20:216,1,157.500006008148,2|0,0:0|0:0,0:0:0:0:
256,288,23363,6,0,B|300:280|300:280|344:292|412:280,1,150,12|2,0:0|0:0,0:0:0:0:
460,208,23850,1,0,0:0:0:0:
460,208,23931,1,0,0:0:0:0:
460,208,24012,2,0,P|464:164|448:128,1,60,0|8,0:0|0:0,0:0:0:0:
388,96,24336,2,0,B|328:84|328:84|260:96,1,120,2|8,0:0|0:0,0:0:0:0:
133,52,24823,5,8,0:0:0:0:
133,52,24985,2,0,P|162:57|191:51,1,60,2|0,0:0|0:0,0:0:0:0:
270,94,25309,2,0,L|268:224,1,120,0|2,0:0|0:0,0:0:0:0:
286,291,25796,1,0,0:0:0:0:
256,364,25958,5,12,0:0:0:0:
180,316,26120,2,0,L|148:312,3,20,8|0|0|2,0:0|0:0|0:0|0:0,0:0:0:0:
138,236,26444,2,0,L|112:216,3,20
141,145,26769,2,0,L|128:115,3,20,8|0|0|2,0:0|0:0|0:0|0:0,0:0:0:0:
189,69,27093,1,2,0:2:0:0:
189,69,27174,1,2,0:2:0:0:
189,69,27255,6,0,B|252:76|252:76|324:56,1,120,8|2,0:0|0:0,0:0:0:0:
396,140,27742,2,0,B|333:133|333:133|279:149,1,120,2|2,0:0|0:0,0:0:0:0:
220,216,28228,1,2,0:0:0:0:
267,295,28390,1,2,0:0:0:0:
356,274,28552,6,0,P|384:268|440:284,1,60,12|8,0:0|0:0,0:0:0:0:
504,204,28877,2,0,P|474:210|445:206,1,60,2|0,0:0|0:0,0:0:0:0:
338,141,29201,2,0,P|367:135|397:139,1,60,0|8,0:0|0:0,0:0:0:0:
486,71,29526,2,0,P|457:77|428:74,1,60,2|0,0:0|0:0,0:0:0:0:
388,52,29769,1,0,0:0:0:0:
388,52,29850,5,8,0:0:0:0:
304,20,30012,1,8,0:0:0:0:
234,76,30174,1,2,0:0:0:0:
248,164,30336,1,0,0:0:0:0:
331,197,30498,2,0,P|336:236|324:272,1,60,0|8,0:0|0:0,0:0:0:0:
255,366,30823,2,0,P|250:337|256:308,1,60,2|8,0:0|0:0,0:0:0:0:
260,264,31066,1,8,0:0:0:0:
260,264,31147,6,0,B|200:268|200:268|120:256,1,120,12|2,0:0|0:0,0:0:0:0:
67,311,31634,2,0,P|51:255|74:200,1,120,0|8,0:0|0:0,0:0:0:0:
124,128,32120,1,2,0:0:0:0:
124,128,32282,1,2,0:0:0:0:
124,128,32444,6,0,L|120:68,1,60,8|8,0:0|0:0,0:0:0:0:
196,180,32769,2,0,L|255:176,1,60,2|2,0:0|0:0,0:0:0:0:
143,253,33093,2,0,L|146:312,1,60,2|2,0:0|0:0,0:0:0:0:
71,200,33417,2,0,L|11:203,1,60,2|2,0:0|0:0,0:0:0:0:
0,276,33742,6,0,P|12:316|84:344,1,120,12|2,0:0|0:0,0:0:0:0:
168,328,34228,2,0,L|296:336,1,120,0|8,0:0|0:0,0:0:0:0:
380,340,34715,1,2,0:0:0:0:
448,280,34877,1,0,0:0:0:0:
452,192,35039,6,0,P|456:132|428:56,1,120,8|2,0:0|0:0,0:0:0:0:
352,48,35525,2,0,B|308:56|308:56|216:48,1,120,0|8,0:0|0:0,0:0:0:0:
144,72,36012,1,2,0:0:0:0:
120,161,36174,1,0,0:0:0:0:
185,226,36336,6,0,B|204:256|204:256|196:348,1,120,12|2,0:0|0:0,0:0:0:0:
288,352,36823,2,0,B|332:344|332:344|360:364|420:352,1,120,0|8,0:0|0:0,0:0:0:0:
480,308,37309,1,2,0:0:0:0:
480,308,37471,1,0,0:0:0:0:
496,220,37634,6,0,L|492:148,1,60,8|8,0:0|0:0,0:0:0:0:
416,116,37958,2,0,L|412:175,1,60,2|0,0:0|0:0,0:0:0:0:
340,228,38282,1,2,0:0:0:0:
312,240,38363,2,0,P|269:242|233:234,1,60,2|2,0:0|0:0,0:0:0:0:
223,231,38606,2,0,P|193:227|163:230,1,60,2|2,0:0|0:0,0:0:0:0:
88,300,38931,6,0,B|76:312|76:312|48:260|83:215,1,120,12|2,0:0|0:0,0:0:0:0:
31,143,39417,2,0,P|51:103|27:27,1,120,0|8,0:0|0:0,0:0:0:0:
119,59,39904,2,0,L|191:63,1,60,2|0,0:0|0:0,0:0:0:0:
259,103,40228,6,0,P|311:115|359:63,1,120,8|2,0:0|0:0,0:0:0:0:
443,43,40715,2,0,L|435:171,1,120,0|8,0:0|0:0,0:0:0:0:
363,215,41201,2,0,P|359:255|371:295,1,60,2|0,0:0|0:0,0:0:0:0:
363,363,41525,6,0,B|319:355|319:355|219:363,1,120,12|2,0:0|0:0,0:0:0:0:
159,335,42012,1,2,0:0:0:0:
140,250,42174,1,2,0:0:0:0:
205,192,42336,1,2,0:0:0:0:
288,217,42498,2,0,P|291:179|275:143,1,60,2|2,0:0|0:0,0:0:0:0:
211,107,42823,6,0,L|175:111,7,30,2|2|2|0|2|2|2|2,0:0|0:0|0:0|0:0|0:0|0:0|0:0|0:0,0:0:0:0:
143,135,43471,2,0,L|107:139,7,30,2|0|2|2|2|2|2|2,0:0|0:0|0:0|0:0|0:0|0:0|0:0|0:0,0:0:0:0:
75,163,44120,6,0,P|51:231|71:351,1,180.000006866455,4|0,0:0|0:0,0:0:0:0:
207,359,45093,2,0,P|243:355|271:355,1,45.0000017166138,2|2,0:0|0:0,0:0:0:0:
323,355,45417,6,0,L|419:359,1,90.0000034332277,2|0,0:0|0:0,0:0:0:0:
476,236,46066,2,0,P|480:212|464:136,1,90.0000034332277,2|0,0:0|0:0,0:0:0:0:
332,100,46715,6,0,P|292:128|164:92,1,180.000006866455
32,72,47688,1,2,0:0:0:0:
32,72,47850,1,2,0:0:0:0:
32,72,48012,6,0,B|44:116|44:116|36:168,1,90.0000034332277,2|0,0:0|0:0,0:0:0:0:
116,280,48661,2,0,B|104:236|104:236|110:192,1,90.0000034332277,2|0,0:0|0:0,0:0:0:0:
184,68,49309,6,0,B|228:60|256:84|256:84|296:68|296:68|372:80,1,180.000006866455
444,192,50282,2,0,P|448:220|444:248,1,45.0000017166138,2|2,0:0|0:0,0:0:0:0:
416,304,50606,6,0,P|372:312|324:300,1,90.0000034332277,2|0,0:0|0:0,0:0:0:0:
196,240,51255,2,0,P|239:232|283:241,1,90.0000034332277,2|0,0:0|0:0,0:0:0:0:
156,308,51904,6,0,P|122:262|179:164,1,180.000006866455
238,130,52715,1,2,0:0:0:0:
238,130,52877,2,0,L|234:78,1,45.0000017166138,2|2,0:0|0:0,0:0:0:0:
256,16,53201,6,0,P|296:8|348:20,1,90.0000034332277,2|0,0:0|0:0,0:0:0:0:
472,84,53850,2,0,P|428:91|384:82,1,90.0000034332277,2|0,0:0|0:0,0:0:0:0:
256,16,54498,6,0,B|240:48|240:48|252:92|252:92|216:128|236:192,1,180.000006866455,6|4,0:0|0:0,0:0:0:0:
355,260,55471,2,0,P|359:228|355:208,1,45.0000017166138,2|2,0:0|0:0,0:0:0:0:
319,152,55796,6,0,L|223:156,1,90.0000034332277,6|0,0:0|0:0,0:0:0:0:
96,212,56444,2,0,P|139:222|183:214,1,90.0000034332277,6|0,0:0|0:0,0:0:0:0:
60,140,57093,6,0,P|24:176|80:291,1,180.000006866455,4|4,0:0|0:0,0:0:0:0:
204,324,58066,2,0,L|260:320,1,45.0000017166138,2|2,0:0|0:0,0:0:0:0:
256,248,58390,6,0,P|304:240|360:260,1,90.0000034332277,6|0,0:0|0:0,0:0:0:0:
476,192,59039,2,0,P|428:200|372:180,1,90.0000034332277,6|0,0:0|0:0,0:0:0:0:
256,136,59688,6,0,L|260:40,1,90.0000034332277,4|4,0:0|0:0,0:0:0:0:
392,99,60336,2,0,L|388:195,1,90.0000034332277,4|6,0:0|0:0,0:0:0:0:
284,92,60985,2,0,L|288:-4,1,90.0000034332277,4|6,0:0|0:0,0:0:0:0:
420,55,61633,2,0,L|416:151,1,90.0000034332277,6|6,0:0|0:0,0:0:0:0:
408,288,62282,6,0,L|412:348,1,45.0000017166138,8|0,0:0|0:0,0:0:0:0:
342,360,62606,2,0,L|340:316,1,45.0000017166138,8|12,0:0|0:0,0:0:0:0:
271,344,62931,2,0,P|228:352|184:344,1,90.0000034332277,8|8,0:0|0:0,0:0:0:0:
128,296,63417,1,8,0:0:0:0:
88,236,63579,6,0,L|96:96,1,135.000005149841,8|8,0:0|0:0,0:0:0:0:
156,64,64228,2,0,L|176:60,9,15.0000005722046,2|2|2|2|2|2|2|2|2|2,2:2|2:2|2:2|2:2|2:2|2:2|2:2|2:2|2:2|2:2,0:0:0:0:
176,92,64877,6,0,B|256:92|256:92|240:140,1,120,8|0,0:0|0:0,0:0:0:0:
230,258,65363,2,0,L|192:212,1,60,8|0,0:0|0:0,0:0:0:0:
100,176,65688,6,0,L|96:192,12,10,2|0|2|0|2|0|2|0|2|0|2|0|2,0:0|0:0|0:0|0:0|0:0|0:0|0:0|0:0|0:0|0:0|0:0|0:0|0:0,0:0:0:0:
52,92,66174,6,0,P|107:81|169:109,1,120,8|0,0:0|0:0,0:0:0:0:
268,180,66661,2,0,L|208:188,1,60,8|0,0:0|0:0,0:0:0:0:
156,268,66985,6,0,L|140:272,12,10,2|0|2|0|2|0|2|0|2|0|2|0|2,0:0|0:0|0:0|0:0|0:0|0:0|0:0|0:0|0:0|0:0|0:0|0:0|0:0,0:0:0:0:
228,332,67471,6,0,L|356:320,1,120,8|0,0:0|0:0,0:0:0:0:
423,216,67958,2,0,L|352:220,1,60,8|0,0:0|0:0,0:0:0:0:
284,164,68282,6,0,L|296:152,12,10,2|0|2|0|2|0|2|0|2|0|2|0|2,0:0|0:0|0:0|0:0|0:0|0:0|0:0|0:0|0:0|0:0|0:0|0:0|0:0,0:0:0:0:
264,260,68769,6,0,P|192:292|88:272,1,180,8|2,0:0|0:2,0:0:0:0:
94,108,69417,2,0,P|181:90|264:124,1,180,8|2,0:0|0:2,0:0:0:0:
320,204,70066,6,0,L|392:192,1,60,8|0,0:0|0:0,0:0:0:0:
500,344,70552,2,0,L|440:353,1,60,8|0,0:0|0:0,0:0:0:0:
348,328,70877,6,0,L|364:320,12,10,2|0|2|0|2|0|2|0|2|0|2|0|2,0:0|0:0|0:0|0:0|0:0|0:0|0:0|0:0|0:0|0:0|0:0|0:0|0:0,0:0:0:0:
256,348,71363,6,0,L|192:340,1,60,8|0,0:0|0:0,0:0:0:0:
356,236,71850,2,0,L|292:228,1,60,8|0,0:0|0:0,0:0:0:0:
204,244,72174,6,0,L|204:260,12,10,2|0|2|0|2|0|2|0|2|0|2|0|2,0:0|0:0|0:0|0:0|0:0|0:0|0:0|0:0|0:0|0:0|0:0|0:0|0:0,0:0:0:0:
132,180,72661,6,0,L|60:164,1,60,8|0,0:0|0:0,0:0:0:0:
220,44,73147,2,0,L|278:57,1,60,8|0,0:0|0:0,0:0:0:0:
360,108,73471,6,0,L|376:112,12,10,2|0|2|0|2|0|2|0|2|0|2|0|2,0:0|0:0|0:0|0:0|0:0|0:0|0:0|0:0|0:0|0:0|0:0|0:0|0:0,0:0:0:0:
296,180,73958,6,0,P|296:268|376:316,1,180,8|2,0:0|0:2,0:0:0:0:
512,166,74606,2,0,P|434:151|373:231,1,180,8|8,0:0|0:0,0:0:0:0:
384,316,75255,6,0,L|320:320,1,60,8|0,0:0|0:0,0:0:0:0:
228,312,75579,2,0,P|192:324|156:320,1,60,8|0,0:0|0:0,0:0:0:0:
76,300,75904,2,0,P|88:264|84:228,1,60,8|0,0:0|0:0,0:0:0:0:
160,180,76228,2,0,L|172:104,1,60,8|0,0:0|0:0,0:0:0:0:
116,44,76552,5,8,0:0:0:0:
192,104,76715,1,0,0:0:0:0:
284,72,76877,1,8,0:0:0:0:
356,136,77039,1,0,0:0:0:0:
466,40,77201,6,0,L|444:96,1,60,8|0,0:0|0:0,0:0:0:0:
436,288,77525,2,0,L|458:232,1,60,8|0,0:0|0:0,0:0:0:0:
466,136,77850,6,0,L|444:192,1,60,8|2,0:0|0:0,0:0:0:0:
432,384,78174,2,0,L|454:328,1,60,2|0,0:0|0:0,0:0:0:0:
360,328,78498,2,0,P|304:344|224:320,1,120,8|8,0:0|0:0,0:0:0:0:
160,288,78985,1,2,0:0:0:0:
76,240,79147,6,0,P|72:208|60:172,1,60,8|0,0:0|0:0,0:0:0:0:
140,120,79471,1,2,0:0:0:0:
220,64,79634,1,2,0:0:0:0:
220,64,79715,1,2,0:0:0:0:
220,64,79796,2,0,L|300:56,1,60,2|0,0:0|0:0,0:0:0:0:
320,80,80039,2,0,L|368:76,1,30,2|0,0:0|0:0,0:0:0:0:
428,132,80282,1,2,0:0:0:0:
404,224,80444,6,0,P|412:276|388:356,1,120,8|2,0:0|0:0,0:0:0:0:
308,304,80931,1,0,0:0:0:0:
216,336,81093,2,0,L|140:328,1,60,8|0,0:0|0:0,0:0:0:0:
64,300,81417,2,0,P|48:272|48:224,1,60,0|2,0:0|0:0,0:0:0:0:
116,180,81742,6,0,P|132:120|116:56,1,120,8|2,0:0|0:0,0:0:0:0:
216,76,82228,1,0,0:0:0:0:
304,40,82390,1,2,0:0:0:0:
392,80,82552,1,0,0:0:0:0:
392,80,82634,1,2,0:0:0:0:
392,80,82715,2,0,L|388:160,1,60,0|2,0:0|0:0,0:0:0:0:
360,232,83039,6,0,L|336:280,3,30,8|0|0|0,0:0|0:0|0:0|0:0,0:0:0:0:
300,264,83363,2,0,L|296:300,3,30,2|0|0|0,0:0|0:0|0:0|0:0,0:0:0:0:
248,288,83688,2,0,L|248:320,3,30
200,308,84012,2,0,L|208:352,3,30,2|0|0|0,0:0|0:0|0:0|0:0,0:0:0:0:
160,324,84336,6,0,P|104:332|28:316,1,120,8|2,0:0|0:0,0:0:0:0:
68,132,84985,2,0,L|40:132,7,22.5000008583069,2|2|2|2|2|2|2|2,0:0|0:0|0:0|0:0|0:0|0:0|0:0|0:0,0:0:0:0:
84,144,85634,6,0,L|112:144,48,15.0000005722046,2|2|2|2|2|2|2|2|2|2|2|2|2|2|2|2|2|2|2|2|2|2|2|2|2|2|2|2|2|2|2|2|2|2|2|2|2|2|2|2|2|2|2|2|2|2|2|2|4,0:0|0:0|0:0|0:0|0:0|0:0|0:0|0:0|0:0|0:0|0:0|0:0|0:0|0:0|0:0|0:0|0:0|0:0|0:0|0:0|0:0|0:0|0:0|0:0|0:0|0:0|0:0|0:0|0:0|0:0|0:0|0:0|0:0|0:0|0:0|0:0|0:0|0:0|0:0|0:0|0:0|0:0|0:0|0:0|0:0|0:0|0:0|0:0|0:0,0:0:0:0:
264,264,87417,2,0,L|356:264,1,90,2|0,2:2|2:2,0:0:0:0:
436,316,88228,5,12,0:0:0:0:
448,220,88390,1,8,0:0:0:0:
356,252,88552,1,2,0:0:0:0:
368,156,88715,2,0,P|308:132|232:136,1,120,0|8,0:0|0:0,0:0:0:0:
204,48,89201,2,0,L|128:36,1,60,2|0,0:0|0:0,0:0:0:0:
67,169,89525,6,0,P|72:140|84:112,2,60,8|8|2,0:0|0:0|0:0,0:0:0:0:
216,296,90174,1,0,0:0:0:0:
304,276,90336,2,0,L|372:272,1,60,8|2,0:0|0:0,0:0:0:0:
384,180,90661,2,0,L|424:192,2,30,0|0|12,0:0|0:0|0:0,0:0:0:0:
308,120,90985,5,2,0:0:0:0:
212,132,91147,1,2,0:0:0:0:
124,96,91309,2,0,L|72:88,2,30,2|0|8,0:0|0:0|0:0,0:0:0:0:
252,44,91634,5,2,0:0:0:0:
212,132,91796,1,2,0:0:0:0:
248,220,91958,1,2,0:0:0:0:
208,308,92120,2,0,P|252:316|296:302,1,90,8|0,0:0|0:0,0:0:0:0:
340,288,92444,2,0,P|368:288|400:300,1,60,2|8,0:0|0:0,0:0:0:0:
488,332,92769,2,0,L|500:304,3,30,0|8|8|8,0:0|0:0|0:0|0:0,0:0:0:0:
480,260,93093,2,0,P|472:224|480:184,1,60,2|2,0:0|0:0,0:0:0:0:
488,156,93336,1,2,0:0:0:0:
472,112,93417,6,0,P|416:80|348:88,1,120,12|2,0:0|0:0,0:0:0:0:
272,120,93904,1,0,0:0:0:0:
272,120,93985,1,0,0:0:0:0:
272,120,94066,1,0,0:0:0:0:
220,200,94228,2,0,L|204:268,1,60,8|2,0:0|0:0,0:0:0:0:
20,304,94715,6,0,L|40:228,1,60,8|8,0:0|0:0,0:0:0:0:
112,188,95039,2,0,P|96:140|108:84,1,90,2|0,0:0|0:0,0:0:0:0:
92,56,95363,2,0,P|65:42|35:38,2,60,0|8|2,0:0|0:0|0:0,0:0:0:0:
184,92,95850,1,0,0:0:0:0:
184,92,95931,1,0,0:0:0:0:
184,92,96012,6,0,L|260:80,1,60,12|8,0:0|0:0,0:0:0:0:
324,136,96336,2,0,L|396:144,1,60,2|0,0:0|0:0,0:0:0:0:
408,184,96579,2,0,L|456:192,1,30
472,280,96823,1,8,0:0:0:0:
408,348,96985,1,2,0:0:0:0:
320,312,97147,2,0,L|280:304,3,30,2|2|8|8,0:0|0:0|0:0|0:0,0:0:0:0:
244,316,97471,6,0,L|184:320,5,35.9999989013672,2|2|2|2|2|2,0:0|0:0|0:0|0:0|0:0|0:0,0:0:0:0:
168,332,97958,2,0,L|116:324,4,45.0000017166138,8|8|8|8|8,0:0|0:0|0:0|0:0|0:0,0:0:0:0:
140,193,98444,6,0,L|156:236,1,45.0000017166138,12|0,0:0|0:0,0:0:0:0:
156,236,98931,6,0,L|136:104,1,120,2|0,0:0|0:0,0:0:0:0:
208,52,99417,2,0,P|236:48|276:56,1,60,0|2,0:0|0:0,0:0:0:0:
344,108,99742,1,0,0:0:0:0:
432,76,99904,5,8,0:0:0:0:
412,168,100066,1,0,0:0:0:0:
440,260,100228,2,0,P|436:296|412:324,1,60,2|0,0:0|0:0,0:0:0:0:
328,296,100552,2,0,P|268:272|204:280,1,120,0|2,0:0|0:0,0:0:0:0:
120,300,101039,2,0,L|88:300,1,30,2|0,0:0|0:0,0:0:0:0:
44,312,101201,6,0,P|64:252|44:172,1,120,8|2,0:0|0:0,0:0:0:0:
164,100,101688,2,0,P|224:120|304:100,1,120,8|2,0:0|0:0,0:0:0:0:
380,216,102174,2,0,P|360:276|368:320,1,90,8|0,0:0|0:0,0:0:0:0:
400,332,102498,6,0,L|444:348,3,30,0|0|8|0,0:0|0:0|0:0|0:0,0:0:0:0:
460,308,102823,2,0,L|488:296,5,20,2|0|0|2|0|0,0:0|0:0|0:0|0:0|0:0|0:0,0:0:0:0:
480,268,103147,2,0,L|508:256,5,20,8|0|0|8|0|0,0:0|0:0|0:0|0:0|0:0|0:0,0:0:0:0:
496,228,103471,1,0,0:0:0:0:
440,96,103634,6,0,L|300:72,1,120,12|0,0:0|0:0,0:0:0:0:
232,36,104120,2,0,L|152:40,1,60,2|0,0:0|0:0,0:0:0:0:
88,84,104444,1,8,0:0:0:0:
152,156,104606,1,0,0:0:0:0:
72,212,104769,1,2,0:0:0:0:
124,344,104931,6,0,L|264:340,1,120,8|0,0:0|0:0,0:0:0:0:
340,356,105417,2,0,P|368:356|404:348,1,60,2|0,0:0|0:0,0:0:0:0:
456,272,105742,1,8,0:0:0:0:
396,196,105904,1,0,0:0:0:0:
448,116,106066,1,2,0:0:0:0:
316,56,106228,6,0,L|184:40,1,120,8|0,0:0|0:0,0:0:0:0:
108,76,106715,2,0,P|104:116|116:148,1,60,2|0,0:0|0:0,0:0:0:0:
188,192,107039,1,8,0:0:0:0:
164,284,107201,1,0,0:0:0:0:
72,312,107363,1,2,0:0:0:0:
204,368,107525,6,0,P|262:376|318:355,1,120,8|0,0:0|0:0,0:0:0:0:
340,312,107931,2,0,L|352:260,1,30,0|2,0:0|0:0,0:0:0:0:
344,188,108174,1,0,0:0:0:0:
340,140,108255,1,0,0:0:0:0:
356,96,108336,2,0,L|376:68,2,30,8|0|0,0:0|0:0|0:0,0:0:0:0:
260,100,108661,1,2,0:0:0:0:
120,132,108823,6,0,P|92:192|112:256,1,120,8|0,0:0|0:0,0:0:0:0:
184,296,109309,2,0,L|176:332,2,30,2|0|0,0:0|0:0|0:0,0:0:0:0:
276,272,109634,2,0,L|272:304,2,30,8|0|0,0:0|0:0|0:0,0:0:0:0:
348,212,109958,1,2,0:0:0:0:
468,292,110120,6,0,L|492:184,1,90,8|0,0:0|0:0,0:0:0:0:
468,160,110444,2,0,L|468:128,7,20,0|0|0|2|0|0|8|0,0:0|0:0|0:0|0:0|0:0|0:0|0:0|0:0,0:0:0:0:
468,128,110931,6,0,P|408:132|348:100,1,120,2|2,0:0|0:0,0:0:0:0:
292,32,111417,5,8,0:0:0:0:
132,140,111742,1,2,0:0:0:0:
60,204,111904,1,2,0:0:0:0:
152,224,112066,1,2,0:0:0:0:
84,292,112228,1,2,0:0:0:0:
216,344,112471,5,2,0:0:0:0:
216,344,112715,2,0,B|256:332|291:352|291:352|284:309|284:309|429:284|368:112|256:152,1,405.000015449524,2|0,0:0|0:0,0:0:0:0:
288,228,115471,6,0,L|228:228,1,45.0000017166138,2|0,0:0|0:0,0:0:0:0:
184,268,115796,2,0,L|124:272,1,45.0000017166138
112,64,116769,6,0,L|160:72,1,45.0000017166138,2|0,0:0|0:0,0:0:0:0:
168,144,117093,2,0,L|216:132,1,45.0000017166138
428,88,118066,5,2,0:0:0:0:
192,252,118806,2,0,L|296:244,1,90.0000034332277,2|0,0:0|0:0,0:0:0:0:
404,312,119547,6,0,P|396:264|420:212,2,90.0000034332277,2|0|0,0:0|0:0|0:0,0:0:0:0:
204,236,120917,6,0,B|180:224|136:264|100:248,2,90.0000034332277,2|0|0,0:0|0:0|0:0,0:0:0:0:
376,272,122439,6,0,L|360:140,1,130,2|0,0:0|0:0,0:0:0:0:
