osu file format v14

[General]
AudioFilename: -+.mp3
AudioLeadIn: 0
PreviewTime:86931
Countdown: 0
SampleSet: Soft
StackLeniency: 0.7
Mode: 0
LetterboxInBreaks: 0
WidescreenStoryboard: 1
EpilepsyWarning: 1

[Editor]
Bookmarks: 77198
DistanceSpacing: 1
BeatDivisor: 16
GridSize: 4
TimelineZoom: 1.9

[Metadata]
Title:-+
TitleUnicode:-+
Artist:daisan
ArtistUnicode:daisan
Creator:Starfy
Version:Standard
Source:BOF2013
Tags:minus plus konzertsaal - THE BMS OF FIGHTERS 2013 Dirt Art Color Teller xellox piano StarForYou Kyle Y IamKwaN happy623 -N_a_n_a_k_o- Nanako Kencho Chaoslitz [ Drop ] choikapo Regou Rizia Kawaiwkyik Nakano Itsuki StarrStyx Prophecy aabc271 Nardoxyribonucleic Skylish ll-oscar autofanboy alienflybot hokin1995 pwhk hong kong hk muse dash electronic instrumental
BeatmapID:850057
BeatmapSetID:389617

[Difficulty]
HPDrainRate:4
CircleSize:3
OverallDifficulty:4
ApproachRate:5
SliderMultiplier:0.999999999999999
SliderTickRate:1

[Events]
//Background and Video events
0,0,"BG.png",0,0
//Break Periods
2,44320,53298
//Storyboard Layer 0 (Background)
//Storyboard Layer 1 (Fail)
//Storyboard Layer 2 (Pass)
//Storyboard Layer 3 (Foreground)
//Storyboard Layer 4 (Overlay)
//Storyboard Sound Samples

[TimingPoints]
2607,324.324324324324,4,2,1,20,1,0
12985,-100,4,2,2,30,0,0
13147,-100,4,2,1,30,0,0
23363,-100,4,1,1,80,0,1
23688,-100,4,1,1,70,0,1
33742,-100,4,1,1,60,0,0
44120,-100,4,1,3,60,0,0
54498,-100,4,2,2,40,0,0
54579,-100,4,2,1,40,0,0
62282,-100,4,1,1,50,0,0
62606,-100,4,1,1,60,0,0
63579,-100,4,1,1,70,0,0
65688,-100,4,1,6,70,0,0
66174,-100,4,1,1,70,0,0
66985,-100,4,1,6,70,0,0
67471,-100,4,1,1,70,0,0
68282,-100,4,1,6,70,0,0
68769,-100,4,1,1,70,0,0
70877,-100,4,1,6,70,0,0
71363,-100,4,1,1,70,0,0
72174,-100,4,1,6,70,0,0
72661,-100,4,1,1,70,0,0
73471,-100,4,1,6,70,0,0
73958,-100,4,1,1,70,0,0
75255,-100,4,1,1,50,0,0
80444,-100,4,1,1,60,0,0
83039,-100,4,1,1,70,0,0
86931,-100,4,1,5,80,0,1
88228,-100,4,1,1,70,0,1
98850,-100,4,1,1,20,0,1
98931,-100,4,1,1,70,0,1
102174,-100,4,1,1,80,0,1
103471,-100,4,1,1,70,0,1
114012,-100,4,1,1,5,0,1
114174,-100,4,1,3,40,0,0
118066,370.37037037037,4,2,1,35,1,0
119547,379.746835443038,4,2,1,30,1,0
120917,413.793103448276,4,2,1,25,1,0
122439,491.803278688525,4,2,1,20,1,0

[Colours]
Combo1 : 41,214,166
Combo2 : 128,0,255
Combo3 : 128,255,255
Combo4 : 3,90,252

[HitObjects]
52,331,12985,6,0,P|145:300|237:334,1,200,6|0,0:0|0:0,0:0:0:0:
380,196,14282,2,0,P|286:227|194:193,1,200,2|0,0:0|0:0,0:0:0:0:
92,24,15579,2,0,B|196:40|196:40|292:28,1,200,2|0,0:0|0:0,0:0:0:0:
464,128,16877,2,0,B|360:112|360:112|264:124,1,200,2|0,0:0|0:0,0:0:0:0:
92,224,18174,6,0,P|84:276|92:328,1,99.9999999999999,6|0,0:0|0:0,0:0:0:0:
188,304,18823,2,0,P|229:336|278:356,1,99.9999999999999,6|0,0:0|0:0,0:0:0:0:
305,260,19471,2,0,P|354:240|395:208,1,99.9999999999999,6|0,0:0|0:0,0:0:0:0:
324,136,20120,2,0,P|332:83|324:32,1,99.9999999999999,6|0,0:0|0:0,0:0:0:0:
224,32,20769,6,0,P|132:72|228:288,1,400,4|2,0:0|0:0,0:0:0:0:
224,288,23363,6,0,P|276:280|336:292,1,99.9999999999999,12|2,0:0|0:0,0:0:0:0:
372,304,23850,2,0,P|421:311|470:303,1,99.9999999999999,0|8,0:0|0:0,0:0:0:0:
500,264,24336,2,0,P|500:224|492:192,1,50,2|0,0:0|0:0,0:0:0:0:
472,172,24661,6,0,L|476:56,1,99.9999999999999,8|2,0:0|0:0,0:0:0:0:
476,24,25147,2,0,P|428:28|356:20,1,99.9999999999999,0|8,0:0|0:0,0:0:0:0:
328,24,25634,2,0,L|336:92,1,50,2|0,0:0|0:0,0:0:0:0:
344,124,25958,6,0,L|340:232,1,99.9999999999999,12|2,0:0|0:0,0:0:0:0:
336,272,26444,2,0,L|228:268,1,99.9999999999999,0|8,0:0|0:0,0:0:0:0:
188,264,26931,2,0,L|120:268,1,50,2|2,0:0|0:2,0:0:0:0:
88,268,27255,6,0,P|52:232|68:128,1,150,8|2,0:0|0:0,0:0:0:0:
84,96,27904,2,0,L|244:108,1,150,2|2,0:0|0:0,0:0:0:0:
284,112,28552,6,0,P|322:81|340:29,1,99.9999999999999,12|2,0:0|0:0,0:0:0:0:
240,20,29201,1,0,0:0:0:0:
240,20,29525,1,2,0:0:0:0:
240,20,29850,6,0,L|128:24,1,99.9999999999999,8|2,0:0|0:0,0:0:0:0:
52,76,30498,1,0,0:0:0:0:
52,76,30823,1,2,0:0:0:0:
52,76,31147,6,0,P|40:128|48:176,1,99.9999999999999,12|2,0:0|0:0,0:0:0:0:
120,240,31796,2,0,P|132:188|124:140,1,99.9999999999999,0|2,0:0|0:0,0:0:0:0:
52,76,32444,6,0,P|100:92|208:68,1,150,8|2,0:0|0:0,0:0:0:0:
240,100,33093,2,0,L|348:104,1,99.9999999999999,2|2,0:0|0:0,0:0:0:0:
432,60,33742,6,0,P|442:109|428:156,1,99.9999999999999,12|2,0:0|0:0,0:0:0:0:
348,215,34390,1,0,0:0:0:0:
254,177,34714,1,2,0:0:0:0:
240,76,35039,6,0,P|192:64|124:88,1,99.9999999999999,8|2,0:0|0:0,0:0:0:0:
64,136,35688,1,0,0:0:0:0:
78,235,36012,1,2,0:0:0:0:
170,272,36336,6,0,P|212:280|280:268,1,99.9999999999999,12|2,0:0|0:0,0:0:0:0:
352,220,36985,1,0,0:0:0:0:
349,122,37309,1,2,0:0:0:0:
241,76,37634,6,0,L|248:184,1,99.9999999999999,8|2,0:0|0:0,0:0:0:0:
252,224,38120,1,0,0:0:0:0:
256,272,38282,2,0,P|208:284|144:264,1,99.9999999999999,2|2,0:0|0:0,0:0:0:0:
124,240,38769,1,2,0:0:0:0:
104,192,38931,5,12,0:0:0:0:
120,92,39255,1,2,0:0:0:0:
214,55,39579,1,0,0:0:0:0:
292,118,39904,1,2,0:0:0:0:
277,218,40228,6,0,P|316:224|384:216,1,99.9999999999999,8|2,0:0|0:0,0:0:0:0:
456,160,40877,2,0,L|448:56,1,99.9999999999999,0|2,0:0|0:0,0:0:0:0:
356,16,41525,5,12,0:0:0:0:
271,73,41850,1,2,0:0:0:0:
172,52,42174,2,0,P|104:48|52:64,1,99.9999999999999,2|2,0:0|0:0,0:0:0:0:
16,136,42823,6,0,L|20:256,1,99.9999999999999,2|2,0:0|0:0,0:0:0:0:
28,285,43309,2,0,P|72:293|144:277,1,99.9999999999999,2|2,0:0|0:0,0:0:0:0:
174,269,43796,2,0,P|210:265|230:269,1,50,2|2,0:0|0:0,0:0:0:0:
273,272,44120,5,4,0:0:0:0:
276,272,54498,6,0,L|388:276,1,99.9999999999999,6|0,0:0|0:0,0:0:0:0:
468,236,55147,1,4,0:0:0:0:
488,140,55471,2,0,L|480:84,1,50,2|2,0:0|0:0,0:0:0:0:
472,40,55796,6,0,P|424:48|356:32,1,99.9999999999999,6|0,0:0|0:0,0:0:0:0:
300,108,56444,2,0,P|250:99|201:107,1,99.9999999999999,6|0,0:0|0:0,0:0:0:0:
119,48,57093,6,0,P|100:113|179:205,1,200,4|4,0:0|0:0,0:0:0:0:
256,268,58066,1,2,0:0:0:0:
256,268,58228,1,2,0:0:0:0:
256,268,58390,6,0,P|264:312|256:372,1,99.9999999999999,6|0,0:0|0:0,0:0:0:0:
156,364,59039,2,0,P|149:314|157:265,1,99.9999999999999,6|0,0:0|0:0,0:0:0:0:
211,179,59688,6,0,P|108:174|56:245,1,200,4|4,0:0|0:0,0:0:0:0:
156,265,60661,1,6,0:0:0:0:
156,265,60823,1,2,0:0:0:0:
156,265,60985,6,0,L|260:261,1,99.9999999999999,4|6,0:0|0:0,0:0:0:0:
332,196,61634,2,0,P|368:192|432:196,1,99.9999999999999,6|6,0:0|0:0,0:0:0:0:
476,284,62282,6,0,P|440:232|480:104,1,200,8|8,0:0|0:0,0:0:0:0:
420,24,63255,1,8,0:0:0:0:
375,114,63579,5,8,0:0:0:0:
274,120,63904,1,8,0:0:0:0:
188,68,64228,2,0,P|118:53|26:85,1,150,2|2,2:2|2:2,0:0:0:0:
56,120,64877,6,0,P|36:180|52:280,1,150,8|8,0:0|0:0,0:0:0:0:
120,332,65688,2,0,L|184:328,1,50,2|2,0:0|0:0,0:0:0:0:
220,324,66012,1,2,0:0:0:0:
269,316,66174,6,0,P|323:295|416:300,1,150,8|8,0:0|0:0,0:0:0:0:
440,204,66985,2,0,L|436:140,1,50,2|2,0:0|0:0,0:0:0:0:
436,104,67309,1,2,0:0:0:0:
432,56,67471,6,0,B|376:64|376:64|268:52,1,150,8|8,0:0|0:0,0:0:0:0:
184,40,68282,2,0,L|112:44,1,50,2|2,0:0|0:0,0:0:0:0:
88,60,68606,1,2,0:0:0:0:
60,100,68769,6,0,P|48:152|56:200,1,99.9999999999999,8|2,0:0|0:2,0:0:0:0:
140,248,69417,2,0,P|146:297|135:345,1,99.9999999999999,8|2,0:0|0:2,0:0:0:0:
236,344,70066,6,0,L|400:340,1,150,8|8,0:0|0:0,0:0:0:0:
460,276,70877,2,0,L|456:216,1,50,2|2,0:0|0:0,0:0:0:0:
436,180,71201,1,2,0:0:0:0:
396,152,71363,6,0,P|336:136|248:156,1,150,8|8,0:0|0:0,0:0:0:0:
180,224,72174,2,0,P|184:260|184:288,1,50,2|2,0:0|0:0,0:0:0:0:
156,312,72498,1,2,0:0:0:0:
108,332,72661,6,0,P|68:308|64:200,1,150,8|8,0:0|0:0,0:0:0:0:
136,152,73471,2,0,L|132:84,1,50,2|2,0:0|0:0,0:0:0:0:
160,60,73796,1,2,0:0:0:0:
204,36,73958,6,0,P|248:28|312:44,1,99.9999999999999,8|2,0:0|0:2,0:0:0:0:
372,108,74606,2,0,P|420:118|469:110,1,99.9999999999999,8|8,0:0|0:0,0:0:0:0:
484,208,75255,6,0,L|480:312,1,99.9999999999999,8|8,0:0|0:0,0:0:0:0:
396,360,75904,2,0,L|400:256,1,99.9999999999999,8|8,0:0|0:0,0:0:0:0:
400,160,76552,5,8,0:0:0:0:
316,108,76877,1,8,0:0:0:0:
219,130,77201,1,8,0:0:0:0:
167,214,77525,1,8,0:0:0:0:
189,311,77850,6,0,P|232:320|288:312,1,99.9999999999999,8|2,0:0|0:0,0:0:0:0:
380,276,78498,2,0,P|409:243|430:190,1,99.9999999999999,8|8,0:0|0:0,0:0:0:0:
448,93,79147,2,0,L|336:100,1,99.9999999999999,8|2,0:0|0:0,0:0:0:0:
296,100,79634,1,2,0:0:0:0:
248,100,79796,2,0,P|192:112|100:96,1,150,2|2,0:0|0:0,0:0:0:0:
72,56,80444,6,0,L|76:172,1,99.9999999999999,8|2,0:0|0:0,0:0:0:0:
140,232,81093,2,0,P|148:268|136:340,1,99.9999999999999,8|0,0:0|0:0,0:0:0:0:
90,333,81579,2,0,L|16:331,1,50,2|2,0:0|0:0,0:0:0:0:
40,232,82066,1,2,0:0:0:0:
100,152,82390,2,0,L|268:156,1,150,2|2,0:0|0:0,0:0:0:0:
300,156,83039,6,0,P|308:212|300:268,1,99.9999999999999,8|2,0:0|0:0,0:0:0:0:
392,300,83688,2,0,P|384:244|392:188,1,99.9999999999999,0|2,0:0|0:0,0:0:0:0:
486,179,84336,2,0,P|444:115|361:105,1,150,8|2,0:0|0:0,0:0:0:0:
325,104,84985,2,0,B|253:112|253:112|169:100,1,150,2|2,0:0|0:0,0:0:0:0:
128,85,85634,5,2,0:0:0:0:
256,192,85796,12,4,86931,0:0:0:0:
144,60,88228,6,0,P|120:116|136:168,1,99.9999999999999,12|2,0:0|0:0,0:0:0:0:
160,192,88715,2,0,L|152:300,1,99.9999999999999,0|8,0:0|0:0,0:0:0:0:
152,340,89201,1,2,0:0:0:0:
252,324,89525,6,0,P|292:312|356:328,1,99.9999999999999,8|2,0:0|0:0,0:0:0:0:
380,284,90012,2,0,P|428:295|476:283,1,99.9999999999999,0|8,0:0|0:0,0:0:0:0:
488,236,90498,2,0,L|484:172,1,50,2|0,0:0|0:0,0:0:0:0:
488,136,90823,6,0,L|492:28,1,99.9999999999999,12|2,0:0|0:0,0:0:0:0:
440,36,91309,2,0,P|392:44|320:28,1,99.9999999999999,2|2,0:0|0:0,0:0:0:0:
292,24,91796,2,0,P|260:20|224:28,1,50,2|2,0:0|0:0,0:0:0:0:
196,36,92120,6,0,P|148:48|80:32,1,99.9999999999999,8|2,0:0|0:0,0:0:0:0:
48,28,92606,1,8,0:0:0:0:
20,124,92931,1,8,0:0:0:0:
20,124,93093,2,0,L|24:192,1,50,2|2,0:0|0:0,0:0:0:0:
28,224,93417,6,0,P|72:224|136:192,1,99.9999999999999,12|2,0:0|0:0,0:0:0:0:
164,228,93904,2,0,L|284:232,1,99.9999999999999,0|8,0:0|0:0,0:0:0:0:
312,236,94390,2,0,P|316:260|312:296,1,50,2|0,0:0|0:0,0:0:0:0:
304,336,94715,6,0,L|424:332,1,99.9999999999999,8|2,0:0|0:0,0:0:0:0:
452,328,95201,1,0,0:0:0:0:
480,232,95525,1,8,0:0:0:0:
480,232,95688,2,0,P|484:192|484:164,1,50,2|0,0:0|0:0,0:0:0:0:
480,132,96012,6,0,P|424:124|364:136,1,99.9999999999999,12|2,0:0|0:0,0:0:0:0:
332,144,96498,2,0,B|284:152|284:152|212:140,1,99.9999999999999,0|8,0:0|0:0,0:0:0:0:
184,136,96985,2,0,L|180:185,1,50,2|2,0:0|0:0,0:0:0:0:
180,236,97309,6,0,P|136:252|28:236,1,150,8|2,0:0|0:0,0:0:0:0:
28,192,97958,2,0,L|32:128,1,50,8|8,0:0|0:0,0:0:0:0:
96,68,98444,2,0,P|140:84|200:64,1,99.9999999999999,12|0,0:0|0:0,0:0:0:0:
232,44,98931,6,0,L|348:48,1,99.9999999999999,2|0,0:0|0:0,0:0:0:0:
380,36,99417,2,0,L|376:100,1,50,0|2,0:0|0:0,0:0:0:0:
360,184,99904,5,8,0:0:0:0:
304,268,100228,1,2,0:0:0:0:
256,280,100390,2,0,L|140:276,1,99.9999999999999
108,272,100877,2,0,P|104:232|104:208,1,50,2|2,0:0|0:0,0:0:0:0:
104,172,101201,6,0,P|112:104|96:60,1,99.9999999999999,8|2,0:0|0:0,0:0:0:0:
80,32,101688,2,0,L|196:36,1,99.9999999999999,8|2,0:0|0:0,0:0:0:0:
228,36,102174,1,8,0:0:0:0:
256,192,102336,12,0,103471,0:0:0:0:
419,88,104120,6,0,P|431:116|419:192,1,99.9999999999999,2|8,0:0|0:0,0:0:0:0:
395,280,104769,1,2,0:0:0:0:
395,280,104931,6,0,P|367:292|291:280,1,99.9999999999999,8|0,0:0|0:0,0:0:0:0:
256,260,105417,2,0,P|207:249|160:264,1,99.9999999999999,2|8,0:0|0:0,0:0:0:0:
76,320,106066,1,2,0:0:0:0:
32,304,106228,6,0,L|40:184,1,99.9999999999999,8|0,0:0|0:0,0:0:0:0:
68,164,106715,2,0,L|61:64,1,99.9999999999999,2|8,0:0|0:0,0:0:0:0:
156,36,107363,1,2,0:0:0:0:
156,36,107525,6,0,P|204:44|268:32,1,99.9999999999999,8|0,0:0|0:0,0:0:0:0:
300,52,108012,2,0,P|349:44|398:52,1,99.9999999999999,2|8,0:0|0:0,0:0:0:0:
444,72,108498,2,0,P|460:96|464:128,1,50,0|2,0:0|0:0,0:0:0:0:
476,164,108823,1,0,0:0:0:0:
488,263,109147,5,0,0:0:0:0:
448,293,109309,2,0,P|416:297|380:285,1,50,2|0,0:0|0:0,0:0:0:0:
351,278,109634,2,0,P|303:266|247:282,1,99.9999999999999,8|2,0:0|0:0,0:0:0:0:
208,295,110120,1,8,0:0:0:0:
127,236,110444,5,0,0:0:0:0:
103,192,110606,2,0,P|99:156|103:124,1,50,2|8,0:0|0:0,0:0:0:0:
111,92,110931,2,0,P|159:80|223:96,1,99.9999999999999,2|2,0:0|0:0,0:0:0:0:
253,108,111417,1,2,0:0:0:0:
338,55,111742,6,0,P|342:19|334:-12,2,50,2|2|2,0:0|0:0|0:0,0:0:0:0:
357,101,112228,2,0,B|429:109|429:109|509:101,1,150,2|2,0:0|0:0,0:0:0:0:
256,192,112877,12,0,114174,0:0:0:0:
