osu file format v14

[General]
AudioFilename: -+.mp3
AudioLeadIn: 0
PreviewTime:86931
Countdown: 0
SampleSet: Normal
StackLeniency: 0.7
Mode: 1
LetterboxInBreaks: 0
WidescreenStoryboard: 1
EpilepsyWarning: 1

[Editor]
Bookmarks: 37631
DistanceSpacing: 2
BeatDivisor: 4
GridSize: 32
TimelineZoom: 2.300003

[Metadata]
Title:-+
TitleUnicode:-+
Artist:daisan
ArtistUnicode:daisan
Creator:Starfy
Version:Skylish's Oni
Source:BOF2013
Tags:minus plus konzertsaal - THE BMS OF FIGHTERS 2013 Dirt Art Color Teller xellox piano StarForYou Kyle Y IamKwaN happy623 -N_a_n_a_k_o- Nanako Kencho Chaoslitz [ Drop ] choikapo Regou Rizia Kawaiwkyik Nakano Itsuki StarrStyx Prophecy aabc271 Nardoxyribonucleic Skylish ll-oscar autofanboy alienflybot hokin1995 pwhk hong kong hk muse dash electronic instrumental
BeatmapID:977993
BeatmapSetID:389617

[Difficulty]
HPDrainRate:5.4
CircleSize:5
OverallDifficulty:5.4
ApproachRate:6
SliderMultiplier:1.4
SliderTickRate:1

[Events]
//Background and Video events
0,0,"BG.png",0,0
//Break Periods
//Storyboard Layer 0 (Background)
//Storyboard Layer 1 (Fail)
//Storyboard Layer 2 (Pass)
//Storyboard Layer 3 (Foreground)
//Storyboard Layer 4 (Overlay)
//Storyboard Sound Samples

[TimingPoints]
2607,324.324324324324,4,1,0,40,1,0
2607,-142.857142857143,4,1,0,40,0,0
12985,-125,4,1,0,50,0,0
22066,-111.111111111111,4,1,0,50,0,0
22715,-100,4,1,0,50,0,0
44769,-142.857142857143,4,1,0,40,0,0
54498,-125,4,1,0,50,0,0
62282,-111.111111111111,4,1,0,50,0,0
64877,-100,4,1,0,80,0,0
88228,-100,4,1,0,80,0,1
98444,-100,4,1,0,80,0,0
98931,-100,4,1,0,80,0,1
114174,-117.647058823529,4,1,0,50,0,0
118066,370.37037037037,4,1,0,40,1,0
119547,379.746835443038,4,1,0,30,1,0
120917,413.793103448276,4,1,0,20,1,0
122439,491.803278688525,4,1,0,10,1,0

[Colours]
Combo1 : 41,214,166
Combo2 : 128,0,255
Combo3 : 128,255,255
Combo4 : 3,90,252

[HitObjects]
256,192,2607,5,0,0:0:0:0:
256,192,3255,1,0,0:0:0:0:
256,192,3904,1,8,0:0:0:0:
256,192,4552,1,8,0:0:0:0:
256,192,5201,1,0,0:0:0:0:
256,192,6498,1,0,0:0:0:0:
256,192,7796,1,0,0:0:0:0:
256,192,8444,1,8,0:0:0:0:
256,192,9093,1,0,0:0:0:0:
256,192,9742,1,8,0:0:0:0:
256,192,10390,1,8,0:0:0:0:
256,192,11688,1,0,0:0:0:0:
256,192,12985,1,4,0:0:0:0:
256,192,13634,1,0,0:0:0:0:
256,192,14282,1,8,0:0:0:0:
256,192,14931,1,8,0:0:0:0:
256,192,15579,1,0,0:0:0:0:
256,192,16877,1,0,0:0:0:0:
256,192,18174,1,0,0:0:0:0:
256,192,18823,1,8,0:0:0:0:
256,192,19471,1,0,0:0:0:0:
256,192,20120,1,8,0:0:0:0:
256,192,20769,1,8,0:0:0:0:
256,192,22066,1,0,0:0:0:0:
256,192,22715,12,0,23201,0:0:0:0:
256,192,23363,5,4,0:0:0:0:
256,192,23525,1,0,0:0:0:0:
256,192,23688,1,8,0:0:0:0:
256,192,23931,1,8,0:0:0:0:
256,192,24012,1,0,0:0:0:0:
256,192,24174,1,0,0:0:0:0:
256,192,24336,1,8,0:0:0:0:
256,192,24498,1,0,0:0:0:0:
256,192,24661,1,0,0:0:0:0:
256,192,24823,1,0,0:0:0:0:
256,192,24985,1,8,0:0:0:0:
256,192,25228,1,8,0:0:0:0:
256,192,25309,1,0,0:0:0:0:
256,192,25471,1,0,0:0:0:0:
256,192,25634,1,8,0:0:0:0:
256,192,25796,1,0,0:0:0:0:
256,192,25877,1,0,0:0:0:0:
256,192,25958,1,0,0:0:0:0:
256,192,26120,1,0,0:0:0:0:
256,192,26282,1,8,0:0:0:0:
256,192,26444,1,0,0:0:0:0:
256,192,26606,1,8,0:0:0:0:
256,192,26769,1,0,0:0:0:0:
256,192,26850,1,0,0:0:0:0:
256,192,26931,1,8,0:0:0:0:
256,192,27093,1,8,0:0:0:0:
256,192,27255,1,0,0:0:0:0:
256,192,27417,1,0,0:0:0:0:
256,192,27498,1,0,0:0:0:0:
256,192,27579,1,8,0:0:0:0:
256,192,27742,1,8,0:0:0:0:
256,192,27904,1,8,0:0:0:0:
256,192,27985,1,0,0:0:0:0:
256,192,28066,1,8,0:0:0:0:
256,192,28147,1,0,0:0:0:0:
256,192,28228,1,8,0:0:0:0:
256,192,28390,1,8,0:0:0:0:
256,192,28471,1,0,0:0:0:0:
256,192,28552,1,0,0:0:0:0:
256,192,28715,1,0,0:0:0:0:
256,192,28877,1,8,0:0:0:0:
256,192,29120,1,8,0:0:0:0:
256,192,29201,1,0,0:0:0:0:
256,192,29363,1,0,0:0:0:0:
256,192,29525,1,8,0:0:0:0:
256,192,29688,1,0,0:0:0:0:
256,192,29769,1,0,0:0:0:0:
256,192,29850,1,0,0:0:0:0:
256,192,30012,1,0,0:0:0:0:
256,192,30174,1,8,0:0:0:0:
256,192,30336,1,8,0:0:0:0:
256,192,30417,1,8,0:0:0:0:
256,192,30498,1,0,0:0:0:0:
256,192,30661,1,0,0:0:0:0:
256,192,30823,1,8,0:0:0:0:
256,192,30985,1,0,0:0:0:0:
256,192,31066,1,0,0:0:0:0:
256,192,31147,1,0,0:0:0:0:
256,192,31309,1,0,0:0:0:0:
256,192,31471,1,8,0:0:0:0:
256,192,31634,1,8,0:0:0:0:
256,192,31715,1,8,0:0:0:0:
256,192,31796,1,0,0:0:0:0:
256,192,31958,1,0,0:0:0:0:
256,192,32120,1,8,0:0:0:0:
256,192,32282,1,0,0:0:0:0:
256,192,32363,1,0,0:0:0:0:
256,192,32444,1,8,0:0:0:0:
256,192,32525,1,0,0:0:0:0:
256,192,32606,1,8,0:0:0:0:
256,192,32769,1,8,0:0:0:0:
256,192,32931,1,8,0:0:0:0:
256,192,33093,1,8,0:0:0:0:
256,192,33174,1,0,0:0:0:0:
256,192,33255,1,8,0:0:0:0:
256,192,33417,1,8,0:0:0:0:
256,192,33498,1,0,0:0:0:0:
256,192,33579,1,8,0:0:0:0:
256,192,33661,1,0,0:0:0:0:
256,192,33742,1,8,0:0:0:0:
256,192,34066,1,8,0:0:0:0:
256,192,34228,1,0,0:0:0:0:
256,192,34309,1,0,0:0:0:0:
256,192,34390,1,8,0:0:0:0:
256,192,34552,1,0,0:0:0:0:
256,192,34715,1,8,0:0:0:0:
256,192,34877,1,8,0:0:0:0:
256,192,35039,1,0,0:0:0:0:
256,192,35201,1,0,0:0:0:0:
256,192,35363,1,8,0:0:0:0:
256,192,35525,1,0,0:0:0:0:
256,192,35606,1,8,0:0:0:0:
256,192,35688,1,8,0:0:0:0:
256,192,35850,1,0,0:0:0:0:
256,192,36012,1,8,0:0:0:0:
256,192,36174,1,8,0:0:0:0:
256,192,36336,1,0,0:0:0:0:
256,192,36498,1,0,0:0:0:0:
256,192,36661,1,8,0:0:0:0:
256,192,36823,1,8,0:0:0:0:
256,192,36904,1,8,0:0:0:0:
256,192,36985,1,8,0:0:0:0:
256,192,37147,1,0,0:0:0:0:
256,192,37309,1,8,0:0:0:0:
256,192,37471,1,8,0:0:0:0:
256,192,37634,1,0,0:0:0:0:
256,192,37715,1,0,0:0:0:0:
256,192,37796,1,0,0:0:0:0:
256,192,37958,1,8,0:0:0:0:
256,192,38120,1,8,0:0:0:0:
256,192,38282,1,8,0:0:0:0:
256,192,38363,1,0,0:0:0:0:
256,192,38444,1,8,0:0:0:0:
256,192,38606,1,8,0:0:0:0:
256,192,38769,1,8,0:0:0:0:
256,192,38931,1,8,0:0:0:0:
256,192,39012,1,8,0:0:0:0:
256,192,39093,1,8,0:0:0:0:
256,192,39174,1,0,0:0:0:0:
256,192,39255,1,8,0:0:0:0:
256,192,39417,1,8,0:0:0:0:
256,192,39498,1,8,0:0:0:0:
256,192,39579,1,0,0:0:0:0:
256,192,39661,1,8,0:0:0:0:
256,192,39742,1,8,0:0:0:0:
256,192,39904,1,8,0:0:0:0:
256,192,40066,1,8,0:0:0:0:
256,192,40228,1,8,0:0:0:0:
256,192,40390,1,8,0:0:0:0:
256,192,40471,1,0,0:0:0:0:
256,192,40552,1,8,0:0:0:0:
256,192,40715,1,8,0:0:0:0:
256,192,40877,1,8,0:0:0:0:
256,192,40958,1,8,0:0:0:0:
256,192,41039,1,8,0:0:0:0:
256,192,41201,1,8,0:0:0:0:
256,192,41282,1,8,0:0:0:0:
256,192,41363,1,8,0:0:0:0:
256,192,41444,1,0,0:0:0:0:
256,192,41525,1,8,0:0:0:0:
256,192,41606,1,8,0:0:0:0:
256,192,41688,1,8,0:0:0:0:
256,192,41850,1,8,0:0:0:0:
256,192,41931,1,8,0:0:0:0:
256,192,42012,1,8,0:0:0:0:
256,192,42093,1,0,0:0:0:0:
256,192,42174,1,8,0:0:0:0:
256,192,42336,1,8,0:0:0:0:
256,192,42498,1,8,0:0:0:0:
256,192,42579,1,0,0:0:0:0:
256,192,42661,1,8,0:0:0:0:
256,192,42823,1,8,0:0:0:0:
256,192,42904,1,0,0:0:0:0:
256,192,42985,1,8,0:0:0:0:
256,192,43147,1,8,0:0:0:0:
256,192,43228,1,8,0:0:0:0:
256,192,43309,1,8,0:0:0:0:
256,192,43390,1,0,0:0:0:0:
256,192,43471,1,8,0:0:0:0:
256,192,43634,1,8,0:0:0:0:
256,192,43715,1,0,0:0:0:0:
256,192,43796,1,8,0:0:0:0:
256,192,43877,1,0,0:0:0:0:
256,192,43958,1,8,0:0:0:0:
256,192,44120,1,4,0:0:0:0:
256,192,45093,1,8,0:0:0:0:
256,192,45255,1,0,0:0:0:0:
256,192,45417,1,8,0:0:0:0:
256,192,45742,1,8,0:0:0:0:
256,192,46066,1,0,0:0:0:0:
256,192,46390,1,0,0:0:0:0:
256,192,47688,1,8,0:0:0:0:
256,192,47850,1,0,0:0:0:0:
256,192,48012,1,8,0:0:0:0:
256,192,48336,1,8,0:0:0:0:
256,192,48661,1,8,0:0:0:0:
256,192,48985,1,0,0:0:0:0:
256,192,50282,1,8,0:0:0:0:
256,192,50444,1,0,0:0:0:0:
256,192,50606,1,8,0:0:0:0:
256,192,50931,1,8,0:0:0:0:
256,192,51255,1,8,0:0:0:0:
256,192,51579,1,0,0:0:0:0:
256,192,52715,1,8,0:0:0:0:
256,192,52877,1,0,0:0:0:0:
256,192,53039,1,0,0:0:0:0:
256,192,53201,1,8,0:0:0:0:
256,192,53525,1,8,0:0:0:0:
256,192,53850,1,0,0:0:0:0:
256,192,54174,1,8,0:0:0:0:
256,192,54498,1,4,0:2:0:0:
256,192,55471,1,0,0:0:0:0:
256,192,55634,1,0,0:0:0:0:
256,192,55796,1,8,0:0:0:0:
256,192,56120,1,8,0:0:0:0:
256,192,56444,1,0,0:0:0:0:
256,192,56769,1,8,0:0:0:0:
256,192,57093,1,0,0:0:0:0:
256,192,58066,1,8,0:0:0:0:
256,192,58228,1,0,0:0:0:0:
256,192,58390,1,8,0:0:0:0:
256,192,58715,1,8,0:0:0:0:
256,192,59039,1,0,0:0:0:0:
256,192,59363,1,8,0:0:0:0:
256,192,59688,1,0,0:0:0:0:
256,192,60661,1,0,0:0:0:0:
256,192,60823,1,0,0:0:0:0:
256,192,60985,1,8,0:0:0:0:
256,192,61147,1,0,0:0:0:0:
256,192,61309,1,8,0:0:0:0:
256,192,61634,1,8,0:0:0:0:
256,192,61796,1,8,0:0:0:0:
256,192,61958,1,0,0:0:0:0:
256,192,62282,12,0,64715,0:2:0:0:
256,192,64877,5,4,0:2:0:0:
256,192,65363,1,4,0:2:0:0:
256,192,65688,1,0,0:2:0:0:
256,192,65769,1,0,0:2:0:0:
256,192,65850,1,8,0:2:0:0:
256,192,66012,1,0,0:0:0:0:
256,192,66174,1,4,0:2:0:0:
256,192,66661,1,4,0:2:0:0:
256,192,66985,1,8,0:2:0:0:
256,192,67066,1,0,0:2:0:0:
256,192,67147,1,0,0:2:0:0:
256,192,67309,1,8,0:0:0:0:
256,192,67471,1,4,0:2:0:0:
256,192,67958,1,4,0:2:0:0:
256,192,68282,1,8,0:0:0:0:
256,192,68363,1,0,0:0:0:0:
256,192,68444,1,8,0:0:0:0:
256,192,68606,1,8,0:0:0:0:
256,192,68769,1,4,0:2:0:0:
256,192,69417,1,4,0:2:0:0:
256,192,70066,1,12,0:0:0:0:
256,192,70552,1,12,0:0:0:0:
256,192,70877,1,8,0:0:0:0:
256,192,70958,1,8,0:0:0:0:
256,192,71039,1,0,0:0:0:0:
256,192,71201,1,0,0:0:0:0:
256,192,71363,1,12,0:0:0:0:
256,192,71850,1,12,0:0:0:0:
256,192,72174,1,8,0:0:0:0:
256,192,72255,1,0,0:0:0:0:
256,192,72336,1,0,0:0:0:0:
256,192,72498,1,8,0:0:0:0:
256,192,72661,1,12,0:0:0:0:
256,192,73147,1,12,0:0:0:0:
256,192,73471,1,0,0:0:0:0:
256,192,73552,1,0,0:0:0:0:
256,192,73634,1,8,0:0:0:0:
256,192,73796,1,8,0:0:0:0:
256,192,73958,1,12,0:0:0:0:
256,192,74606,1,12,0:0:0:0:
256,192,75255,5,4,0:0:0:0:
256,192,76552,1,0,0:0:0:0:
256,192,77201,1,8,0:0:0:0:
256,192,77688,1,8,0:0:0:0:
256,192,77850,1,0,0:0:0:0:
256,192,78174,1,8,0:0:0:0:
256,192,78498,1,0,0:0:0:0:
256,192,78823,1,0,0:0:0:0:
256,192,78985,1,8,0:0:0:0:
256,192,79147,1,0,0:0:0:0:
256,192,79471,1,8,0:0:0:0:
256,192,79634,1,8,0:0:0:0:
256,192,79715,1,8,0:0:0:0:
256,192,79796,1,8,0:0:0:0:
256,192,80039,1,8,0:0:0:0:
256,192,80282,1,8,0:0:0:0:
256,192,80444,1,4,0:0:0:0:
256,192,80606,1,0,0:0:0:0:
256,192,80769,1,8,0:0:0:0:
256,192,81012,1,0,0:0:0:0:
256,192,81093,1,0,0:0:0:0:
256,192,81255,1,8,0:0:0:0:
256,192,81579,1,8,0:0:0:0:
256,192,81742,1,4,0:0:0:0:
256,192,81904,1,0,0:0:0:0:
256,192,82066,1,8,0:0:0:0:
256,192,82390,1,8,0:0:0:0:
256,192,82634,1,8,0:0:0:0:
256,192,82877,1,8,0:0:0:0:
256,192,83039,1,4,0:0:0:0:
256,192,83201,1,0,0:0:0:0:
256,192,83282,1,0,0:0:0:0:
256,192,83363,1,8,0:0:0:0:
256,192,83525,1,0,0:0:0:0:
256,192,83688,1,8,0:0:0:0:
256,192,83769,1,8,0:0:0:0:
256,192,83850,1,0,0:0:0:0:
256,192,83931,1,0,0:0:0:0:
256,192,84012,1,8,0:0:0:0:
256,192,84174,1,8,0:0:0:0:
256,192,84336,1,4,0:0:0:0:
256,192,84498,1,0,0:0:0:0:
256,192,84579,1,0,0:0:0:0:
256,192,84661,1,8,0:0:0:0:
256,192,84823,1,0,0:0:0:0:
256,192,84985,1,8,0:0:0:0:
256,192,85066,1,8,0:0:0:0:
256,192,85147,1,0,0:0:0:0:
256,192,85309,1,8,0:0:0:0:
256,192,85390,1,0,0:0:0:0:
256,192,85471,1,8,0:0:0:0:
256,192,85552,1,0,0:0:0:0:
256,192,85634,1,8,0:0:0:0:
256,192,85796,12,0,86931,0:0:0:0:
256,192,88228,5,4,0:0:0:0:
256,192,88390,1,0,0:0:0:0:
256,192,88552,1,8,0:0:0:0:
256,192,88796,1,0,0:0:0:0:
256,192,88877,1,0,0:0:0:0:
256,192,89039,1,0,0:0:0:0:
256,192,89201,1,8,0:0:0:0:
256,192,89525,1,0,0:0:0:0:
256,192,89688,1,0,0:0:0:0:
256,192,89850,1,8,0:0:0:0:
256,192,90093,1,0,0:0:0:0:
256,192,90174,1,8,0:0:0:0:
256,192,90336,1,0,0:0:0:0:
256,192,90498,1,8,0:0:0:0:
256,192,90823,1,0,0:0:0:0:
256,192,90985,1,8,0:0:0:0:
256,192,91147,1,8,0:0:0:0:
256,192,91309,1,0,0:0:0:0:
256,192,91390,1,0,0:0:0:0:
256,192,91471,1,0,0:0:0:0:
256,192,91634,1,0,0:0:0:0:
256,192,91796,1,8,0:0:0:0:
256,192,91958,1,0,0:0:0:0:
256,192,92120,1,0,0:0:0:0:
256,192,92282,1,0,0:0:0:0:
256,192,92363,1,0,0:0:0:0:
256,192,92444,1,8,0:0:0:0:
256,192,92606,1,0,0:0:0:0:
256,192,92688,1,8,0:0:0:0:
256,192,92769,1,0,0:0:0:0:
256,192,92850,1,8,0:0:0:0:
256,192,92931,1,0,0:0:0:0:
256,192,93093,1,8,0:0:0:0:
256,192,93174,1,8,0:0:0:0:
256,192,93255,1,0,0:0:0:0:
256,192,93417,1,8,0:0:0:0:
256,192,93579,1,0,0:0:0:0:
256,192,93742,1,8,0:0:0:0:
256,192,93985,1,0,0:0:0:0:
256,192,94066,1,0,0:0:0:0:
256,192,94228,1,0,0:0:0:0:
256,192,94390,1,8,0:0:0:0:
256,192,94552,1,0,0:0:0:0:
256,192,94634,1,0,0:0:0:0:
256,192,94715,1,0,0:0:0:0:
256,192,94877,1,0,0:0:0:0:
256,192,95039,1,8,0:0:0:0:
256,192,95201,1,0,0:0:0:0:
256,192,95282,1,8,0:0:0:0:
256,192,95444,1,0,0:0:0:0:
256,192,95525,1,0,0:0:0:0:
256,192,95688,1,8,0:0:0:0:
256,192,95850,1,0,0:0:0:0:
256,192,96012,1,0,0:0:0:0:
256,192,96174,1,0,0:0:0:0:
256,192,96255,1,0,0:0:0:0:
256,192,96336,1,8,0:0:0:0:
256,192,96498,1,0,0:0:0:0:
256,192,96579,1,0,0:0:0:0:
256,192,96742,1,0,0:0:0:0:
256,192,96823,1,0,0:0:0:0:
256,192,96904,1,0,0:0:0:0:
256,192,96985,1,8,0:0:0:0:
256,192,97147,1,0,0:0:0:0:
256,192,97309,1,12,0:0:0:0:
256,192,97471,1,0,0:0:0:0:
256,192,97552,1,0,0:0:0:0:
256,192,97634,1,0,0:0:0:0:
256,192,97715,1,0,0:0:0:0:
256,192,97796,1,0,0:0:0:0:
256,192,97958,1,12,0:0:0:0:
256,192,98120,1,0,0:0:0:0:
256,192,98201,1,8,0:0:0:0:
256,192,98282,1,0,0:0:0:0:
256,192,98444,1,8,0:0:0:0:
256,192,98931,1,12,0:0:0:0:
256,192,99255,1,8,0:0:0:0:
256,192,99336,1,8,0:0:0:0:
256,192,99417,1,0,0:0:0:0:
256,192,99498,1,0,0:0:0:0:
256,192,99579,1,8,0:0:0:0:
256,192,99742,1,8,0:0:0:0:
256,192,99823,1,8,0:0:0:0:
256,192,99904,1,0,0:0:0:0:
256,192,100066,1,0,0:0:0:0:
256,192,100147,1,0,0:0:0:0:
256,192,100228,1,8,0:0:0:0:
256,192,100390,1,0,0:0:0:0:
256,192,100471,1,0,0:0:0:0:
256,192,100552,1,8,0:0:0:0:
256,192,100634,1,8,0:0:0:0:
256,192,100715,1,0,0:0:0:0:
256,192,100877,1,8,0:0:0:0:
256,192,100958,1,0,0:0:0:0:
256,192,101039,1,8,0:0:0:0:
256,192,101201,1,12,0:0:0:0:
256,192,101363,1,0,0:0:0:0:
256,192,101444,1,8,0:0:0:0:
256,192,101525,1,0,0:0:0:0:
256,192,101688,1,12,0:0:0:0:
256,192,101850,1,8,0:0:0:0:
256,192,101931,1,0,0:0:0:0:
256,192,102012,1,8,0:0:0:0:
256,192,102174,1,12,0:0:0:0:
256,192,102498,1,8,0:0:0:0:
256,192,102579,1,8,0:0:0:0:
256,192,102661,1,0,0:0:0:0:
256,192,102742,1,0,0:0:0:0:
256,192,102823,1,8,0:0:0:0:
256,192,102904,1,8,0:0:0:0:
256,192,102985,1,0,0:0:0:0:
256,192,103066,1,0,0:0:0:0:
256,192,103147,1,0,0:0:0:0:
256,192,103390,1,0,0:0:0:0:
256,192,103634,1,12,0:0:0:0:
256,192,103796,1,0,0:0:0:0:
256,192,103958,1,0,0:0:0:0:
256,192,104120,1,8,0:0:0:0:
256,192,104444,1,8,0:0:0:0:
256,192,104525,1,0,0:0:0:0:
256,192,104606,1,0,0:0:0:0:
256,192,104769,1,0,0:0:0:0:
256,192,104931,1,12,0:0:0:0:
256,192,105093,1,0,0:0:0:0:
256,192,105255,1,0,0:0:0:0:
256,192,105336,1,0,0:0:0:0:
256,192,105417,1,8,0:0:0:0:
256,192,105579,1,8,0:0:0:0:
256,192,105661,1,0,0:0:0:0:
256,192,105742,1,8,0:0:0:0:
256,192,105904,1,0,0:0:0:0:
256,192,106066,1,8,0:0:0:0:
256,192,106228,1,12,0:0:0:0:
128,128,106390,1,0,0:0:0:0:
256,192,106552,1,0,0:0:0:0:
192,160,106634,1,0,0:0:0:0:
256,192,106715,1,8,0:0:0:0:
128,128,106877,1,8,0:0:0:0:
192,160,106958,1,8,0:0:0:0:
320,224,107039,1,0,0:0:0:0:
256,192,107201,1,0,0:0:0:0:
256,192,107363,1,0,0:0:0:0:
256,192,107525,1,12,0:0:0:0:
256,192,107688,1,0,0:0:0:0:
256,192,107850,1,0,0:0:0:0:
256,192,107931,1,0,0:0:0:0:
256,192,108012,1,8,0:0:0:0:
256,192,108174,1,0,0:0:0:0:
256,192,108336,1,8,0:0:0:0:
256,192,108417,1,0,0:0:0:0:
256,192,108498,1,8,0:0:0:0:
256,192,108661,1,0,0:0:0:0:
256,192,108823,1,12,0:0:0:0:
256,192,108985,1,0,0:0:0:0:
256,192,109147,1,0,0:0:0:0:
256,192,109228,1,0,0:0:0:0:
256,192,109309,1,8,0:0:0:0:
256,192,109390,1,0,0:0:0:0:
256,192,109471,1,8,0:0:0:0:
256,192,109552,1,8,0:0:0:0:
256,192,109634,1,0,0:0:0:0:
256,192,109796,1,8,0:0:0:0:
256,192,109877,1,8,0:0:0:0:
256,192,109958,1,0,0:0:0:0:
256,192,110120,1,12,0:0:0:0:
256,192,110282,1,0,0:0:0:0:
256,192,110363,1,8,0:0:0:0:
256,192,110444,1,0,0:0:0:0:
256,192,110606,1,8,0:0:0:0:
256,192,110688,1,0,0:0:0:0:
256,192,110769,1,0,0:0:0:0:
256,192,110850,1,0,0:0:0:0:
256,192,110931,1,8,0:0:0:0:
256,192,111174,1,8,0:0:0:0:
256,192,111417,1,4,0:0:0:0:
256,192,111742,1,0,0:0:0:0:
256,192,111904,1,0,0:0:0:0:
256,192,112066,1,0,0:0:0:0:
256,192,112228,1,8,0:0:0:0:
256,192,112471,1,8,0:0:0:0:
256,192,112715,1,4,0:0:0:0:
256,192,112877,12,0,114012,0:0:0:0:
256,192,114174,5,4,0:0:0:0:
256,192,114336,1,0,0:0:0:0:
256,192,114498,1,0,0:0:0:0:
256,192,114661,1,8,0:0:0:0:
256,192,115471,1,0,0:0:0:0:
256,192,115634,1,0,0:0:0:0:
256,192,115796,1,8,0:0:0:0:
256,192,115958,1,8,0:0:0:0:
256,192,116769,1,0,0:0:0:0:
256,192,116932,1,8,0:0:0:0:
256,192,117094,1,8,0:0:0:0:
256,192,117256,1,8,0:0:0:0:
256,192,118066,1,8,0:0:0:0:
256,192,118806,1,0,0:0:0:0:
256,192,119547,1,8,0:0:0:0:
256,192,119736,1,0,0:0:0:0:
256,192,119926,1,0,0:0:0:0:
256,192,120116,1,8,0:0:0:0:
256,192,120917,1,8,0:0:0:0:
256,192,121123,1,0,0:0:0:0:
256,192,121330,1,0,0:0:0:0:
256,192,121537,1,0,0:0:0:0:
256,192,122439,1,8,0:0:0:0:
256,192,122684,1,0,0:0:0:0:
256,192,122930,1,0,0:0:0:0:
256,192,123176,1,8,0:0:0:0:
256,192,123545,1,0,0:0:0:0:
256,192,123996,1,8,0:0:0:0:
256,192,124570,1,4,0:0:0:0:
