osu file format v14

[General]
AudioFilename: -+.mp3
AudioLeadIn: 0
PreviewTime:86931
Countdown: 0
SampleSet: Soft
StackLeniency: 0.7
Mode: 0
LetterboxInBreaks: 0
WidescreenStoryboard: 1
EpilepsyWarning: 1

[Editor]
Bookmarks: 20442,26606,61306,82634
DistanceSpacing: 0.2
BeatDivisor: 4
GridSize: 32
TimelineZoom: 2.9

[Metadata]
Title:-+
TitleUnicode:-+
Artist:daisan
ArtistUnicode:daisan
Creator:Starfy
Version:Regou's Extra
Source:BOF2013
Tags:minus plus konzertsaal - THE BMS OF FIGHTERS 2013 Dirt Art Color Teller xellox piano StarForYou Kyle Y IamKwaN happy623 -N_a_n_a_k_o- Nanako Kencho Chaoslitz [ Drop ] choikapo Regou Rizia Kawaiwkyik Nakano Itsuki StarrStyx Prophecy aabc271 Nardoxyribonucleic Skylish ll-oscar autofanboy alienflybot hokin1995 pwhk hong kong hk muse dash electronic instrumental
BeatmapID:1343438
BeatmapSetID:389617

[Difficulty]
HPDrainRate:6
CircleSize:4
OverallDifficulty:8.6
ApproachRate:9.3
SliderMultiplier:1.9
SliderTickRate:1

[Events]
//Background and Video events
0,0,"BG.png",0,0
//Break Periods
//Storyboard Layer 0 (Background)
//Storyboard Layer 1 (Fail)
//Storyboard Layer 2 (Pass)
//Storyboard Layer 3 (Foreground)
//Storyboard Layer 4 (Overlay)
//Storyboard Sound Samples

[TimingPoints]
2607,324.324324324324,4,2,1,20,1,0
2607,-1000,4,2,1,20,0,0
12985,-200,4,2,2,30,0,0
13147,-200,4,2,1,30,0,0
18174,-333.333333333333,4,2,1,20,0,0
22715,-133.333333333333,4,2,1,20,0,0
23363,-55.5555555555556,4,1,0,80,0,1
23688,-66.6666666666667,4,1,1,80,0,1
24985,-55.5555555555556,4,1,1,80,0,1
25309,-66.6666666666667,4,1,1,80,0,1
26120,-66.6666666666667,4,1,1,80,0,1
26931,-66.6666666666667,4,1,1,80,0,1
28228,-66.6666666666667,4,1,1,80,0,1
29363,-66.6666666666667,4,1,1,80,0,1
29525,-55.5555555555556,4,1,1,70,0,1
29850,-66.6666666666667,4,1,1,70,0,1
30661,-66.6666666666667,4,1,1,70,0,1
30823,-55.5555555555556,4,1,1,70,0,1
31796,-83.3333333333333,4,1,1,70,0,1
32120,-55.5555555555556,4,1,1,70,0,1
32769,-50,4,1,1,70,0,1
33093,-200,4,2,0,70,0,1
33417,-55.5555555555556,4,2,1,70,0,1
33742,-50,4,1,0,60,0,0
34066,-83.3333333333333,4,1,1,60,0,0
38444,-76.9230769230769,4,1,1,60,0,0
38931,-66.6666666666667,4,1,1,60,0,0
39417,-83.3333333333333,4,1,1,60,0,0
41525,-55.5555555555556,4,1,1,70,0,0
41850,-66.6666666666667,4,1,1,65,0,0
42823,-76.9230769230769,4,1,1,80,0,0
44120,-1000,4,2,2,90,0,0
45093,-1000,4,2,1,40,0,0
54498,-333.333333333333,4,2,2,40,0,0
54579,-333.333333333333,4,2,1,40,0,0
59688,-200,4,2,1,30,0,0
62282,-125,4,1,1,50,0,0
62606,-125,4,1,1,60,0,0
63579,-100,4,1,1,70,0,0
64228,-50,4,1,1,70,0,0
64877,-50,4,1,1,70,0,0
69417,-100,4,1,1,70,0,0
70066,-50,4,1,1,70,0,0
74606,-100,4,1,1,70,0,0
75255,-133.333333333333,4,1,1,50,0,0
77850,-333.333333333333,4,1,1,40,0,0
78498,-500,4,1,1,40,0,0
79147,-1000,4,1,1,40,0,0
79796,-50,4,1,1,50,0,0
80444,-66.6666666666667,4,1,1,60,0,0
82390,-40,4,1,1,60,0,0
86931,-333.333333333333,4,2,2,40,0,1
87012,-133.333333333333,4,1,1,40,0,0
87336,-133.333333333333,4,1,1,20,0,0
87417,-133.333333333333,4,1,1,50,0,0
87823,-133.333333333333,4,1,1,20,0,0
87904,-200,4,1,1,60,0,0
88147,-133.333333333333,4,1,1,20,0,0
88228,-66.6666666666667,4,1,1,70,0,1
88796,-83.3333333333333,4,1,1,70,0,1
89201,-66.6666666666667,4,1,1,70,0,1
89525,-66.6666666666667,4,1,1,70,0,1
90498,-66.6666666666667,4,1,1,70,0,1
90823,-200,4,1,1,70,0,1
90985,-66.6666666666667,4,1,1,70,0,1
92444,-55.5555555555556,4,1,1,70,0,1
92931,-55.5555555555556,4,1,1,70,0,1
93093,-40,4,1,1,70,0,1
93417,-66.6666666666667,4,1,1,70,0,1
93985,-83.3333333333333,4,1,1,70,0,1
94390,-66.6666666666667,4,1,1,70,0,1
96985,-50,4,1,1,70,0,1
97471,-50,4,1,1,70,0,1
98444,-333.333333333333,4,2,2,40,0,1
98931,-33.3333333333333,4,1,1,70,0,1
99417,-55.5555555555556,4,1,1,80,0,1
100715,-40,4,1,1,60,0,1
102174,-66.6666666666667,4,1,1,80,0,1
102579,-33.3333333333333,4,1,1,80,0,1
103634,-333.333333333333,4,2,2,70,0,1
104120,-83.3333333333333,4,1,1,80,0,1
104931,-66.6666666666667,4,1,1,80,0,1
106228,-55.5555555555556,4,1,1,80,0,1
107525,-47.6190476190476,4,1,1,80,0,1
108985,-41.6666666666667,4,1,1,80,0,1
110120,-37.037037037037,4,1,1,80,0,1
110931,-33.3333333333333,4,1,1,80,0,1
112715,-555.555555555556,4,2,1,40,0,0
114012,-100,4,1,1,5,0,1
114174,-1000,4,2,1,40,0,0
118066,370.37037037037,4,2,1,35,1,0
118066,-1000,4,2,1,35,0,0
119547,379.746835443038,4,2,1,30,1,0
119547,-400,4,2,1,30,0,0
120917,413.793103448276,4,2,1,25,1,0
120917,-400,4,2,1,25,0,0
122439,491.803278688525,4,2,1,20,1,0
122439,-400,4,2,1,20,0,0
124775,-400,4,2,1,5,0,0

[Colours]
Combo1 : 41,214,166
Combo2 : 128,0,255
Combo3 : 128,255,255
Combo4 : 3,90,252

[HitObjects]
23,352,2607,5,0,0:0:0:0:
61,361,3255,1,0,0:0:0:0:
98,358,3904,1,0,0:0:0:0:
130,340,4552,1,0,0:0:0:0:
141,302,5201,1,0,0:0:0:0:
255,343,6498,1,0,0:0:0:0:
489,352,7796,5,0,0:0:0:0:
451,361,8444,1,0,0:0:0:0:
414,358,9093,1,0,0:0:0:0:
382,340,9742,1,0,0:0:0:0:
371,302,10390,1,0,0:0:0:0:
255,343,11687,1,0,0:0:0:0:
257,192,12336,6,0,L|257:190,16,2.375,0|0|0|0|0|0|0|0|0|0|0|0|0|0|0|0|4,0:0|0:0|0:0|0:0|0:0|0:0|0:0|0:0|0:0|0:0|0:0|0:0|0:0|0:0|0:0|0:0|0:0,0:0:0:0:
167,141,13634,5,0,0:0:0:0:
228,93,14282,1,0,0:0:0:0:
306,103,14931,1,0,0:0:0:0:
354,164,15579,1,0,0:0:0:0:
344,242,16228,1,0,0:0:0:0:
283,290,16876,1,0,0:0:0:0:
205,280,17525,1,0,0:0:0:0:
157,219,18174,6,0,P|112:240|104:244,1,56.9999982604981
354,164,18823,2,0,P|399:143|408:140,1,56.9999982604981
84,170,19471,6,0,P|59:166|28:153,1,56.9999982604981
428,214,20120,2,0,P|453:218|484:231,1,56.9999982604981
359,364,20769,5,0,0:0:0:0:
341,353,20931,1,0,0:0:0:0:
336,335,21093,1,0,0:0:0:0:
343,317,21255,1,0,0:0:0:0:
362,310,21417,1,0,0:0:0:0:
380,316,21579,1,0,0:0:0:0:
388,336,21742,1,0,0:0:0:0:
378,356,21904,1,0,0:0:0:0:
359,364,22066,6,0,L|347:364,12,7.12499978256226
47,355,22715,5,0,0:0:0:0:
65,363,22796,1,0,0:0:0:0:
84,365,22877,1,0,0:0:0:0:
102,363,22958,1,0,0:0:0:0:
123,358,23039,6,0,L|141:382,1,17.812500679493
141,345,23120,6,0,L|167:355,1,17.812500679493
153,326,23201,6,0,L|182:324,1,17.812500679493
157,309,23282,6,0,L|183:291,1,17.812500679493
148,290,23363,6,0,P|39:242|78:129,1,256.499992172241,4|0,0:0|2:0,0:1:0:0:
93,58,23688,1,10,0:0:0:0:
276,58,23850,5,0,0:0:0:0:
239,50,23931,1,0,0:0:0:0:
206,31,24012,2,0,P|212:71|217:116,1,71.2500027179719,2|0,2:0|0:0,0:0:0:0:
269,309,24174,2,0,P|275:269|280:224,1,71.2500027179719,8|0,0:0|0:0,0:0:0:0:
218,182,24336,5,2,0:0:0:0:
204,187,24417,1,0,0:0:0:0:
189,191,24498,1,0,0:0:0:0:
174,197,24579,1,0,0:0:0:0:
160,202,24661,1,8,0:0:0:0:
393,60,24823,6,0,P|383:93|411:120,1,71.2500027179719,8|0,0:0|0:0,0:0:0:0:
367,360,24985,2,0,B|413:399|488:382|498:326|498:326|465:296|489:210,1,256.499992172241,2|0,0:0|0:0,0:0:0:0:
492,68,25309,6,0,L|481:163,1,71.2500027179719,2|0,2:0|0:0,0:0:0:0:
297,238,25471,2,0,L|304:325,1,71.2500027179719,8|0,0:0|0:0,0:0:0:0:
367,360,25634,1,2,0:0:0:0:
137,374,25796,5,0,0:0:0:0:
173,367,25877,1,0,0:0:0:0:
211,360,25958,1,8,0:0:0:0:
5,251,26201,5,0,0:0:0:0:
5,251,26242,1,0,0:0:0:0:
5,251,26282,2,0,B|140:277|140:277|220:224,1,213.750008153916,2|0,0:0|0:0,0:0:0:0:
210,228,26566,1,0,0:0:0:0:
218,219,26606,6,0,B|83:193|83:193|3:246,1,213.750008153916,2|0,2:0|0:0,0:0:0:0:
6,149,26890,5,0,0:0:0:0:
6,149,26931,2,0,P|32:120|12:68,1,71.2500027179719,2|0,0:0|0:0,0:0:0:0:
70,18,27093,2,0,P|102:52|137:49,1,71.2500027179719
190,92,27255,5,8,0:0:0:0:
215,63,27336,1,0,0:0:0:0:
252,46,27417,1,0,0:0:0:0:
290,50,27498,1,0,0:0:0:0:
322,77,27579,2,0,P|297:92|257:55,1,71.2500027179719,2|0,0:0|0:0,0:0:0:0:
512,48,27742,5,0,0:0:0:0:
489,116,27823,1,2,0:0:0:0:
510,59,27904,5,0,0:0:0:0:
493,107,27985,1,2,0:0:0:0:
501,85,28066,5,8,0:0:0:0:
317,167,28228,5,2,0:0:0:0:
336,181,28309,1,0,0:0:0:0:
313,189,28390,1,0,0:0:0:0:
333,204,28471,1,0,0:0:0:0:
310,215,28552,6,0,L|297:296,1,71.2500027179719,12|0,0:0|0:0,0:0:0:0:
354,365,28715,2,0,L|305:303,1,71.2500027179719,8|0,0:0|0:0,0:0:0:0:
211,327,28877,2,0,L|285:306,1,71.2500027179719,2|0,0:0|0:0,0:0:0:0:
488,286,29039,5,0,0:0:0:0:
485,295,29120,1,0,0:0:0:0:
484,305,29201,2,0,P|459:322|414:301,1,71.2500027179719
434,242,29363,2,0,P|470:231|491:265,1,71.2500027179719,8|0,0:0|0:0,0:0:0:0:
226,228,29525,6,0,B|88:193|135:318|-32:263,1,256.499992172241,2|0,0:0|0:0,0:0:0:0:
49,22,29850,6,0,L|101:79,1,71.2500027179719,8|0,0:0|0:0,0:0:0:0:
22,134,30012,2,0,L|49:64,1,71.2500027179719,8|0,0:0|0:0,0:0:0:0:
136,96,30174,2,0,L|64:117,1,71.2500027179719,2|0,0:0|0:0,0:0:0:0:
223,23,30336,5,0,0:0:0:0:
220,33,30417,1,0,0:0:0:0:
217,44,30498,2,0,P|236:69|286:51,1,71.2500027179719
308,179,30661,2,0,P|334:184|369:159,1,71.2500027179719,8|0,0:0|0:0,0:0:0:0:
478,66,30823,5,2,0:0:0:0:
478,66,30985,2,0,P|461:28|382:58,1,85.4999973907472
468,289,31147,5,8,0:0:0:0:
484,229,31228,1,0,0:0:0:0:
460,283,31309,5,0,0:0:0:0:
491,237,31390,1,0,0:0:0:0:
454,276,31471,5,2,0:0:0:0:
494,246,31552,1,0,0:0:0:0:
452,268,31634,5,0,0:0:0:0:
495,255,31715,1,0,0:0:0:0:
446,260,31796,6,0,P|441:244|467:206,1,56.9999982604981
435,374,31958,2,0,L|511:388,1,56.9999982604981,8|0,0:0|0:0,0:0:0:0:
347,317,32120,6,0,B|283:307|283:307|248:330|248:330|148:318,1,170.999994781494,10|0,0:0|0:0,0:0:0:0:
177,327,32363,1,8,0:0:0:0:
170,332,32444,5,8,0:0:0:0:
116,366,32525,1,8,0:0:0:0:
55,358,32606,1,8,0:0:0:0:
12,314,32688,1,8,0:0:0:0:
62,161,32769,5,8,0:0:0:0:
123,152,32850,1,8,0:0:0:0:
175,184,32931,1,8,0:0:0:0:
196,242,33013,1,8,0:0:0:0:
79,249,33093,6,0,L|40:238,2,23.75,6|0|0,0:0|0:0|0:0,0:0:0:0:
134,71,33417,6,0,B|154:52|171:48|171:48|171:-21,1,85.4999973907472,10|0,0:0|0:0,0:0:0:0:
244,139,33579,6,0,B|266:137|287:143|287:143|323:110,1,85.4999973907472
359,376,33742,6,0,B|377:303|302:267|302:267|292:292|272:339,1,190,4|2,0:0|2:0,0:0:0:0:
281,317,33985,1,0,2:0:0:0:
281,317,34066,1,2,0:0:0:0:
190,375,34228,5,0,0:0:0:0:
110,358,34390,1,0,0:0:0:0:
185,366,34552,5,8,2:0:0:0:
106,350,34714,1,2,0:0:0:0:
27,333,34877,1,0,0:0:0:0:
69,102,35039,5,8,0:0:0:0:
69,102,35201,1,8,0:0:0:0:
82,254,35363,1,2,0:0:0:0:
0,176,35525,5,0,0:0:0:0:
11,173,35606,1,0,0:0:0:0:
22,173,35688,1,0,0:0:0:0:
33,175,35769,1,0,0:0:0:0:
45,179,35850,1,8,0:0:0:0:
128,171,36012,1,2,0:0:0:0:
188,112,36174,1,0,0:0:0:0:
364,219,36336,5,8,0:0:0:0:
323,59,36498,1,0,0:0:0:0:
208,189,36661,1,2,0:0:0:0:
292,144,36823,5,0,0:0:0:0:
296,153,36904,1,0,0:0:0:0:
299,162,36985,1,0,0:0:0:0:
373,138,37147,1,8,0:0:0:0:
438,185,37309,1,2,0:0:0:0:
512,163,37471,1,0,0:0:0:0:
448,313,37634,6,0,B|390:331|390:331|356:371|356:371|306:353|306:353|224:366,1,227.999993041992,8|2,0:0|0:0,0:0:0:0:
113,228,38120,5,0,0:0:0:0:
165,263,38201,1,2,0:0:0:0:
104,278,38282,1,0,0:0:0:0:
152,318,38363,1,0,0:0:0:0:
93,330,38444,1,8,0:0:0:0:
27,181,38606,5,2,0:0:0:0:
3,164,38688,1,0,0:0:0:0:
26,147,38769,1,0,0:0:0:0:
1,130,38850,1,0,0:0:0:0:
28,110,38931,6,2,P|153:155|211:7,1,285.000010871888,12|2,0:0|0:0,0:1:0:0:
216,35,39336,1,0,0:0:0:0:
208,28,39417,2,0,P|188:21|168:56,1,56.9999982604981
328,152,39579,5,0,0:0:0:0:
333,140,39661,1,0,0:0:0:0:
331,130,39742,2,0,P|321:110|289:118,1,56.9999982604981,8|0,0:0|0:0,0:0:0:0:
345,22,39904,6,0,P|373:28|405:2,1,56.9999982604981,2|0,0:0|0:0,0:0:0:0:
238,193,40066,2,0,P|210:201|196:240,1,56.9999982604981
471,235,40228,5,8,0:0:0:0:
444,90,40390,1,8,0:0:0:0:
436,94,40471,1,0,0:0:0:0:
427,100,40552,2,0,L|431:172,1,56.9999982604981,2|0,0:0|0:0,0:0:0:0:
281,299,40715,2,0,L|277:371,1,56.9999982604981
375,333,40877,5,2,2:0:0:0:
380,339,40958,1,0,0:0:0:0:
384,346,41039,2,0,P|413:346|433:307,1,56.9999982604981,8|0,0:0|0:0,0:0:0:0:
374,234,41201,6,0,L|302:221,1,56.9999982604981,2|0,0:0|0:0,0:0:0:0:
192,330,41363,1,0,0:0:0:0:
136,311,41444,1,0,0:0:0:0:
83,340,41525,6,2,P|2:306|75:175,1,256.499992172241,12|0,0:0|0:0,0:0:0:0:
41,96,41850,6,0,L|69:1,1,71.2500027179719,2|0,0:0|0:0,0:0:0:0:
309,153,42012,2,0,L|320:244,1,71.2500027179719,8|0,0:0|0:0,0:0:0:0:
133,141,42174,6,0,L|170:75,1,71.2500027179719
383,114,42336,2,0,L|442:179,1,71.2500027179719,8|0,0:0|0:0,0:0:0:0:
163,233,42498,6,0,L|235:197,1,71.2500027179719,2|0,0:0|0:0,0:0:0:0:
378,29,42661,2,0,L|451:2,1,71.2500027179719,8|0,0:0|0:0,0:0:0:0:
505,311,42823,5,6,0:0:0:0:
456,275,42904,1,0,0:0:0:0:
399,284,42985,1,0,0:0:0:0:
187,355,43147,5,8,0:0:0:0:
246,364,43228,1,8,0:0:0:0:
297,342,43309,1,8,0:0:0:0:
319,285,43390,1,8,0:0:0:0:
306,225,43471,1,12,0:0:0:0:
112,292,43634,5,8,0:0:0:0:
46,283,43715,1,8,0:0:0:0:
89,232,43796,1,10,0:0:0:0:
23,225,43877,1,8,0:0:0:0:
65,174,43958,1,8,0:0:0:0:
0,169,44039,1,8,0:0:0:0:
36,115,44120,1,4,0:0:0:0:
281,37,45093,5,0,0:0:0:0:
281,37,45255,1,0,0:0:0:0:
281,37,45417,2,0,L|302:34,3,19
377,291,47688,5,0,0:0:0:0:
377,291,47850,1,0,0:0:0:0:
377,291,48012,2,0,L|369:310,3,19
109,247,50282,5,0,0:0:0:0:
109,247,50444,1,0,0:0:0:0:
109,247,50606,2,0,L|96:231,3,19
256,47,52715,5,0,0:0:0:0:
256,47,52877,1,0,0:0:0:0:
256,47,53039,1,0,0:0:0:0:
256,47,53201,2,0,L|256:67,3,19
469,86,54498,6,0,B|449:81|419:48|419:48|443:88|446:102,1,113.999996520996,4|0,0:0|0:0,0:0:0:0:
340,251,55471,1,0,0:0:0:0:
340,251,55634,1,0,0:0:0:0:
340,251,55796,2,0,P|355:235|391:234,1,56.9999982604981,2|0,0:0|0:0,0:0:0:0:
423,165,56444,2,0,P|443:169|470:193,1,56.9999982604981
394,328,57093,6,0,B|324:323|348:352|279:343,1,113.999996520996
113,344,58066,1,0,0:0:0:0:
113,344,58228,1,0,0:0:0:0:
113,344,58390,2,0,P|145:340|168:319,1,56.9999982604981
233,285,59039,2,0,P|248:259|241:224,1,56.9999982604981
128,27,59688,6,0,B|116:89|116:89|149:145|149:145|134:214,1,190
62,160,60661,1,0,0:0:0:0:
53,163,60823,1,0,0:0:0:0:
44,166,60985,6,0,L|36:109,1,47.5
2,253,61309,2,0,L|51:245,1,47.5
221,51,61634,5,0,0:0:0:0:
233,129,61796,1,0,0:0:0:0:
295,80,61958,2,0,P|326:76|345:91,1,47.5
303,361,62282,6,0,P|235:375|160:321,2,152
359,311,63012,1,0,0:0:0:0:
371,324,63093,2,0,L|410:318,1,38
475,364,63255,5,0,0:0:0:0:
256,193,63417,1,0,0:0:0:0:
37,364,63579,6,0,P|34:337|33:297,1,47.5
167,333,63742,2,0,P|168:305|172:267,1,47.5
23,245,63904,6,0,P|20:221|18:197,1,47.5
166,211,64067,2,0,P|166:187|168:163,1,47.5
104,325,64228,6,0,P|104:297|88:264,1,47.5
136,309,64309,6,0,P|117:289|82:276,1,47.5
145,274,64390,6,0,P|117:273|84:289,1,47.5
128,242,64471,6,0,P|108:260|95:295,1,47.5
94,233,64553,6,0,P|93:260|109:293,1,47.5
63,250,64634,6,0,P|81:269|116:282,1,47.5
54,285,64715,6,0,P|81:285|114:269,1,47.5
71,316,64796,6,0,P|90:297|103:262,1,47.5
169,366,64877,6,2,B|243:297|354:314|430:389|430:389|334:298|355:176,1,475,12|0,1:0|0:0,1:0:0:0:
444,63,65363,2,0,B|481:48|481:48|447:139,1,95,10|0,0:0|0:0,0:0:0:0:
182,261,65688,6,2,L|118:280,11,47.5,2|2|2|2|2|2|2|2|2|2|2|2,2:0|2:0|2:0|2:0|2:0|2:0|2:0|2:0|2:0|2:0|2:0|2:0,2:0:0:0:
198,258,66174,6,2,B|157:183|221:139|221:139|284:97|261:14|212:-12|212:-12|157:24|151:90|206:154,1,475,12|0,0:0|0:0,0:1:0:0:
281,287,66661,2,0,P|314:245|283:178,1,95,10|0,0:0|0:0,0:0:0:0:
196,337,66985,6,0,L|204:392,11,47.5,2|2|2|2|2|2|2|2|2|2|2|2,2:0|2:0|2:0|2:0|2:0|2:0|2:0|2:0|2:0|2:0|2:0|2:0,0:0:0:0:
187,320,67471,6,2,B|105:303|35:371|35:371|83:314|106:210|36:125|-8:158|-24:220|27:260,1,475,12|0,0:0|0:0,0:1:0:0:
58,52,67958,2,0,B|28:39|28:39|48:99,1,95,10|0,0:0|0:0,0:0:0:0:
187,227,68282,6,0,L|254:220,11,47.5,2|2|2|2|2|2|2|2|2|2|2|2,2:0|2:0|2:0|2:0|2:0|2:0|2:0|2:0|2:0|2:0|2:0|2:0,0:0:0:0:
198,146,68769,5,12,0:0:0:0:
175,114,68850,1,0,0:0:0:0:
178,77,68931,1,0,0:0:0:0:
196,47,69012,1,0,0:0:0:0:
218,37,69093,1,0,0:0:0:0:
236,36,69174,1,0,0:0:0:0:
248,40,69255,1,0,0:0:0:0:
255,43,69336,1,0,0:0:0:0:
260,47,69417,2,0,L|264:129,1,47.5,12|0,0:0|0:0,0:0:0:0:
490,194,69579,5,0,0:0:0:0:
471,137,69661,1,0,0:0:0:0:
450,81,69742,1,0,0:0:0:0:
420,29,69823,1,0,0:0:0:0:
384,76,69904,1,0,0:0:0:0:
351,121,69985,1,0,0:0:0:0:
309,186,70066,6,2,B|323:347|323:347|429:387|429:387|414:274|414:274|321:235,1,475,12|0,0:0|0:0,0:0:0:0:
214,339,70552,2,0,B|181:360|181:360|216:355|236:363,1,95,10|0,0:0|0:0,0:0:0:0:
13,249,70877,6,0,L|7:300,11,47.5,2|2|2|2|2|2|2|2|2|2|2|2,2:0|2:0|2:0|2:0|2:0|2:0|2:0|2:0|2:0|2:0|2:0|2:0,0:0:0:0:
13,226,71363,6,2,B|173:254|173:254|110:64|110:64|38:150,1,475,12|0,0:0|0:0,0:1:0:0:
89,337,71850,2,0,B|146:330|128:353|202:344,1,95,10|0,0:0|0:0,0:0:0:0:
378,85,72174,6,0,L|329:93,11,47.5,2|2|2|2|2|2|2|2|2|2|2|2,2:0|2:0|2:0|2:0|2:0|2:0|2:0|2:0|2:0|2:0|2:0|2:0,0:0:0:0:
314,109,72661,6,2,B|174:5|174:5|246:308,1,475,12|0,0:0|0:0,0:1:0:0:
353,371,73147,2,0,P|334:327|380:310,1,95,10|0,0:0|0:0,0:0:0:0:
465,238,73471,6,0,L|516:237,11,47.5,2|2|2|2|2|2|2|2|2|2|2|2,2:0|2:0|2:0|2:0|2:0|2:0|2:0|2:0|2:0|2:0|2:0|2:0,0:0:0:0:
402,186,73958,5,8,0:0:0:0:
380,151,74039,1,0,0:0:0:0:
377,113,74120,1,0,0:0:0:0:
385,82,74201,1,0,0:0:0:0:
403,63,74282,1,0,0:0:0:0:
421,53,74363,1,0,0:0:0:0:
436,48,74444,1,0,0:0:0:0:
445,48,74525,1,0,0:0:0:0:
454,51,74606,2,0,L|442:126,1,47.5,12|0,0:0|0:0,0:0:0:0:
326,225,74769,5,8,0:0:0:0:
263,221,74850,1,8,0:0:0:0:
199,218,74931,1,8,0:0:0:0:
134,216,75012,1,8,0:0:0:0:
71,213,75093,1,8,0:0:0:0:
10,211,75174,1,8,0:0:0:0:
26,127,75255,6,0,P|23:87|14:43,1,71.2500027179719,12|0,0:0|0:0,0:0:0:0:
33,123,75579,2,0,P|30:83|21:39,1,71.2500027179719,8|0,0:0|0:0,0:0:0:0:
120,93,75904,2,0,P|156:110|198:124,1,71.2500027179719,8|0,0:0|0:0,0:0:0:0:
119,101,76228,2,0,P|155:118|197:132,1,71.2500027179719,8|0,0:0|0:0,0:0:0:0:
99,181,76552,6,0,P|73:250|98:325,1,142.500005435944,8|8,0:0|0:0,0:0:0:0:
90,314,77039,1,0,0:0:0:0:
17,347,77201,2,0,B|107:346|75:378|158:378,1,142.500005435944,8|8,0:0|0:0,0:0:0:0:
153,377,77688,1,0,0:0:0:0:
168,261,77850,6,0,P|197:253|219:232,1,56.9999982604981,8|2,0:0|0:0,0:0:0:0:
239,342,78498,6,0,P|249:326|255:306,1,38,8|8,0:0|0:0,0:0:0:0:
340,367,78985,5,2,0:0:0:0:
340,367,79147,2,0,P|339:356|337:348,1,19,8|10,0:0|0:0,0:0:0:0:
485,264,79634,5,0,0:0:0:0:
473,262,79715,1,0,0:0:0:0:
462,259,79796,2,0,P|363:176|338:53,1,190,10|0,0:0|0:0,0:0:0:0:
338,33,80039,2,0,P|375:150|319:256,1,190,10|0,0:0|0:0,0:0:0:0:
292,275,80282,2,0,L|179:262,1,95,10|0,0:0|0:0,0:0:0:0:
8,38,80444,5,12,0:0:0:0:
40,15,80525,1,0,0:0:0:0:
77,18,80606,1,0,0:0:0:0:
107,36,80687,1,0,0:0:0:0:
117,58,80768,1,2,0:0:0:0:
118,76,80849,1,0,0:0:0:0:
114,88,80930,1,0,0:0:0:0:
111,95,81011,1,0,0:0:0:0:
108,102,81093,5,8,0:0:0:0:
142,127,81174,1,0,0:0:0:0:
179,124,81255,1,0,0:0:0:0:
209,106,81336,1,0,0:0:0:0:
219,84,81417,1,8,0:0:0:0:
220,66,81498,1,0,0:0:0:0:
216,54,81579,1,2,0:0:0:0:
213,47,81660,1,0,0:0:0:0:
209,39,81742,6,0,L|247:341,1,285.000010871888,12|10,0:0|0:0,0:0:0:0:
258,330,82147,1,0,0:0:0:0:
272,338,82228,1,0,0:0:0:0:
288,346,82309,1,0,0:0:0:0:
300,353,82390,6,0,B|371:239|371:239|312:120,1,237.5,14|0,0:0|0:0,0:0:0:0:
28,174,82634,2,0,B|1:289|1:289|79:380,1,237.5,14|0,0:0|0:0,0:0:0:0:
414,74,82877,2,0,B|370:45|370:45|302:54,1,118.75,10|0,0:0|0:0,0:0:0:0:
127,298,83039,6,0,L|246:321,1,118.75,12|0,0:0|0:0,0:0:0:0:
391,357,83201,1,8,0:0:0:0:
456,356,83282,1,8,0:0:0:0:
506,321,83363,1,10,0:0:0:0:
511,256,83444,1,8,0:0:0:0:
481,201,83525,1,8,0:0:0:0:
424,179,83606,1,8,0:0:0:0:
364,200,83688,5,0,0:0:0:0:
306,188,83769,1,8,0:0:0:0:
265,143,83850,1,8,0:0:0:0:
261,81,83931,1,8,0:0:0:0:
288,23,84012,1,10,0:0:0:0:
348,3,84093,1,8,0:0:0:0:
410,17,84174,1,8,0:0:0:0:
446,70,84255,1,8,0:0:0:0:
434,131,84336,6,0,L|414:259,1,118.75,6|8,0:0|0:0,0:0:0:0:
331,367,84498,1,8,0:0:0:0:
300,308,84579,1,8,0:0:0:0:
246,275,84661,1,10,0:0:0:0:
185,269,84742,1,8,0:0:0:0:
124,285,84823,1,0,0:0:0:0:
72,320,84904,1,0,0:0:0:0:
52,376,84985,6,0,P|114:364|155:325,1,118.75,14|0,0:0|0:0,0:0:0:0:
202,51,85147,1,0,0:0:0:0:
130,7,85228,6,0,P|109:66|122:121,1,118.75,14|0,0:0|0:0,0:0:0:0:
331,367,85390,1,0,0:0:0:0:
405,326,85471,6,0,P|363:278|309:262,1,118.75,14|0,0:0|0:0,0:0:0:0:
74,203,85634,6,0,L|-13:194,30,59.375,14|0|0|0|0|0|0|0|0|0|0|0|0|0|0|0|0|0|0|0|0|0|0|0|0|0|0|0|0|0|0,0:0|0:0|0:0|0:0|0:0|0:0|0:0|0:0|0:0|0:0|0:0|0:0|0:0|0:0|0:0|0:0|0:0|0:0|0:0|0:0|0:0|0:0|0:0|0:0|0:0|0:0|0:0|0:0|0:0|0:0|0:0,0:0:0:0:
159,161,86931,6,0,B|187:48|187:48|119:120,1,213.749993476868,4|0,0:0|0:0,0:0:0:0:
154,251,88228,6,0,B|259:375|259:375|222:256,1,285.000010871888,12|2,0:0|0:0,0:0:0:0:
88,196,88715,1,0,0:0:0:0:
88,196,88796,2,0,B|-16:228|-16:228|59:240,1,170.999994781494,0|8,0:0|0:0,0:0:0:0:
229,183,89201,2,0,L|311:199,1,71.2500027179719,2|0,0:0|0:0,0:0:0:0:
380,212,89444,5,0,0:0:0:0:
380,212,89525,1,8,0:0:0:0:
503,88,89688,2,0,L|420:72,1,71.2500027179719,8|0,0:0|0:0,0:0:0:0:
372,128,89850,2,0,P|287:81|331:-9,1,213.750008153916,2|0,0:0|0:0,0:0:0:0:
345,0,90174,1,0,0:0:0:0:
499,235,90336,6,0,P|498:188|478:159,1,71.2500027179719,8|0,0:0|0:0,0:0:0:0:
487,338,90498,2,0,B|462:312|411:312|411:312|385:384|285:375,1,213.750008153916,2|8,0:0|0:0,0:0:0:0:
307,375,90823,1,8,0:0:0:0:
182,200,90985,6,0,L|202:361,1,142.500005435944,0|2,0:0|0:0,0:0:0:0:
29,364,91309,1,2,2:0:0:0:
82,343,91390,1,2,2:0:0:0:
109,293,91471,1,2,2:0:0:0:
95,8,91634,6,0,L|112:150,1,142.500005435944,8|2,0:0|0:0,0:0:0:0:
0,192,91958,1,2,2:0:0:0:
18,171,92039,1,2,2:0:0:0:
26,146,92120,1,2,2:0:0:0:
247,51,92282,5,8,0:0:0:0:
247,51,92363,1,8,0:0:0:0:
247,51,92444,2,0,B|186:32|186:32|209:108|294:103,1,170.999994781494,2|0,0:0|0:0,0:0:0:0:
459,137,92688,5,2,0:0:0:0:
462,146,92769,1,0,0:0:0:0:
464,154,92850,2,0,L|365:139,1,85.4999973907472,2|8,0:0|0:0,0:0:0:0:
194,222,93093,6,0,B|240:181|302:224|302:224|263:292|315:358,1,237.5,2|8,0:0|0:0,0:0:0:0:
384,359,93336,1,8,0:0:0:0:
465,374,93417,6,0,B|517:238|517:238|364:281,1,285.000010871888,12|2,0:0|0:0,0:0:0:0:
340,31,93904,1,0,0:0:0:0:
329,32,93985,2,0,B|242:45|242:45|310:112,1,170.999994781494,0|8,0:0|0:0,0:0:0:0:
151,370,94390,2,0,L|226:352,1,71.2500027179719,2|0,0:0|0:0,0:0:0:0:
300,338,94634,5,0,0:0:0:0:
300,338,94715,1,8,0:0:0:0:
5,199,94877,2,0,P|50:203|84:239,1,71.2500027179719
21,273,95039,1,2,0:0:0:0:
146,31,95201,5,0,0:0:0:0:
136,34,95282,2,0,B|103:152|176:126|146:251,1,213.750008153916,8|8,0:0|0:0,0:0:0:0:
36,112,95688,2,0,P|36:76|34:41,1,71.2500027179719,2|0,0:0|0:0,0:0:0:0:
236,223,95850,1,0,0:0:0:0:
243,191,95931,1,0,0:0:0:0:
242,156,96012,1,8,0:0:0:0:
150,368,96174,6,0,P|228:370|278:320,1,142.500005435944,8|2,0:0|0:0,0:0:0:0:
506,320,96498,1,0,0:0:0:0:
507,329,96579,2,0,P|440:341|334:234,1,213.750008153916,0|8,0:0|0:0,0:0:0:0:
337,26,96985,5,2,0:0:0:0:
500,115,97147,2,0,L|396:104,1,95
48,200,97309,5,12,0:0:0:0:
17,139,97390,1,8,0:0:0:0:
23,73,97471,1,8,0:0:0:0:
72,31,97552,1,8,0:0:0:0:
135,22,97634,1,8,0:0:0:0:
194,52,97715,1,8,0:0:0:0:
225,109,97796,1,8,0:0:0:0:
207,172,97877,1,8,0:0:0:0:
164,221,97958,5,12,0:0:0:0:
157,286,98039,1,8,0:0:0:0:
187,346,98120,1,8,0:0:0:0:
247,371,98201,1,8,0:0:0:0:
312,366,98282,1,8,0:0:0:0:
354,315,98363,1,8,0:0:0:0:
359,251,98444,6,0,L|285:261,1,71.2499978256226
272,264,98931,1,12,0:0:0:0:
86,367,99255,5,0,0:0:0:0:
72,362,99336,1,0,0:0:0:0:
55,354,99417,6,0,P|35:373|3:377,1,42.7499986953736,8|0,0:0|0:0,0:0:0:0:
41,343,99498,6,0,P|14:346|-2:336,1,42.7499986953736,2|2,0:2|0:2,0:0:0:0:
33,324,99579,6,0,P|8:311|-1:293,1,42.7499986953736,2|0,0:0|0:0,0:0:0:0:
28,302,99661,6,0,P|17:287|12:262,1,42.7499986953736,2|0,0:2|0:2,0:0:0:0:
36,273,99742,1,0,0:0:0:0:
57,255,99823,1,0,0:0:0:0:
82,246,99904,6,0,P|108:216|110:168,1,85.4999973907472,8|0,0:0|0:0,0:0:0:0:
49,32,100066,2,0,L|41:153,1,85.4999973907472
430,246,100228,6,0,P|404:216|402:168,1,85.4999973907472,2|0,0:0|0:0,0:0:0:0:
463,32,100390,2,0,L|471:153,1,85.4999973907472,10|8,0:0|0:0,0:0:0:0:
254,373,100552,5,0,0:0:0:0:
254,373,100634,1,0,0:0:0:0:
254,373,100715,1,8,0:0:0:0:
249,11,100877,1,2,0:0:0:0:
254,373,101039,2,0,L|255:238,1,118.75,8|0,0:0|0:0,0:0:0:0:
361,363,101201,5,12,0:0:0:0:
437,350,101282,1,8,0:0:0:0:
492,294,101363,1,8,0:0:0:0:
504,216,101444,1,8,0:0:0:0:
485,143,101525,1,10,0:0:0:0:
333,236,101688,5,12,0:0:0:0:
369,168,101769,1,8,0:0:0:0:
360,89,101850,1,8,0:0:0:0:
308,31,101931,1,8,0:0:0:0:
239,0,102012,1,10,0:0:0:0:
227,311,102174,5,12,0:0:0:0:
207,235,102255,1,8,0:0:0:0:
156,180,102336,1,8,0:0:0:0:
79,167,102417,1,8,0:0:0:0:
6,186,102498,1,10,0:0:0:0:
2,266,102579,6,0,L|85:265,22,71.2500027179719,2|2|2|2|2|2|2|2|2|2|2|2|2|2|2|2|2|2|2|2|2|2|2,2:0|2:0|2:0|2:0|2:0|2:0|2:0|2:0|2:0|2:0|2:0|2:0|2:0|2:0|2:0|2:0|2:0|2:0|2:0|2:0|2:0|2:0|2:0,0:0:0:0:
145,308,103634,6,0,P|139:350|143:384,1,71.2499978256226,4|0,0:0|0:0,0:0:0:0:
299,359,104120,2,0,P|289:291|139:232,1,227.999993041992,2|8,0:0|0:0,0:0:0:0:
157,226,104525,1,0,0:0:0:0:
157,226,104606,2,0,P|156:177|153:155,1,56.9999982604981
142,11,104769,1,2,0:0:0:0:
61,157,104931,6,0,B|-27:100|-27:100|239:85,1,356.25001358986,12|0,0:0|0:0,0:0:0:0:
287,8,105417,2,0,B|385:3|385:3|286:189,1,285.000010871888,2|0,0:0|0:0,0:0:0:0:
297,167,105823,1,0,0:0:0:0:
297,167,105904,2,0,L|220:173,1,71.2500027179719,8|0,0:0|0:0,0:0:0:0:
473,154,106066,1,2,0:0:0:0:
95,294,106228,6,8,B|123:262|123:262|207:273|207:273|250:345|250:345|338:359|338:359|373:307,1,341.999989562989
457,373,106634,1,0,0:0:0:0:
460,364,106715,1,10,0:0:0:0:
463,355,106796,1,0,0:0:0:0:
467,348,106877,1,0,0:0:0:0:
469,340,106958,1,0,0:0:0:0:
494,265,107039,5,8,0:0:0:0:
465,253,107120,1,0,0:0:0:0:
432,242,107201,1,8,0:0:0:0:
397,232,107282,1,0,0:0:0:0:
361,223,107363,2,0,B|312:244|312:244|370:235,1,85.4999973907472,2|0,0:0|0:0,0:0:0:0:
197,93,107525,6,0,B|137:34|227:-51|295:-29|325:83|315:157|258:199|148:180,1,398.999987823487,12|8,0:0|0:0,0:0:0:0:
136,163,107931,1,0,0:0:0:0:
105,120,108012,2,0,P|88:72|96:12,1,99.7499969558717,10|0,0:0|0:0,0:0:0:0:
0,260,108174,5,8,0:0:0:0:
47,244,108255,1,8,0:0:0:0:
97,253,108336,1,8,0:0:0:0:
134,285,108417,1,0,0:0:0:0:
152,331,108498,1,8,0:0:0:0:
189,364,108579,1,8,0:0:0:0:
237,369,108661,2,0,L|247:254,1,99.7499969558717,2|8,0:0|0:0,0:0:0:0:
504,294,108823,6,0,B|451:195|333:210|333:210|328:345|462:385,1,398.999987823487,12|8,0:0|0:0,0:0:0:0:
498,24,109228,5,8,0:0:0:0:
491,80,109309,2,0,L|482:156,6,56.9999982604981,10|2|2|2|2|2|2,0:0|2:0|2:0|2:0|2:0|2:0|2:0,0:0:0:0:
322,11,109634,6,0,P|298:63|296:139,1,113.999996520996,8|8,0:0|0:0,0:0:0:0:
250,262,109796,2,0,P|218:215|208:160,1,113.999996520996,8|8,0:0|0:0,0:0:0:0:
143,305,109958,2,0,P|185:345|248:375,1,113.999996520996,2|0,0:0|0:0,0:0:0:0:
126,222,110120,6,0,B|57:178|23:29|23:29|50:179|-1:246,1,448.875001712322,12|0,0:0|0:0,0:0:0:0:
0,326,110444,6,2,L|65:341,1,64.1250002446175,2|2,2:0|2:0,2:0:0:0:
48,319,110525,6,2,L|113:334,1,64.1250002446175,2|2,2:0|2:0,2:0:0:0:
95,310,110606,6,2,L|160:325,1,64.1250002446175,2|2,2:1|2:0,2:0:0:0:
143,305,110687,6,2,L|208:320,1,64.1250002446175,2|2,2:0|2:0,2:0:0:0:
189,297,110769,6,2,L|254:312,1,64.1250002446175,0|2,2:0|2:0,2:0:0:0:
237,292,110850,6,2,L|302:307,1,64.1250002446175,8|2,2:1|2:0,2:0:0:0:
363,362,110931,6,0,P|429:369|498:306,1,142.500005435944,12|8,0:0|0:0,0:0:0:0:
457,82,111093,2,0,P|465:151|426:209,1,142.500005435944,12|8,0:0|0:0,0:0:0:0:
319,91,111255,2,0,P|292:30|203:2,1,142.500005435944,12|8,0:0|0:0,0:0:0:0:
0,326,111417,6,0,P|167:333|134:83,1,427.500016307831,12|0,0:0|0:0,0:0:0:0:
29,44,111742,2,8,L|12:224,1,142.500005435944,8|0,0:0|0:0,0:0:0:0:
187,116,111904,2,8,L|170:296,1,142.500005435944,8|0,0:0|0:0,0:0:0:0:
351,179,112066,2,8,L|334:359,1,142.500005435944,8|0,0:0|0:0,0:0:0:0:
512,230,112228,6,0,L|498:381,1,142.500005435944,10|0,0:0|0:0,0:0:0:0:
350,178,112471,2,0,L|337:320,1,142.500005435944,8|0,0:0|0:0,0:0:0:0:
187,116,112715,6,0,L|174:261,1,145.350003548584,12|0,0:1|0:0,0:0:0:0:
150,341,114174,6,0,P|134:348|121:351,1,28.5,6|0,0:2|0:0,0:0:0:0:
179,25,115471,6,0,P|181:8|185:-4,1,28.5,2|0,0:2|0:0,0:0:0:0:
438,209,116769,6,0,P|452:219|461:229,1,28.5,2|0,0:2|0:0,0:0:0:0:
276,192,118066,6,0,L|236:192,1,38,2|0,0:0|0:0,0:0:0:0:
272,70,119547,5,0,0:0:0:0:
353,266,120917,5,0,0:0:0:0:
142,239,122439,5,0,0:0:0:0:
256,192,122561,12,0,124590,0:0:0:0:
