osu file format v14

[General]
AudioFilename: -+.mp3
AudioLeadIn: 0
PreviewTime:86931
Countdown: 0
SampleSet: Normal
StackLeniency: 0.7
Mode: 1
LetterboxInBreaks: 0
WidescreenStoryboard: 1
EpilepsyWarning: 1

[Editor]
Bookmarks: 38931,64877,75255
DistanceSpacing: 1.1
BeatDivisor: 4
GridSize: 32
TimelineZoom: 0.8

[Metadata]
Title:-+
TitleUnicode:-+
Artist:daisan
ArtistUnicode:daisan
Creator:Starfy
Version:Prophecy's Futsuu
Source:BOF2013
Tags:minus plus konzertsaal - THE BMS OF FIGHTERS 2013 Dirt Art Color Teller xellox piano StarForYou Kyle Y IamKwaN happy623 -N_a_n_a_k_o- Nanako Kencho Chaoslitz [ Drop ] choikapo Regou Rizia Kawaiwkyik Nakano Itsuki StarrStyx Prophecy aabc271 Nardoxyribonucleic Skylish ll-oscar autofanboy alienflybot hokin1995 pwhk hong kong hk muse dash electronic instrumental
BeatmapID:902501
BeatmapSetID:389617

[Difficulty]
HPDrainRate:6
CircleSize:2
OverallDifficulty:3
ApproachRate:7
SliderMultiplier:1.4
SliderTickRate:1

[Events]
//Background and Video events
0,0,"BG.png",0,-30
//Break Periods
//Storyboard Layer 0 (Background)
//Storyboard Layer 1 (Fail)
//Storyboard Layer 2 (Pass)
//Storyboard Layer 3 (Foreground)
//Storyboard Layer 4 (Overlay)
//Storyboard Sound Samples

[TimingPoints]
2607,324.324324324324,4,1,0,80,1,0
2607,-142.857142857143,4,1,0,80,0,0
12985,-117.647058823529,4,1,0,90,0,0
22715,-100,4,1,0,100,0,0
23363,-100,4,1,0,100,0,1
33742,-100,4,1,0,95,0,0
64877,-100,4,1,0,96,0,0
80769,-100,4,1,0,100,0,0
88228,-100,4,1,0,100,0,1
98444,-100,4,1,0,100,0,0
98931,-100,4,1,0,100,0,1
114174,-100,4,1,0,70,0,0
115471,-104.323308270677,4,1,0,60,0,0
116769,-109.037328094303,4,1,0,50,0,0
118066,370.37037037037,4,1,0,40,1,0
118806,-101.25,4,1,0,35,0,0
119547,379.746835443038,4,1,0,30,1,0
120917,413.793103448276,4,1,0,20,1,0
122439,491.803278688525,4,1,0,10,1,0
122561,-100,4,1,0,5,0,0

[Colours]
Combo1 : 41,214,166
Combo2 : 128,0,255
Combo3 : 128,255,255
Combo4 : 3,90,252

[HitObjects]
256,192,2607,5,8,0:0:0:0:
256,192,3255,1,0,0:0:0:0:
256,192,3904,1,0,0:0:0:0:
256,192,4552,1,8,0:0:0:0:
256,192,5201,1,0,0:0:0:0:
256,192,6498,1,0,0:0:0:0:
256,192,7796,1,0,0:0:0:0:
256,192,8444,1,8,0:0:0:0:
256,192,9093,1,0,0:0:0:0:
256,192,9742,1,8,0:0:0:0:
256,192,10390,1,0,0:0:0:0:
256,192,11688,1,8,0:0:0:0:
256,192,12985,1,12,0:0:0:0:
256,192,13634,1,0,0:0:0:0:
256,192,14282,1,0,0:0:0:0:
256,192,14931,1,8,0:0:0:0:
256,192,15579,1,0,0:0:0:0:
256,192,16877,1,0,0:0:0:0:
256,192,18174,1,0,0:0:0:0:
256,192,18823,1,8,0:0:0:0:
256,192,19471,1,0,0:0:0:0:
256,192,20120,1,8,0:0:0:0:
256,192,20769,1,0,0:0:0:0:
256,192,22066,1,0,0:0:0:0:
256,192,23363,1,12,0:0:0:0:
256,192,23688,1,8,0:0:0:0:
256,192,24012,1,0,0:0:0:0:
256,192,24174,1,0,0:0:0:0:
256,192,24336,1,0,0:0:0:0:
256,192,24661,1,0,0:0:0:0:
256,192,24985,1,8,0:0:0:0:
256,192,25309,1,0,0:0:0:0:
256,192,25471,1,8,0:0:0:0:
256,192,25634,1,0,0:0:0:0:
256,192,25958,1,0,0:0:0:0:
256,192,26282,1,0,0:0:0:0:
256,192,26606,1,8,0:0:0:0:
256,192,26931,1,0,0:0:0:0:
256,192,27255,1,8,0:0:0:0:
256,192,27904,1,0,0:0:0:0:
256,192,28228,1,8,0:0:0:0:
256,192,28552,1,0,0:0:0:0:
256,192,28715,1,0,0:0:0:0:
256,192,28877,1,0,0:0:0:0:
256,192,29201,1,0,0:0:0:0:
256,192,29525,1,8,0:0:0:0:
256,192,29850,1,0,0:0:0:0:
256,192,30012,1,8,0:0:0:0:
256,192,30174,1,8,0:0:0:0:
256,192,30498,1,0,0:0:0:0:
256,192,30823,1,8,0:0:0:0:
256,192,31147,1,8,0:0:0:0:
256,192,31309,1,8,0:0:0:0:
256,192,31471,1,0,0:0:0:0:
256,192,31796,1,0,0:0:0:0:
256,192,32120,1,8,0:0:0:0:
256,192,32444,1,8,0:0:0:0:
256,192,32769,1,0,0:0:0:0:
256,192,33255,1,0,0:0:0:0:
256,192,33417,1,8,0:0:0:0:
256,192,33742,1,4,0:0:0:0:
256,192,33904,1,0,0:0:0:0:
256,192,34066,1,8,0:0:0:0:
256,192,34715,1,0,0:0:0:0:
256,192,35039,1,0,0:0:0:0:
256,192,35201,1,0,0:0:0:0:
256,192,35363,1,8,0:0:0:0:
256,192,36012,1,8,0:0:0:0:
256,192,36336,1,0,0:0:0:0:
256,192,36498,1,0,0:0:0:0:
256,192,36661,1,8,0:0:0:0:
256,192,37309,1,0,0:0:0:0:
256,192,37634,1,0,0:0:0:0:
256,192,37796,1,0,0:0:0:0:
256,192,37958,1,8,0:0:0:0:
256,192,38282,1,0,0:0:0:0:
256,192,38606,1,8,0:0:0:0:
256,192,38931,1,4,0:0:0:0:
256,192,39579,1,0,0:0:0:0:
256,192,40228,1,0,0:0:0:0:
256,192,40390,1,0,0:0:0:0:
256,192,40552,1,8,0:0:0:0:
256,192,41201,1,8,0:0:0:0:
256,192,41525,1,4,0:0:0:0:
256,192,41688,1,0,0:0:0:0:
256,192,41850,1,8,0:0:0:0:
256,192,42498,1,0,0:0:0:0:
256,192,42823,1,0,0:0:0:0:
256,192,42985,1,0,0:0:0:0:
256,192,43147,1,8,0:0:0:0:
256,192,43796,1,8,0:0:0:0:
256,192,44120,1,4,0:0:0:0:
256,192,45093,1,0,0:0:0:0:
256,192,45417,1,8,0:0:0:0:
256,192,45742,1,8,0:0:0:0:
256,192,46066,1,8,0:0:0:0:
256,192,46390,1,0,0:0:0:0:
256,192,47688,1,0,0:0:0:0:
256,192,48012,1,8,0:0:0:0:
256,192,48336,1,8,0:0:0:0:
256,192,48661,1,8,0:0:0:0:
256,192,48985,1,0,0:0:0:0:
256,192,50282,1,0,0:0:0:0:
256,192,50606,1,8,0:0:0:0:
256,192,50931,1,8,0:0:0:0:
256,192,51255,1,8,0:0:0:0:
256,192,51579,1,0,0:0:0:0:
256,192,52715,1,0,0:0:0:0:
256,192,52877,1,0,0:0:0:0:
256,192,53039,1,8,0:0:0:0:
256,192,53201,1,8,0:0:0:0:
256,192,53525,1,8,0:0:0:0:
256,192,53850,1,0,0:0:0:0:
256,192,54174,1,8,0:0:0:0:
256,192,55471,1,0,0:0:0:0:
256,192,55796,1,8,0:0:0:0:
256,192,56120,1,8,0:0:0:0:
256,192,56444,1,0,0:0:0:0:
256,192,56769,1,8,0:0:0:0:
256,192,58066,1,0,0:0:0:0:
256,192,58390,1,8,0:0:0:0:
256,192,58715,1,8,0:0:0:0:
256,192,59039,1,0,0:0:0:0:
256,192,59363,1,8,0:0:0:0:
256,192,60661,1,0,0:0:0:0:
256,192,60985,1,8,0:0:0:0:
256,192,61309,1,8,0:0:0:0:
256,192,61634,1,8,0:0:0:0:
256,192,61958,1,8,0:0:0:0:
256,192,62606,1,8,0:0:0:0:
256,192,62931,1,8,0:0:0:0:
256,192,63093,1,8,0:0:0:0:
256,192,63255,1,8,0:0:0:0:
256,192,63579,1,0,0:0:0:0:
256,192,63742,1,0,0:0:0:0:
256,192,63904,1,0,0:0:0:0:
256,192,64228,1,8,0:0:0:0:
256,192,64390,1,8,0:0:0:0:
256,192,64552,1,8,0:0:0:0:
256,192,64877,1,4,0:0:0:0:
256,192,65363,1,4,0:0:0:0:
256,192,66174,1,4,0:0:0:0:
256,192,66661,1,4,0:0:0:0:
256,192,67471,1,4,0:0:0:0:
256,192,67958,1,4,0:0:0:0:
256,192,68769,1,4,0:0:0:0:
256,192,69417,1,12,0:0:0:0:
256,192,70066,1,12,0:0:0:0:
256,192,70552,1,12,0:0:0:0:
256,192,71363,1,12,0:0:0:0:
256,192,71850,1,12,0:0:0:0:
256,192,72661,1,12,0:0:0:0:
256,192,73147,1,12,0:0:0:0:
256,192,73958,1,8,0:0:0:0:
256,192,74606,1,8,0:0:0:0:
256,192,75255,1,12,0:0:0:0:
256,192,75579,1,0,0:0:0:0:
256,192,75904,1,0,0:0:0:0:
256,192,76228,1,8,0:0:0:0:
256,192,76552,1,0,0:0:0:0:
256,192,77201,1,8,0:0:0:0:
256,192,77850,1,0,0:0:0:0:
256,192,78174,1,8,0:0:0:0:
256,192,78498,1,0,0:0:0:0:
256,192,79147,1,8,0:0:0:0:
256,192,79471,1,0,0:0:0:0:
256,192,79796,1,8,0:0:0:0:
256,192,80444,1,12,0:0:0:0:
256,192,80769,1,8,0:0:0:0:
256,192,81093,1,8,0:0:0:0:
256,192,81742,1,4,0:0:0:0:
256,192,82066,1,0,0:0:0:0:
256,192,82390,1,8,0:0:0:0:
256,192,83039,1,12,0:0:0:0:
256,192,83688,1,8,0:0:0:0:
256,192,84012,1,8,0:0:0:0:
256,192,84336,1,0,0:0:0:0:
256,192,84985,1,8,0:0:0:0:
256,192,85309,1,0,0:0:0:0:
256,192,85634,1,8,0:0:0:0:
256,192,85796,1,8,0:0:0:0:
256,192,85958,1,8,0:0:0:0:
256,192,86282,1,0,0:0:0:0:
256,192,86444,1,0,0:0:0:0:
256,192,86606,1,0,0:0:0:0:
256,192,86931,1,4,0:0:0:0:
256,192,88228,1,12,0:0:0:0:
256,192,88552,1,0,0:0:0:0:
256,192,88877,1,0,0:0:0:0:
256,192,89039,1,0,0:0:0:0:
256,192,89201,1,8,0:0:0:0:
256,192,89525,1,8,0:0:0:0:
256,192,90174,1,8,0:0:0:0:
256,192,90823,1,0,0:0:0:0:
256,192,91147,1,0,0:0:0:0:
256,192,91309,1,0,0:0:0:0:
256,192,91634,1,0,0:0:0:0:
256,192,91796,1,8,0:0:0:0:
256,192,91958,1,0,0:0:0:0:
256,192,92444,1,8,0:0:0:0:
256,192,92769,1,0,0:0:0:0:
256,192,93093,1,0,0:0:0:0:
256,192,93417,1,8,0:0:0:0:
256,192,94066,1,0,0:0:0:0:
256,192,94715,1,0,0:0:0:0:
256,192,95039,1,8,0:0:0:0:
256,192,95363,1,8,0:0:0:0:
256,192,95525,1,8,0:0:0:0:
256,192,95688,1,0,0:0:0:0:
256,192,96012,1,8,0:0:0:0:
256,192,96336,1,8,0:0:0:0:
256,192,96498,1,0,0:0:0:0:
256,192,96823,1,0,0:0:0:0:
256,192,96985,1,8,0:0:0:0:
256,192,97309,1,8,0:0:0:0:
256,192,97958,1,8,0:0:0:0:
256,192,98282,1,0,0:0:0:0:
256,192,98444,1,8,0:0:0:0:
256,192,98931,1,12,0:0:0:0:
256,192,99255,1,8,0:0:0:0:
256,192,99417,1,0,0:0:0:0:
256,192,99579,1,0,0:0:0:0:
256,192,99904,1,0,0:0:0:0:
256,192,100228,1,8,0:0:0:0:
256,192,100390,1,0,0:0:0:0:
256,192,100552,1,0,0:0:0:0:
256,192,100877,1,8,0:0:0:0:
256,192,101201,1,4,0:0:0:0:
256,192,101525,1,0,0:0:0:0:
256,192,101688,1,12,0:0:0:0:
256,192,102012,1,0,0:0:0:0:
256,192,102174,1,12,0:0:0:0:
256,192,103147,1,0,0:0:0:0:
256,192,103634,1,12,0:0:0:0:
256,192,103958,1,0,0:0:0:0:
256,192,104120,1,8,0:0:0:0:
256,192,104444,1,0,0:0:0:0:
256,192,104769,1,0,0:0:0:0:
256,192,104931,1,12,0:0:0:0:
256,192,105417,1,8,0:0:0:0:
256,192,105742,1,0,0:0:0:0:
256,192,105904,1,8,0:0:0:0:
256,192,106228,1,12,0:0:0:0:
256,192,106715,1,8,0:0:0:0:
256,192,107039,1,0,0:0:0:0:
256,192,107201,1,8,0:0:0:0:
256,192,107525,1,12,0:0:0:0:
256,192,108012,1,8,0:0:0:0:
256,192,108336,1,0,0:0:0:0:
256,192,108498,1,8,0:0:0:0:
256,192,108823,1,12,0:0:0:0:
256,192,109309,1,8,0:0:0:0:
256,192,109634,1,0,0:0:0:0:
256,192,109796,1,8,0:0:0:0:
256,192,110120,1,12,0:0:0:0:
256,192,110606,1,8,0:0:0:0:
256,192,110931,1,0,0:0:0:0:
256,192,111093,1,8,0:0:0:0:
256,192,111417,1,0,0:0:0:0:
256,192,111742,1,12,0:0:0:0:
256,192,111904,1,12,0:0:0:0:
256,192,112228,1,12,0:0:0:0:
256,192,112715,1,4,0:0:0:0:
256,192,112877,8,0,114012,0:0:0:0:
256,192,114174,5,4,0:0:0:0:
256,192,115471,1,8,0:0:0:0:
256,192,116769,1,0,0:0:0:0:
256,192,118066,1,8,0:0:0:0:
256,192,118806,1,0,0:0:0:0:
256,192,119547,1,8,0:0:0:0:
256,192,120917,1,0,0:0:0:0:
256,192,122439,1,8,0:0:0:0:
256,192,122684,8,0,124652,0:0:0:0:
