osu file format v14

[General]
AudioFilename: -+.mp3
AudioLeadIn: 0
PreviewTime:86931
Countdown: 0
SampleSet: Normal
StackLeniency: 0.2
Mode: 0
LetterboxInBreaks: 0
WidescreenStoryboard: 1
EpilepsyWarning: 1

[Editor]
DistanceSpacing: 1.4
BeatDivisor: 8
GridSize: 4
TimelineZoom: 1.4

[Metadata]
Title:-+
TitleUnicode:-+
Artist:daisan
ArtistUnicode:daisan
Creator:Starfy
Version:NNK's Hyper
Source:BOF2013
Tags:minus plus konzertsaal - THE BMS OF FIGHTERS 2013 Dirt Art Color Teller xellox piano StarForYou Kyle Y IamKwaN happy623 -N_a_n_a_k_o- Nanako Kencho Chaoslitz [ Drop ] choikapo Regou Rizia Kawaiwkyik Nakano Itsuki StarrStyx Prophecy aabc271 Nardoxyribonucleic Skylish ll-oscar autofanboy alienflybot hokin1995 pwhk hong kong hk muse dash electronic instrumental
BeatmapID:863264
BeatmapSetID:389617

[Difficulty]
HPDrainRate:6
CircleSize:4
OverallDifficulty:6
ApproachRate:7.5
SliderMultiplier:1.4
SliderTickRate:1

[Events]
//Background and Video events
0,0,"BG.png",0,0
//Break Periods
//Storyboard Layer 0 (Background)
//Storyboard Layer 1 (Fail)
//Storyboard Layer 2 (Pass)
//Storyboard Layer 3 (Foreground)
//Storyboard Layer 4 (Overlay)
//Storyboard Sound Samples

[TimingPoints]
2607,324.324324324324,4,2,1,20,1,0
2607,-200,4,2,1,20,0,0
12985,-200,4,2,2,30,0,0
13147,-200,4,2,1,30,0,0
22715,-100,4,2,1,30,0,0
23363,-100,4,1,1,80,0,1
23688,-100,4,1,1,70,0,1
33742,-100,4,1,1,60,0,0
44120,-133.333333333333,4,1,3,60,0,0
45093,-133.333333333333,4,2,1,40,0,0
54498,-100,4,2,2,40,0,0
54579,-100,4,2,1,40,0,0
62282,-100,4,1,1,50,0,0
62606,-100,4,1,1,60,0,0
63579,-100,4,1,1,70,0,0
75255,-100,4,1,1,50,0,0
80444,-100,4,1,1,60,0,0
83039,-100,4,1,1,70,0,0
86931,-83.3333333333333,4,1,5,80,0,1
88228,-83.3333333333333,4,1,1,70,0,1
90985,-83.3333333333333,4,1,6,70,0,1
91147,-83.3333333333333,4,1,1,70,0,1
91309,-83.3333333333333,4,1,6,70,0,1
91634,-83.3333333333333,4,1,6,70,0,1
91796,-83.3333333333333,4,1,1,70,0,1
91958,-83.3333333333333,4,1,6,70,0,1
92444,-83.3333333333333,4,1,1,70,0,1
98850,-83.3333333333333,4,1,1,20,0,1
98931,-83.3333333333333,4,1,1,70,0,1
102174,-83.3333333333333,4,1,1,80,0,1
103634,-83.3333333333333,4,1,1,70,0,1
114012,-83.3333333333333,4,1,1,5,0,1
114174,-100,4,1,3,40,0,0
114215,-100,4,2,1,40,0,0
118066,370.37037037037,4,2,1,35,1,0
118066,-200,4,2,1,35,0,0
119547,379.746835443038,4,2,1,30,1,0
119547,-200,4,2,1,30,0,0
120917,413.793103448276,4,2,1,25,1,0
120917,-200,4,2,1,25,0,0
122439,491.803278688525,4,2,1,20,1,0
122439,-200,4,2,1,20,0,0

[Colours]
Combo1 : 41,214,166
Combo2 : 128,0,255
Combo3 : 128,255,255
Combo4 : 3,90,252

[HitObjects]
68,88,2607,5,2,0:0:0:0:
72,100,3255,1,0,0:0:0:0:
76,112,3904,1,2,0:0:0:0:
80,124,4552,1,0,0:0:0:0:
84,136,5201,1,2,0:0:0:0:
84,136,6498,1,2,0:0:0:0:
192,304,7796,5,2,0:0:0:0:
196,292,8444,1,0,0:0:0:0:
200,280,9093,1,2,0:0:0:0:
204,268,9741,1,0,0:0:0:0:
208,256,10390,1,2,0:0:0:0:
208,256,11687,1,2,0:0:0:0:
328,108,12985,6,0,P|376:92|464:136,1,140,6|0,0:0|0:0,0:0:0:0:
436,276,14282,2,0,P|388:292|300:248,1,140,2|0,0:0|0:0,0:0:0:0:
232,132,15579,2,0,P|148:108|16:232,1,280,2|2,0:0|0:0,0:0:0:0:
296,348,18174,6,0,P|336:288|320:220,1,140,6|6,0:0|0:0,0:0:0:0:
220,60,19471,2,0,P|180:120|196:188,1,140,6|6,0:0|0:0,0:0:0:0:
392,240,20769,2,0,P|484:204|412:72,1,280,4|2,0:0|0:0,0:0:0:0:
421,72,22715,6,0,L|385:104,3,35,2|2|2|2,0:0|0:0|0:0|0:0,0:0:0:0:
394,95,23039,2,0,L|353:64,3,35,2|2|2|2,0:0|0:0|0:0|0:0,0:0:0:0:
366,73,23363,6,0,P|301:44|237:84,1,140,12|2,0:0|0:0,0:0:0:0:
264,156,23850,1,0,0:0:0:0:
204,220,24012,2,0,P|156:216|128:196,1,70,0|8,0:0|0:0,0:0:0:0:
112,116,24336,2,0,P|160:120|188:140,1,70,2|0,0:0|0:0,0:0:0:0:
204,220,24661,6,0,P|192:308|124:332,1,140,8|2,0:0|0:0,0:0:0:0:
68,340,25147,1,0,0:0:0:0:
20,268,25309,2,0,L|56:192,1,70,0|8,0:0|0:0,0:0:0:0:
8,128,25634,2,0,L|44:52,1,70,2|0,0:0|0:0,0:0:0:0:
128,32,25958,6,0,L|220:24,2,70,12|8|2,0:0|0:0|0:0,0:0:0:0:
296,112,26444,2,0,L|204:120,2,70,0|0|8,0:0|0:0|0:0,0:0:0:0:
168,224,26931,2,0,L|260:216,1,70,2|2,0:0|0:2,0:0:0:0:
284,316,27255,6,0,L|260:352,3,35,8|0|0|8,0:0|0:0|0:0|0:0,0:0:0:0:
336,336,27579,2,0,L|348:372,3,35,2|0|2|2,0:0|0:0|0:0|0:0,0:0:0:0:
392,344,27904,2,0,L|432:372,3,35,2|2|2|2,0:0|0:0|0:0|0:0,0:0:0:0:
444,324,28228,2,0,L|496:320,3,35,2|0|2|0,0:0|0:0|0:0|0:0,0:0:0:0:
456,268,28552,6,0,P|464:212|452:180,2,70,12|8|2,0:0|0:0|0:0,0:0:0:0:
360,156,29039,2,0,P|352:212|364:244,2,70,0|0|8,0:0|0:0|0:0,0:0:0:0:
252,308,29525,2,0,P|260:252|248:220,1,70,2|0,0:0|0:0,0:0:0:0:
180,196,29850,5,8,0:0:0:0:
100,216,30012,1,8,0:0:0:0:
20,236,30174,1,2,0:0:0:0:
52,140,30336,5,0,0:0:0:0:
132,120,30498,1,0,0:0:0:0:
212,100,30660,1,8,0:0:0:0:
240,8,30823,5,2,0:0:0:0:
160,28,30985,1,8,0:0:0:0:
80,48,31147,6,0,L|36:40,3,35,12|0|8|0,0:0|0:0|0:0|0:0,0:0:0:0:
52,140,31471,2,0,L|12:160,3,35,2|0|0|0,0:0|0:0|0:0|0:0,0:0:0:0:
78,237,31796,2,0,L|62:273,3,35,0|0|8|0,0:0|0:0|0:0|0:0,0:0:0:0:
160,289,32120,2,0,L|160:333,3,35,2|0|2|2,0:0|0:0|0:0|0:0,0:0:0:0:
256,303,32444,5,8,0:0:0:0:
330,264,32606,1,8,0:0:0:0:
368,190,32768,1,2,0:0:0:0:
355,107,32931,1,2,0:0:0:0:
296,47,33093,1,2,0:0:0:0:
213,34,33255,1,2,0:0:0:0:
138,72,33417,1,2,0:0:0:0:
100,147,33579,1,2,0:0:0:0:
113,231,33742,5,12,0:0:0:0:
172,290,33904,1,8,0:0:0:0:
254,307,34066,1,2,0:0:0:0:
334,283,34228,1,0,0:0:0:0:
379,212,34390,5,0,0:0:0:0:
377,191,34552,1,8,0:0:0:0:
375,169,34715,1,2,0:0:0:0:
374,148,34877,1,0,0:0:0:0:
373,127,35039,5,8,0:0:0:0:
294,156,35201,1,8,0:0:0:0:
253,229,35363,1,2,0:0:0:0:
277,309,35525,1,0,0:0:0:0:
338,366,35688,5,0,0:0:0:0:
358,361,35850,1,8,0:0:0:0:
378,356,36012,1,2,0:0:0:0:
398,352,36174,1,0,0:0:0:0:
418,349,36336,5,12,0:0:0:0:
492,310,36498,1,8,0:0:0:0:
511,227,36661,1,2,0:0:0:0:
482,148,36823,1,0,0:0:0:0:
404,116,36985,5,0,0:0:0:0:
380,120,37147,1,8,0:0:0:0:
356,124,37309,1,2,0:0:0:0:
332,128,37471,1,0,0:0:0:0:
308,132,37634,6,0,L|216:148,1,70,8|8,0:0|0:0,0:0:0:0:
204,276,37958,2,0,L|296:260,1,70,2|0,0:0|0:0,0:0:0:0:
239,143,38282,2,0,L|147:159,1,70,2|2,0:0|0:0,0:0:0:0:
272,264,38606,2,0,L|364:248,1,70,2|2,0:0|0:0,0:0:0:0:
436,280,38931,6,0,P|464:316|464:352,2,70,12|8|2,0:0|0:0|0:0,0:0:0:0:
349,326,39417,1,0,0:0:0:0:
272,264,39579,2,0,L|196:252,1,70,0|8,0:0|0:0,0:0:0:0:
176,158,39904,2,0,L|252:170,1,70,2|0,0:0|0:0,0:0:0:0:
336,133,40228,6,0,P|364:93|364:45,2,70,8|8|2,0:0|0:0|0:0,0:0:0:0:
268,72,40715,1,0,0:0:0:0:
188,36,40877,2,0,L|88:44,1,70,0|8,0:0|0:0,0:0:0:0:
92,124,41201,2,0,L|-8:132,1,70,2|0,0:0|0:0,0:0:0:0:
44,220,41525,6,0,L|52:304,1,70,12|8,0:0|0:0,0:0:0:0:
124,256,41850,2,0,L|132:340,1,70,2|2,0:0|0:0,0:0:0:0:
208,348,42174,2,0,L|200:264,1,70,2|2,0:0|0:0,0:0:0:0:
280,296,42498,2,0,L|272:212,1,70,2|2,0:0|0:0,0:0:0:0:
268,148,42823,6,0,L|361:156,1,70,2|2,0:0|0:0,0:0:0:0:
416,60,43147,2,0,L|322:51,1,70,2|2,0:0|0:0,0:0:0:0:
337,153,43471,2,0,L|430:161,1,70,2|2,0:0|0:0,0:0:0:0:
347,54,43795,2,0,L|253:45,1,70,0|2,0:0|0:0,0:0:0:0:
192,56,44120,5,4,0:0:0:0:
192,56,45093,5,2,0:0:0:0:
160,64,45255,1,2,0:0:0:0:
128,72,45417,2,0,P|84:72|48:24,1,105.000004005432,2|0,0:0|0:0,0:0:0:0:
28,152,46066,2,0,P|72:152|108:200,1,105.000004005432,2|0,0:0|0:0,0:0:0:0:
112,296,46715,5,0,0:0:0:0:
112,296,47688,5,2,0:0:0:0:
144,288,47850,1,2,0:0:0:0:
176,280,48012,2,0,L|292:256,1,105.000004005432,2|0,0:0|0:0,0:0:0:0:
320,348,48661,2,0,L|436:324,1,105.000004005432,2|0,0:0|0:0,0:0:0:0:
480,240,49309,5,0,0:0:0:0:
480,240,50282,5,2,0:0:0:0:
476,208,50444,1,2,0:0:0:0:
472,176,50606,2,0,P|424:136|384:152,1,105.000004005432,2|0,0:0|0:0,0:0:0:0:
272,196,51255,2,0,P|312:148|296:108,1,105.000004005432,2|0,0:0|0:0,0:0:0:0:
220,52,51904,5,0,0:0:0:0:
220,52,52715,5,2,0:0:0:0:
188,48,52877,1,2,0:0:0:0:
156,44,53039,1,2,0:0:0:0:
124,40,53201,2,0,L|16:28,1,105.000004005432,2|0,0:0|0:0,0:0:0:0:
80,144,53850,2,0,L|188:156,1,105.000004005432,2|0,0:0|0:0,0:0:0:0:
296,128,54498,5,6,0:0:0:0:
296,128,55471,5,2,0:0:0:0:
336,136,55634,1,2,0:0:0:0:
376,144,55796,2,0,P|400:208|352:280,1,140,6|0,0:0|0:0,0:0:0:0:
252,344,56444,2,0,P|228:280|276:208,1,140,6|0,0:0|0:0,0:0:0:0:
369,268,57093,5,4,0:0:0:0:
369,268,58066,5,2,0:0:0:0:
408,280,58228,1,2,0:0:0:0:
448,292,58390,2,0,B|496:244|496:244|484:160,1,140,6|0,0:0|0:0,0:0:0:0:
444,56,59039,2,0,B|396:104|396:104|408:188,1,140,6|0,0:0|0:0,0:0:0:0:
369,268,59688,5,4,0:0:0:0:
369,268,60661,5,6,0:0:0:0:
336,292,60823,1,2,0:0:0:0:
304,316,60985,2,0,L|233:369,1,70,4|2,0:0|0:0,0:0:0:0:
190,313,61309,2,0,L|114:337,1,70,6|2,0:0|0:0,0:0:0:0:
104,264,61634,2,0,L|36:240,1,70,6|2,0:0|0:0,0:0:0:0:
59,174,61958,2,0,L|11:94,1,70,6|2,0:0|0:0,0:0:0:0:
52,48,62282,6,0,B|83:12|134:5|172:33|189:56|201:92|201:92|210:123|236:158|280:166|321:146|339:122|347:92|347:92|355:66|369:35|390:14|433:12|472:28|482:54,1,560,8|8,0:0|0:0,0:0:0:0:
475,43,64877,6,0,L|499:264,1,210,8|8,0:0|0:0,0:0:0:0:
344,352,66174,6,0,L|367:131,1,210,8|8,0:0|0:0,0:0:0:0:
180,32,67471,6,0,L|203:252,1,210,8|8,0:0|0:0,0:0:0:0:
32,348,68769,6,0,L|48:184,1,140,8|2,0:0|0:2,0:0:0:0:
160,244,69417,2,0,L|176:80,1,140,8|2,0:0|0:2,0:0:0:0:
272,36,70066,5,8,0:0:0:0:
456,72,70552,1,8,0:0:0:0:
340,364,71363,5,8,0:0:0:0:
376,180,71849,1,8,0:0:0:0:
72,268,72661,5,8,0:0:0:0:
256,304,73147,1,8,0:0:0:0:
132,16,73958,5,8,0:0:0:0:
184,264,74606,1,8,0:0:0:0:
344,68,75255,6,0,P|412:56|460:116,1,140,8|8,0:0|0:0,0:0:0:0:
472,180,75742,1,0,0:0:0:0:
452,256,75904,2,0,P|448:312|432:336,1,70,8|0,0:0|0:0,0:0:0:0:
376,280,76228,2,0,P|380:224|396:200,1,70,8|0,0:0|0:0,0:0:0:0:
328,164,76552,6,0,P|252:160|204:232,1,140,8|8,0:0|0:0,0:0:0:0:
200,280,77039,1,0,0:0:0:0:
208,356,77201,2,0,L|112:344,1,70,8|0,0:0|0:0,0:0:0:0:
116,276,77525,2,0,L|20:264,1,70,8|2,0:0|0:0,0:0:0:0:
28,192,77850,6,0,P|28:116|84:60,1,140,8|2,0:0|0:0,0:0:0:0:
140,40,78336,1,0,0:0:0:0:
196,96,78498,6,0,P|264:120|340:80,1,140,8|8,0:0|0:0,0:0:0:0:
380,40,78984,1,0,0:0:0:0:
453,68,79147,6,0,P|494:122|491:191,1,140,8|2,0:0|0:0,0:0:0:0:
444,252,79634,1,2,0:0:0:0:
444,252,79715,1,2,0:0:0:0:
444,252,79796,2,0,L|352:240,1,70,2|0,0:0|0:0,0:0:0:0:
344,280,80039,1,2,0:0:0:0:
344,280,80120,2,0,L|264:268,1,70,0|2,0:0|0:0,0:0:0:0:
244,192,80444,6,0,P|188:160|104:192,1,140,8|2,0:0|0:0,0:0:0:0:
92,256,80931,1,0,0:0:0:0:
132,328,81093,1,8,0:0:0:0:
212,360,81255,1,0,0:0:0:0:
296,348,81417,1,0,0:0:0:0:
344,280,81579,1,2,0:0:0:0:
332,196,81742,6,0,P|312:120|372:64,1,140,8|2,0:0|0:0,0:0:0:0:
428,64,82228,1,0,0:0:0:0:
484,128,82390,1,2,0:0:0:0:
484,212,82552,1,0,0:0:0:0:
428,276,82715,1,0,0:0:0:0:
344,280,82877,1,2,0:0:0:0:
264,252,83039,5,8,0:0:0:0:
264,252,83201,1,0,0:0:0:0:
168,288,83363,1,2,0:0:0:0:
168,288,83525,1,0,0:0:0:0:
120,196,83688,1,0,0:0:0:0:
120,196,83850,1,0,0:0:0:0:
24,232,84012,1,2,0:0:0:0:
24,232,84174,1,0,0:0:0:0:
16,128,84336,6,0,P|16:72|36:48,1,70,8|0,0:0|0:0,0:0:0:0:
120,24,84661,2,0,P|120:80|100:104,1,70,2|2,0:0|0:0,0:0:0:0:
208,148,84985,2,0,P|208:92|228:68,1,70,2|2,0:0|0:0,0:0:0:0:
312,44,85310,2,0,P|312:100|292:124,1,70,2|0,0:0|0:0,0:0:0:0:
380,180,85634,6,0,L|404:196,32,17.5,2|0|2|0|2|0|2|0|2|0|2|0|2|0|2|0|2|0|2|0|2|0|2|0|2|0|2|0|2|0|2|0|4,0:0|0:0|0:0|0:0|0:0|0:0|0:0|0:0|0:0|0:0|0:0|0:0|0:0|0:0|0:0|0:0|0:0|0:0|0:0|0:0|0:0|0:0|0:0|0:0|0:0|0:0|0:0|0:0|0:0|0:0|0:0|0:0|0:0,0:0:0:0:
380,180,88228,6,0,P|416:169|474:196,2,83.9999974365235,12|8|2,0:0|0:0|0:0,0:0:0:0:
319,238,88715,2,0,P|247:284|160:248,1,167.999994873047,0|8,0:0|0:0,0:0:0:0:
109,208,89201,1,2,0:0:0:0:
92,40,89525,6,0,L|4:56,2,83.9999974365235,8|8|2,0:0|0:0|0:0,0:0:0:0:
180,84,90012,1,0,0:0:0:0:
268,40,90174,2,0,L|356:56,2,83.9999974365235,0|8|2,0:0|0:0|0:0,0:0:0:0:
180,84,90661,2,0,P|172:144|196:176,1,83.9999974365235,0|12,0:0|0:0,0:0:0:0:
248,252,90985,5,2,0:0:0:0:
354,274,91147,1,2,0:0:0:0:
322,169,91309,1,2,0:0:0:0:
123,236,91634,5,2,0:0:0:0:
17,258,91796,1,2,0:0:0:0:
49,153,91958,1,2,0:0:0:0:
337,325,92444,6,0,L|429:313,1,83.9999974365235,2|8,0:0|0:0,0:0:0:0:
372,220,92769,2,0,L|456:210,1,83.9999974365235,0|8,0:0|0:0,0:0:0:0:
396,124,93093,2,0,L|488:112,1,83.9999974365235,2|2,0:0|0:0,0:0:0:0:
420,28,93417,5,12,0:0:0:0:
320,8,93579,1,8,0:0:0:0:
232,60,93742,1,2,0:0:0:0:
200,156,93904,2,0,P|200:240|292:264,1,167.999994873047,0|8,0:0|0:0,0:0:0:0:
360,228,94390,1,2,0:0:0:0:
360,228,94715,6,0,L|472:252,2,83.9999974365235,8|8|2,0:0|0:0|0:0,0:0:0:0:
344,328,95201,1,0,0:0:0:0:
252,372,95363,2,0,L|164:356,1,83.9999974365235,0|8,0:0|0:0,0:0:0:0:
124,264,95688,2,0,L|41:248,1,83.9999974365235,2|0,0:0|0:0,0:0:0:0:
20,148,96012,6,0,L|4:40,2,83.9999974365235,12|8|2,0:0|0:0|0:0,0:0:0:0:
144,24,96498,2,0,L|128:132,2,83.9999974365235,0|0|8,0:0|0:0|0:0,0:0:0:0:
272,80,96985,6,0,L|360:64,1,83.9999974365235,2|2,0:0|0:0,0:0:0:0:
380,60,97228,1,2,0:0:0:0:
404,56,97309,1,8,0:0:0:0:
460,160,97471,5,0,0:0:0:0:
450,173,97552,1,0,0:0:0:0:
443,188,97633,1,0,0:0:0:0:
440,205,97714,1,0,0:0:0:0:
441,222,97795,1,0,0:0:0:0:
446,238,97876,1,0,0:0:0:0:
455,252,97957,1,0,0:0:0:0:
400,348,98120,5,8,0:0:0:0:
400,348,98201,1,8,0:0:0:0:
400,348,98282,2,0,L|296:336,1,83.9999974365235,8|12,0:0|0:0,0:0:0:0:
40,348,98931,6,0,P|104:340|144:248,1,167.999994873047,2|0,0:0|0:0,0:0:0:0:
145,253,99417,1,0,0:0:0:0:
72,208,99579,1,2,0:0:0:0:
132,148,99742,1,0,0:0:0:0:
108,60,99904,6,0,P|168:52|208:80,1,83.9999974365235,8|0,0:0|0:0,0:0:0:0:
288,40,100228,2,0,P|288:84|244:136,1,83.9999974365235,2|0,0:0|0:0,0:0:0:0:
312,200,100552,2,0,P|256:212|212:180,1,83.9999974365235
205,303,100877,2,0,P|157:278|141:234,1,83.9999974365235,2|2,0:0|0:0,0:0:0:0:
132,148,101201,6,0,L|312:116,1,167.999994873047,8|2,0:0|0:0,0:0:0:0:
252,360,101688,2,0,L|134:220,1,167.999994873047,8|2,0:0|0:0,0:0:0:0:
368,152,102174,2,0,L|305:323,1,167.999994873047,8|0,0:0|0:0,0:0:0:0:
309,309,102579,2,0,L|281:317,25,20.9999993591309,8|0|0|0|2|0|2|0|2|0|2|0|8|0|0|0|8|0|0|0|0|0|0|0|0|0,0:0|0:0|0:0|0:0|0:0|0:0|0:0|0:0|0:0|0:0|0:0|0:0|0:0|0:0|0:0|0:0|0:0|0:0|0:0|0:0|0:0|0:0|0:0|0:0|0:0|0:0,0:0:0:0:
309,309,103634,6,0,P|377:317|441:229,1,167.999994873047,12|0,0:0|0:0,0:0:0:0:
436,156,104120,1,2,0:0:0:0:
392,76,104282,1,0,0:0:0:0:
312,32,104444,1,8,0:0:0:0:
220,24,104606,1,0,0:0:0:0:
136,64,104769,1,2,0:0:0:0:
96,148,104931,6,0,P|84:224|164:280,1,167.999994873047,8|0,0:0|0:0,0:0:0:0:
244,280,105417,1,2,0:0:0:0:
292,196,105579,1,0,0:0:0:0:
267,102,105742,1,8,0:0:0:0:
188,46,105904,1,0,0:0:0:0:
92,52,106066,1,2,0:0:0:0:
28,124,106228,6,0,P|80:184|188:148,1,167.999994873047,8|0,0:0|0:0,0:0:0:0:
252,128,106715,1,2,0:0:0:0:
352,108,106877,1,0,0:0:0:0:
448,144,107039,1,8,0:0:0:0:
484,240,107201,1,0,0:0:0:0:
459,338,107363,1,2,0:0:0:0:
362,367,107525,6,0,P|286:355|274:251,1,167.999994873047,8|0,0:0|0:0,0:0:0:0:
288,174,108012,1,2,0:0:0:0:
218,96,108174,1,0,0:0:0:0:
113,96,108336,1,8,0:0:0:0:
37,168,108498,1,0,0:0:0:0:
35,273,108661,1,2,0:0:0:0:
104,352,108823,6,0,P|200:364|252:304,1,167.999994873047,8|0,0:0|0:0,0:0:0:0:
311,231,109309,1,2,0:0:0:0:
414,197,109471,1,0,0:0:0:0:
473,289,109634,1,8,0:0:0:0:
369,323,109796,1,0,0:0:0:0:
311,231,109958,1,2,0:0:0:0:
243,134,110120,6,0,P|181:100|87:138,1,167.999994873047,8|0,0:0|0:0,0:0:0:0:
63,244,110606,1,2,0:0:0:0:
160,311,110769,1,8,0:0:0:0:
257,244,110931,1,2,0:0:0:0:
354,177,111093,1,8,0:0:0:0:
451,244,111255,1,2,0:0:0:0:
357,340,111417,5,8,0:0:0:0:
357,340,111742,5,2,0:0:0:0:
320,211,111904,1,2,0:0:0:0:
451,244,112066,1,2,0:0:0:0:
227,308,112228,5,2,0:0:0:0:
414,115,112471,5,2,0:0:0:0:
488,373,112715,5,2,0:0:0:0:
256,192,112877,12,0,114174,0:0:0:0:
432,36,115471,5,2,0:0:0:0:
336,336,116769,5,2,0:0:0:0:
60,152,118066,6,0,L|208:184,1,140,2|2,0:0|0:0,0:0:0:0:
416,100,119547,6,0,L|464:84,3,35,2|0|0|0,0:0|0:0|0:0|0:0,0:0:0:0:
256,272,120917,6,0,L|256:312,3,35,2|0|0|0,0:0|0:0|0:0|0:0,0:0:0:0:
96,100,122439,6,0,L|48:84,3,35,2|0|0|0,0:0|0:0|0:0|0:0,0:0:0:0:
176,48,123586,1,0,0:0:0:0:
212,204,123996,1,0,0:0:0:0:
212,204,124570,5,0,0:0:0:0:
256,192,124652,12,0,126865,0:0:0:0:
