osu file format v14

[General]
AudioFilename: -+.mp3
AudioLeadIn: 0
PreviewTime:86931
Countdown: 0
SampleSet: Soft
StackLeniency: 0.7
Mode: 0
LetterboxInBreaks: 0
WidescreenStoryboard: 1
EpilepsyWarning: 1

[Editor]
Bookmarks: 32442
DistanceSpacing: 0.7
BeatDivisor: 4
GridSize: 4
TimelineZoom: 1.299999

[Metadata]
Title:-+
TitleUnicode:-+
Artist:daisan
ArtistUnicode:daisan
Creator:Starfy
Version:Ky's Beginner
Source:BOF2013
Tags:minus plus konzertsaal - THE BMS OF FIGHTERS 2013 Dirt Art Color Teller xellox piano StarForYou Kyle Y IamKwaN happy623 -N_a_n_a_k_o- Nanako Kencho Chaoslitz [ Drop ] choikapo Regou Rizia Kawaiwkyik Nakano Itsuki StarrStyx Prophecy aabc271 Nardoxyribonucleic Skylish ll-oscar autofanboy alienflybot hokin1995 pwhk hong kong hk muse dash electronic instrumental
BeatmapID:862110
BeatmapSetID:389617

[Difficulty]
HPDrainRate:1
CircleSize:2
OverallDifficulty:1
ApproachRate:2
SliderMultiplier:0.500000005960464
SliderTickRate:1

[Events]
//Background and Video events
0,0,"BG.png",0,0
//Break Periods
2,44320,52818
//Storyboard Layer 0 (Background)
//Storyboard Layer 1 (Fail)
//Storyboard Layer 2 (Pass)
//Storyboard Layer 3 (Foreground)
//Storyboard Layer 4 (Overlay)
//Storyboard Sound Samples

[TimingPoints]
2607,324.324324324324,4,2,1,20,1,0
2607,-100,4,2,1,20,0,0
12985,-100,4,2,2,30,0,0
13147,-100,4,2,1,30,0,0
22066,-100,4,2,1,30,0,0
22715,-100,4,2,1,30,0,0
23363,-100,4,1,1,80,0,1
23688,-100,4,1,1,70,0,1
24661,-100,4,1,1,70,0,1
24985,-100,4,1,1,70,0,1
25958,-100,4,1,1,70,0,1
26282,-100,4,1,1,70,0,1
33742,-100,4,1,1,60,0,0
44120,-100,4,1,3,60,0,0
45012,-100,4,1,3,60,0,0
45093,-100,4,1,3,60,0,0
54498,-100,4,2,2,40,0,0
54579,-100,4,2,1,40,0,0
62282,-100,4,1,1,50,0,0
62606,-100,4,1,1,60,0,0
63579,-100,4,1,1,70,0,0
64228,-100,4,1,1,70,0,0
64877,-100,4,1,1,70,0,0
75255,-100,4,1,1,50,0,0
80444,-100,4,1,1,60,0,0
83039,-100,4,1,1,70,0,0
85634,-100,4,1,1,70,0,0
85715,-100,4,1,1,70,0,0
85796,-100,4,1,1,70,0,0
85877,-100,4,1,1,70,0,0
85958,-100,4,1,1,70,0,0
86039,-100,4,1,1,70,0,0
86120,-100,4,1,1,70,0,0
86201,-100,4,1,1,70,0,0
86282,-100,4,1,1,70,0,0
86363,-100,4,1,1,70,0,0
86444,-100,4,1,1,70,0,0
86525,-100,4,1,1,70,0,0
86606,-100,4,1,1,70,0,0
86688,-100,4,1,1,70,0,0
86769,-100,4,1,1,70,0,0
86850,-100,4,1,1,70,0,0
86931,-100,4,1,5,80,0,1
87012,-100,4,1,5,80,0,0
87336,-100,4,1,5,80,0,0
87904,-100,4,1,5,80,0,0
88147,-100,4,1,5,80,0,0
88228,-100,4,1,1,70,0,1
90985,-100,4,1,1,70,0,1
91471,-100,4,1,1,70,0,1
91634,-100,4,1,1,70,0,1
92120,-100,4,1,1,70,0,1
98444,-100,4,1,1,70,0,1
98850,-100,4,1,1,70,0,1
98931,-100,4,1,1,70,0,1
102174,-100,4,1,1,80,0,1
103634,-100,4,1,1,70,0,1
114012,-100,4,1,1,70,0,1
114174,-100,4,1,3,40,0,0
114215,-100,4,1,3,40,0,0
118066,370.37037037037,4,2,1,35,1,0
119547,379.746835443038,4,2,1,30,1,0
120917,413.793103448276,4,2,1,25,1,0
122439,491.803278688525,4,2,1,20,1,0

[Colours]
Combo1 : 41,214,166
Combo2 : 128,0,255
Combo3 : 128,255,255
Combo4 : 3,90,252

[HitObjects]
64,112,2607,6,0,B|160:48|256:112|256:112|352:176|448:112,2,400.000004768371
96,304,9093,1,0,0:0:0:0:
260,200,10390,2,0,B|272:240|320:272|320:272|272:304|256:352,1,200.000002384186
128,192,12985,6,0,P|256:64|384:192,1,400.000004768371,6|2,0:0|0:0,0:0:0:0:
256,344,16877,1,2,0:0:0:0:
64,272,18174,6,0,P|8:192|64:112,2,200.000002384186,6|6|4,0:0|0:0|0:0,0:0:0:0:
256,344,22066,1,2,0:0:0:0:
448,280,23363,6,0,P|491:194|444:110,1,200.000002384186,12|8,0:0|0:0,0:0:0:0:
391,196,25309,1,0,0:0:0:0:
320,128,25958,2,0,L|216:144,1,100.000001192093,12|0,0:0|0:0,0:0:0:0:
221,240,27255,2,0,L|320:256,1,100.000001192093,8|0,0:0|0:0,0:0:0:0:
392,192,28552,6,0,P|435:106|388:22,1,200.000002384186,12|8,0:0|0:0,0:0:0:0:
335,108,30498,1,0,0:0:0:0:
256,168,31147,2,0,L|157:152,1,100.000001192093,12|0,0:0|0:0,0:0:0:0:
160,56,32444,2,0,L|258:40,1,100.000001192093,8|0,0:0|0:0,0:0:0:0:
327,111,33742,6,0,P|311:158|319:207,1,100.000001192093,12|0,0:0|0:0,0:0:0:0:
264,288,35039,2,0,P|311:304|360:296,1,100.000001192093,8|0,0:0|0:0,0:0:0:0:
441,351,36336,2,0,P|457:304|449:255,1,100.000001192093,12|0,0:0|0:0,0:0:0:0:
504,174,37634,2,0,P|457:158|408:166,1,100.000001192093,8|0,0:0|0:0,0:0:0:0:
318,206,38931,6,0,P|271:222|222:214,1,100.000001192093,12|0,0:0|0:0,0:0:0:0:
141,269,40228,2,0,P|125:222|133:173,1,100.000001192093,8|0,0:0|0:0,0:0:0:0:
78,92,41525,2,0,P|125:76|174:84,1,100.000001192093,12|2,0:0|0:0,0:0:0:0:
255,29,42823,2,0,P|271:76|263:125,1,100.000001192093,2|2,0:0|0:0,0:0:0:0:
222,214,44120,1,4,0:0:0:0:
192,320,54498,6,0,B|208:256|144:192|144:192|160:128,1,200.000002384186,6|6,0:0|0:0,0:0:0:0:
352,128,57093,2,0,B|336:192|400:256|400:256|384:320,1,200.000002384186,4|6,0:0|0:0,0:0:0:0:
192,320,59688,6,0,L|84:296,1,100.000001192093,4|0,0:0|0:0,0:0:0:0:
64,200,60985,2,0,L|161:178,1,100.000001192093,4|6,0:0|0:0,0:0:0:0:
192,80,62282,2,0,L|84:56,2,100.000001192093,8|0|8,0:0|0:0|0:0,0:0:0:0:
256,156,64228,1,0,0:0:0:0:
320,80,64877,6,0,L|449:51,1,125.000001490116,8|0,0:0|0:0,0:0:0:0:
484,84,66174,2,0,L|512:213,1,125.000001490116,8|0,0:0|0:0,0:0:0:0:
480,248,67471,2,0,L|357:275,1,125.000001490116,8|0,0:0|0:0,0:0:0:0:
328,232,68769,2,0,L|306:134,1,100.000001192093,8|8,0:0|0:0,0:0:0:0:
208,112,70066,6,0,L|85:139,1,125.000001490116,8|0,0:0|0:0,0:0:0:0:
54,180,71363,2,0,L|80:302,1,125.000001490116,8|0,0:0|0:0,0:0:0:0:
123,334,72660,2,0,L|244:306,1,125.000001490116,8|0,0:0|0:0,0:0:0:0:
258,252,73958,2,0,L|236:154,1,100.000001192093,8|8,0:0|0:0,0:0:0:0:
304,80,75255,6,0,P|390:37|474:84,1,200.000002384186,8|8,0:0|0:0,0:0:0:0:
388,137,77201,1,8,0:0:0:0:
440,224,77850,2,0,L|432:328,1,100.000001192093,0|8,0:0|0:0,0:0:0:0:
336,324,79147,2,0,L|328:224,1,100.000001192093,0|2,0:0|0:0,0:0:0:0:
256,160,80444,6,0,P|170:117|86:164,1,200.000002384186,8|8,0:0|0:0,0:0:0:0:
172,217,82390,1,0,0:0:0:0:
255,272,83039,2,0,P|170:315|86:268,1,200.000002384186,8|8,0:0|0:0,0:0:0:0:
85,165,84985,1,2,0:0:0:0:
177,121,85634,2,0,P|186:169|172:217,1,100.000001192093,2|0,0:0|0:0,0:0:0:0:
86,268,86931,1,4,0:0:0:0:
256,372,88228,6,0,P|304:381|351:366,1,100.000001192093,12|0,0:0|0:0,0:0:0:0:
412,288,89525,1,8,0:0:0:0:
380,192,90174,1,0,0:0:0:0:
412,96,90823,2,0,L|516:84,2,100.000001192093,12|0|8,0:0|0:0|0:0,0:0:0:0:
351,18,92769,1,0,0:0:0:0:
256,52,93417,6,0,P|207:61|160:46,1,100.000001192093,12|0,0:0|0:0,0:0:0:0:
64,20,94714,1,8,0:0:0:0:
12,108,95363,1,0,0:0:0:0:
68,192,96012,2,0,P|77:240|62:287,2,100.000001192093,12|0|8,0:0|0:0|0:0,0:0:0:0:
139,124,97958,6,0,P|208:97|276:124,2,150.000001788139,8|2|8,0:0|0:0|0:0,0:0:0:0:
208,196,100552,1,0,0:0:0:0:
303,220,101201,2,0,P|361:174|373:102,2,150.000001788139,8|2|8,0:0|0:0|0:0,0:0:0:0:
256,240,103634,6,0,B|204:224|204:224|160:240|160:240|112:208|124:148,2,200.000002384186,12|8|8,0:0|0:0|0:0,0:0:0:0:
304,260,106715,1,2,0:0:0:0:
376,360,107525,2,0,B|428:344|428:344|472:360|472:360|520:328|508:268,1,200.000002384186,8|8,0:0|0:0,0:0:0:0:
500,224,109309,1,2,0:0:0:0:
432,120,110120,6,0,L|308:132,1,125.000001490116,8|2,0:0|0:0,0:0:0:0:
256,144,111417,2,0,P|220:188|256:316,1,200.000002384186,8|2,0:0|0:0,0:0:0:0:
256,192,114174,12,0,118066,0:0:0:0:
