osu file format v14

[General]
AudioFilename: -+.mp3
AudioLeadIn: 0
PreviewTime:86931
Countdown: 0
SampleSet: Soft
StackLeniency: 0.7
Mode: 0
LetterboxInBreaks: 0
WidescreenStoryboard: 1
EpilepsyWarning: 1

[Editor]
DistanceSpacing: 1.4
BeatDivisor: 4
GridSize: 4
TimelineZoom: 2.5

[Metadata]
Title:-+
TitleUnicode:-+
Artist:daisan
ArtistUnicode:daisan
Creator:Starfy
Version:KwaN's Advanced
Source:BOF2013
Tags:minus plus konzertsaal - THE BMS OF FIGHTERS 2013 Dirt Art Color Teller xellox piano StarForYou Kyle Y IamKwaN happy623 -N_a_n_a_k_o- Nanako Kencho Chaoslitz [ Drop ] choikapo Regou Rizia Kawaiwkyik Nakano Itsuki StarrStyx Prophecy aabc271 Nardoxyribonucleic Skylish ll-oscar autofanboy alienflybot hokin1995 pwhk hong kong hk muse dash electronic instrumental
BeatmapID:902084
BeatmapSetID:389617

[Difficulty]
HPDrainRate:5
CircleSize:3.8
OverallDifficulty:5
ApproachRate:7.5
SliderMultiplier:1.1
SliderTickRate:1

[Events]
//Background and Video events
0,0,"BG.png",0,0
//Break Periods
//Storyboard Layer 0 (Background)
//Storyboard Layer 1 (Fail)
//Storyboard Layer 2 (Pass)
//Storyboard Layer 3 (Foreground)
//Storyboard Layer 4 (Overlay)
//Storyboard Sound Samples

[TimingPoints]
2607,324.324324324324,4,2,88,50,1,0
13634,-100,4,2,88,40,0,0
22715,-133.333333333333,4,2,88,50,0,0
23363,-100,4,2,88,90,0,1
33742,-100,4,2,88,90,0,0
44120,-125,4,2,88,90,0,0
47688,-125,4,2,88,40,0,0
62282,-111.111111111111,4,2,88,50,0,0
63498,-111.111111111111,4,2,88,5,0,0
63579,-111.111111111111,4,2,88,60,0,0
65606,-111.111111111111,4,2,88,5,0,0
65688,-111.111111111111,4,2,88,70,0,0
65728,-111.111111111111,4,2,88,40,0,0
66174,-111.111111111111,4,2,88,60,0,0
66904,-111.111111111111,4,2,88,5,0,0
66985,-111.111111111111,4,2,88,70,0,0
67025,-111.111111111111,4,2,88,40,0,0
67471,-111.111111111111,4,2,88,60,0,0
68201,-111.111111111111,4,2,88,5,0,0
68282,-111.111111111111,4,2,88,70,0,0
68323,-111.111111111111,4,2,88,40,0,0
68769,-111.111111111111,4,2,88,60,0,0
70796,-111.111111111111,4,2,88,5,0,0
70877,-111.111111111111,4,2,88,70,0,0
70917,-111.111111111111,4,2,88,40,0,0
71363,-111.111111111111,4,2,88,60,0,0
72093,-111.111111111111,4,2,88,5,0,0
72174,-111.111111111111,4,2,88,70,0,0
72215,-111.111111111111,4,2,88,40,0,0
72661,-111.111111111111,4,2,88,60,0,0
73390,-111.111111111111,4,2,88,5,0,0
73471,-111.111111111111,4,2,88,70,0,0
73512,-111.111111111111,4,2,88,40,0,0
73958,-111.111111111111,4,2,88,60,0,0
75255,-125,4,2,88,60,0,0
80444,-111.111111111111,4,2,88,60,0,0
86931,-142.857142857143,4,2,88,80,0,0
87904,-142.857142857143,4,2,88,50,0,0
88228,-100,4,2,88,90,0,1
98444,-142.857142857143,4,2,88,90,0,1
98931,-100,4,2,88,90,0,1
99904,-117.647058823529,4,2,88,90,0,1
101201,-125,4,2,88,90,0,1
101606,-125,4,2,88,5,0,1
101688,-125,4,2,88,90,0,1
102093,-125,4,2,88,5,0,1
102174,-125,4,2,88,90,0,1
102661,-125,4,2,88,5,0,1
102823,-111.111111111111,4,2,88,90,0,1
103634,-100,4,2,88,90,0,1
112715,-142.857142857143,4,2,88,90,0,1
114174,-100,4,2,88,90,0,0
118066,370.37037037037,4,2,88,50,1,0
119547,379.746835443038,4,2,88,50,1,0
120917,413.793103448276,4,2,88,50,1,0
122439,491.803278688525,4,2,88,50,1,0

[Colours]
Combo1 : 41,214,166
Combo2 : 128,0,255
Combo3 : 128,255,255
Combo4 : 3,90,252

[HitObjects]
408,92,12985,5,2,0:1:0:0:
404,96,13634,1,2,0:0:0:0:
400,100,14282,1,2,0:0:0:0:
396,104,14931,1,2,0:0:0:0:
392,108,15579,5,2,0:0:0:0:
392,108,16877,1,2,0:0:0:0:
104,292,18174,5,2,0:0:0:0:
108,288,18823,1,2,0:0:0:0:
112,284,19471,1,2,0:0:0:0:
116,280,20120,1,2,0:0:0:0:
120,276,20768,5,2,0:0:0:0:
120,276,22066,1,2,0:0:0:0:
170,118,22715,6,0,L|168:97,7,20.6250007867813,2|0|0|0|2|0|0|0,0:0|0:0|0:0|0:0|0:0|0:0|0:0|0:0,0:0:0:0:
199,75,23363,6,0,B|227:69|227:69|254:71,1,55,4|4,0:0|0:3,0:0:0:0:
323,105,23688,2,0,P|373:111|422:80,1,110,8|0,0:0|0:0,0:0:0:0:
471,21,24174,1,4,0:3:0:0:
498,93,24336,2,0,P|494:149|494:204,1,110,8|4,0:0|0:3,0:0:0:0:
501,279,24823,5,4,0:3:0:0:
424,286,24985,2,0,P|428:328|430:368,1,82.5,8|0,0:0|0:0,0:0:0:0:
430,368,25309,1,0,0:0:0:0:
354,382,25471,1,4,0:3:0:0:
280,357,25634,2,0,P|239:353|215:323,1,82.5,8|4,0:0|0:3,0:0:0:0:
214,322,25958,6,0,L|208:261,1,55,4|4,0:3|0:3,0:0:0:0:
216,190,26282,2,0,P|219:163|220:133,1,55,8|0,0:0|0:0,0:0:0:0:
140,149,26606,2,0,P|131:122|119:95,1,55,4|0,0:3|0:0,0:0:0:0:
56,150,26931,2,0,P|37:129|16:111,1,55,8|0,0:0|0:0,0:0:0:0:
93,217,27255,6,0,P|90:258|88:302,1,82.5,4|4,0:3|0:3,0:0:0:0:
88,299,27579,1,8,0:0:0:0:
139,356,27742,1,4,0:3:0:0:
210,326,27904,2,0,L|241:322,3,27.5,4|4|4|4,0:3|0:3|0:3|0:3,0:0:0:0:
274,333,28228,2,0,L|305:329,3,27.5,8|0|4|0,0:0|0:0|0:3|0:0,0:0:0:0:
338,339,28552,6,0,L|392:330,1,55,4|4,0:0|0:3,0:0:0:0:
457,287,28877,2,0,P|467:232|446:184,1,110,8|0,0:0|0:0,0:0:0:0:
387,134,29363,1,4,0:3:0:0:
324,179,29525,2,0,L|214:183,1,110,8|4,0:0|0:3,0:0:0:0:
165,244,30012,5,4,0:3:0:0:
103,197,30174,2,0,L|97:113,1,82.5,8|4,0:0|0:3,0:0:0:0:
97,114,30498,2,0,P|69:113|45:102,1,55,4|4,0:3|0:3,0:0:0:0:
164,77,30823,2,0,L|248:71,1,82.5,8|4,0:0|0:3,0:0:0:0:
247,71,31147,6,0,P|247:43|259:19,1,55,4|4,0:3|0:3,0:0:0:0:
334,4,31471,2,0,P|384:30|392:85,1,110,8|0,0:0|0:0,0:0:0:0:
348,142,31958,1,4,0:3:0:0:
348,142,32120,2,0,L|346:199,1,55,8|0,0:0|0:0,0:0:0:0:
293,252,32444,6,0,L|297:280,3,27.5,4|4|4|4,0:3|0:3|0:3|0:3,0:0:0:0:
284,316,32769,2,0,L|288:344,3,27.5,8|4|4|4,0:0|0:3|0:3|0:3,0:0:0:0:
261,371,33093,2,0,L|207:376,1,55,4|0,0:3|0:0,0:0:0:0:
132,341,33417,2,0,P|148:319|172:306,1,55,8|0,0:0|0:0,0:0:0:0:
215,242,33742,6,0,L|212:188,1,55,4|4,0:0|0:3,0:0:0:0:
164,126,34066,1,8,0:0:0:0:
164,126,34228,1,0,0:0:0:0:
221,75,34390,2,0,L|276:71,1,55,2|4,0:0|0:3,0:0:0:0:
147,51,34715,2,0,L|92:47,1,55,10|0,0:0|0:0,0:0:0:0:
54,113,35039,6,0,L|60:167,1,55,4|4,0:3|0:3,0:0:0:0:
117,219,35363,1,8,0:0:0:0:
117,219,35525,1,0,0:0:0:0:
75,284,35688,2,0,L|20:281,1,55,2|4,0:0|0:3,0:0:0:0:
136,330,36012,2,0,L|193:326,1,55,10|0,0:0|0:0,0:0:0:0:
242,269,36336,6,0,L|246:214,1,55,4|4,0:3|0:3,0:0:0:0:
294,154,36660,1,8,0:0:0:0:
294,154,36822,1,0,0:0:0:0:
244,94,36985,2,0,L|189:89,1,55,2|4,0:0|0:3,0:0:0:0:
319,77,37309,2,0,L|376:72,1,55,10|0,0:0|0:0,0:0:0:0:
438,29,37634,6,0,P|479:31|505:60,1,82.5,4|4,0:3|0:3,0:0:0:0:
505,60,37958,2,0,P|501:86|500:115,1,55,8|4,0:0|0:3,0:0:0:0:
444,167,38282,2,0,L|448:199,3,27.5,4|4|4|4,0:3|0:3|0:3|0:3,0:0:0:0:
432,229,38606,2,0,L|377:222,1,55,8|0,0:0|0:0,0:0:0:0:
316,270,38931,6,0,P|308:296|309:325,1,55,4|4,0:0|0:3,0:0:0:0:
383,306,39255,1,10,0:0:0:0:
383,306,39417,1,0,0:0:0:0:
308,323,39579,2,0,L|253:317,1,55,2|4,0:0|0:3,0:0:0:0:
178,248,39904,2,0,L|233:242,1,55,10|0,0:0|0:0,0:0:0:0:
276,178,40228,6,0,P|284:152|283:123,1,55,4|4,0:3|0:3,0:0:0:0:
209,142,40552,1,10,0:0:0:0:
209,142,40714,1,0,0:0:0:0:
284,125,40876,2,0,L|339:131,1,55,2|4,0:0|0:3,0:0:0:0:
430,199,41201,2,0,L|348:209,1,82.5,10|4,0:0|0:3,0:0:0:0:
326,240,41525,6,0,P|330:267|331:294,1,55,4|4,0:0|0:3,0:0:0:0:
299,365,41850,2,0,P|326:373|356:369,1,55,8|4,0:0|0:3,0:0:0:0:
213,365,42174,2,0,P|185:373|155:369,1,55,10|0,0:0|0:0,0:0:0:0:
180,294,42498,2,0,P|181:267|186:240,1,55,10|0,0:0|0:0,0:0:0:0:
167,164,42823,6,0,L|139:161,2,27.5,4|8|4,0:3|0:0|0:3,0:0:0:0:
242,182,43147,2,0,L|296:178,1,55,8|4,0:0|0:3,0:0:0:0:
358,131,43471,2,0,B|397:134|397:134|425:124|425:124|467:128,2,110,8|8|2,0:0|0:0|0:1,0:0:0:0:
58,261,45093,6,0,L|101:257,1,44,2|0,0:0|0:0,0:0:0:0:
176,248,45417,1,2,0:0:0:0:
180,244,45742,1,2,0:0:0:0:
184,240,46066,1,2,0:0:0:0:
188,236,46390,1,2,0:0:0:0:
454,123,47688,6,0,L|411:127,1,44,0|2,0:0|0:0,0:0:0:0:
336,136,48012,1,2,0:0:0:0:
332,140,48337,1,2,0:0:0:0:
328,144,48661,1,2,0:0:0:0:
324,148,48985,1,2,0:0:0:0:
115,74,50282,6,0,L|117:118,1,44,2|0,0:0|0:0,0:0:0:0:
124,192,50606,1,2,0:0:0:0:
132,200,50931,1,2,0:0:0:0:
140,208,51255,1,2,0:0:0:0:
148,216,51579,1,2,0:0:0:0:
397,310,52715,5,2,0:0:0:0:
397,310,52877,2,0,L|395:266,1,44,2|0,0:0|0:0,0:0:0:0:
388,192,53201,1,2,0:0:0:0:
380,184,53526,1,2,0:0:0:0:
372,176,53850,1,2,0:0:0:0:
364,168,54174,2,0,P|364:126|357:81,1,88,2|2,0:0|0:1,0:0:0:0:
88,305,55471,6,0,P|89:282|93:262,1,44,2|0,0:0|0:0,0:0:0:0:
108,188,55795,1,2,0:0:0:0:
124,172,56119,1,2,0:0:0:0:
140,156,56444,1,2,0:0:0:0:
156,140,56769,1,2,0:0:0:0:
424,79,58066,6,0,P|422:101|419:122,1,44,2|0,0:0|0:0,0:0:0:0:
404,196,58390,1,2,0:0:0:0:
388,212,58714,1,2,0:0:0:0:
372,228,59039,1,2,0:0:0:0:
356,244,59364,1,2,0:0:0:0:
130,78,60661,6,0,L|128:121,1,44,2|0,0:0|0:0,0:0:0:0:
202,90,60985,2,0,L|201:134,1,44,2|0,0:0|0:0,0:0:0:0:
177,204,61309,2,0,L|179:247,1,44,2|0,0:0|0:0,0:0:0:0:
250,191,61633,2,0,L|252:235,1,44,2|0,0:0|0:0,0:0:0:0:
309,145,61958,1,2,0:0:0:0:
394,325,62282,6,0,B|360:284|314:284|314:284|274:324|227:306|227:306|195:335|143:328|120:295|120:295|143:319|135:358,1,371.24998867035,0|0,3:0|0:0,0:0:0:0:
97,368,63579,6,0,L|92:340,15,24.74999924469,4|0|4|0|4|0|4|0|4|0|4|0|4|0|4|0,0:3|0:0|0:3|0:0|0:3|0:0|0:3|0:0|0:3|0:0|0:3|0:0|0:3|0:0|0:3|0:0,0:0:0:0:
85,301,64877,5,12,0:0:0:0:
85,301,65363,2,0,P|121:296|161:294,1,74.2499977340699,8|0,0:0|0:0,0:0:0:0:
187,258,65688,2,0,L|189:245,8,12.374999622345,2|0|0|0|0|0|0|0|0,0:0|0:0|0:0|0:0|0:0|0:0|0:0|0:0|0:0,0:0:0:0:
144,185,66174,5,12,0:0:0:0:
144,185,66661,2,0,P|108:180|68:178,1,74.2499977340699,8|0,0:0|0:0,0:0:0:0:
42,142,66986,2,0,L|39:129,8,12.374999622345,2|0|0|0|0|0|0|0|0,0:0|0:0|0:0|0:0|0:0|0:0|0:0|0:0|0:0,0:0:0:0:
85,69,67472,5,12,0:0:0:0:
85,69,67958,2,0,B|122:74|122:74|159:66,1,74.2499977340699,8|0,0:0|0:0,0:0:0:0:
187,35,68283,2,0,L|186:22,8,12.374999622345,2|0|0|0|0|0|0|0|0,0:0|0:0|0:0|0:0|0:0|0:0|0:0|0:0|0:0,0:0:0:0:
236,104,68769,5,12,0:0:0:0:
236,104,69417,1,12,0:0:0:0:
236,104,70066,5,12,0:0:0:0:
236,104,70552,2,0,P|234:142|239:178,1,74.2499977340699,8|0,0:0|0:0,0:0:0:0:
257,216,70877,2,0,L|254:237,8,12.374999622345,2|0|0|0|0|0|0|0|0,0:0|0:0|0:0|0:0|0:0|0:0|0:0|0:0|0:0,0:0:0:0:
332,252,71363,5,12,0:0:0:0:
332,252,71850,2,0,P|333:290|329:326,1,74.2499977340699,8|0,0:0|0:0,0:0:0:0:
311,364,72175,2,0,L|314:385,8,12.374999622345,2|0|0|0|0|0|0|0|0,0:0|0:0|0:0|0:0|0:0|0:0|0:0|0:0|0:0,0:0:0:0:
231,339,72661,5,12,0:0:0:0:
231,339,73147,2,0,B|194:344|194:344|157:336,1,74.2499977340699,8|0,0:0|0:0,0:0:0:0:
129,305,73472,2,0,L|130:292,8,12.374999622345,2|0|0|0|0|0|0|0|0,0:0|0:0|0:0|0:0|0:0|0:0|0:0|0:0|0:0,0:0:0:0:
80,374,73958,5,12,0:0:0:0:
80,374,74606,1,12,0:0:0:0:
292,162,75255,6,0,L|297:115,1,44,12|0,0:0|0:0,0:0:0:0:
371,112,75579,2,0,L|367:155,1,44,4|0,0:3|0:0,0:0:0:0:
338,225,75904,2,0,L|343:272,1,44,4|0,0:3|0:0,0:0:0:0:
413,231,76228,2,0,L|417:275,1,44,4|0,0:3|0:0,0:0:0:0:
374,336,76552,6,0,P|352:342|330:342,1,44,4|0,0:3|0:0,0:0:0:0:
269,299,76877,2,0,L|224:304,1,44,4|0,0:3|0:0,0:0:0:0:
125,249,77201,2,0,L|169:254,1,44,4|0,0:3|0:0,0:0:0:0:
228,208,77525,2,0,P|226:182|223:157,1,44,4|0,0:3|0:0,0:0:0:0:
309,96,77850,6,0,L|266:101,1,44,4|0,0:3|0:0,0:0:0:0:
369,51,78174,2,0,L|364:7,1,44,4|0,0:3|0:0,0:0:0:0:
436,84,78498,2,0,L|479:79,1,44,4|0,0:3|0:0,0:0:0:0:
376,129,78823,2,0,L|380:172,1,44,4|4,0:3|0:3,0:0:0:0:
354,242,79147,6,0,P|357:263|357:285,2,44,4|0|4,0:3|0:0|0:3,0:0:0:0:
289,204,79634,2,0,L|268:202,1,22,4|4,0:3|0:3,0:0:0:0:
233,202,79796,2,0,L|167:208,1,66,8|8,0:0|0:0,0:0:0:0:
167,208,80120,1,8,0:0:0:0:
114,154,80282,1,4,0:3:0:0:
5,200,80444,6,0,L|55:203,1,49.4999984893799,4|0,0:0|0:0,0:0:0:0:
109,256,80769,2,0,P|105:279|106:306,1,49.4999984893799,4|0,0:3|0:0,0:0:0:0:
177,332,81093,2,0,P|181:309|180:282,1,49.4999984893799,4|0,0:3|0:0,0:0:0:0:
167,208,81417,1,4,0:3:0:0:
114,154,81579,1,0,0:0:0:0:
162,93,81742,6,0,L|165:43,1,49.4999984893799,4|0,0:0|0:0,0:0:0:0:
241,40,82066,2,0,L|238:90,1,49.4999984893799,4|0,0:3|0:0,0:0:0:0:
273,157,82390,2,0,L|276:206,1,49.4999984893799,4|0,0:3|0:0,0:0:0:0:
275,245,82634,2,0,L|272:278,1,24.74999924469,8|8,0:0|0:0,0:0:0:0:
333,316,82877,1,4,0:3:0:0:
211,315,83039,6,0,P|184:315|160:320,1,49.4999984893799,6|0,0:0|0:0,0:0:0:0:
24,260,83363,2,0,P|73:263|122:253,2,98.9999969787599,8|4|8,0:0|0:3|0:0,0:0:0:0:
210,108,84336,6,0,P|160:105|112:116,1,98.9999969787599,6|8,0:0|0:0,0:0:0:0:
257,169,84985,2,0,L|256:194,7,24.74999924469,12|0|0|0|8|0|0|0,0:0|0:0|0:0|0:0|0:0|0:0|0:0|0:0,0:0:0:0:
270,229,85634,6,0,L|272:247,30,12.374999622345,12|0|0|0|0|0|0|0|0|0|0|0|0|0|0|0|0|0|0|0|0|0|0|0|0|0|0|0|0|0|0,0:0|0:0|0:0|0:0|0:0|0:0|0:0|0:0|0:0|0:0|0:0|0:0|0:0|0:0|0:0|0:0|0:0|0:0|0:0|0:0|0:0|0:0|0:0|0:0|0:0|0:0|0:0|0:0|0:0|0:0|0:0,0:0:0:0:
256,193,86931,6,0,L|245:311,2,115.49999647522,8|2|2,0:1|0:0|0:0,0:0:0:0:
308,47,88228,6,0,L|312:102,1,55,4|4,0:0|0:3,0:0:0:0:
354,165,88552,1,8,0:0:0:0:
423,130,88715,2,0,P|475:126|507:169,1,110,0|4,0:0|0:3,0:0:0:0:
493,244,89201,2,0,P|488:269|490:298,1,55,8|0,0:0|0:0,0:0:0:0:
445,361,89525,5,4,0:3:0:0:
445,361,89687,1,4,0:3:0:0:
378,320,89850,2,0,B|336:317|336:317|312:324|312:324|268:320,1,110,8|0,0:0|0:0,0:0:0:0:
220,260,90336,1,4,0:3:0:0:
151,294,90498,2,0,P|146:322|146:349,1,55,8|0,0:0|0:0,0:0:0:0:
107,231,90823,6,0,P|111:203|111:176,1,55,4|4,0:3|0:3,0:0:0:0:
97,100,91147,1,10,0:0:0:0:
167,68,91309,2,0,L|221:65,1,55
261,131,91634,1,4,0:3:0:0:
331,99,91796,2,0,L|385:96,1,55,10|0,0:0|0:0,0:0:0:0:
444,45,92120,6,0,P|463:83|459:123,1,82.5,0|4,0:0|0:3,0:0:0:0:
459,121,92444,1,8,0:0:0:0:
400,171,92606,1,0,0:0:0:0:
402,248,92769,2,0,L|400:277,3,27.5,4|4|4|4,0:3|0:3|0:3|0:3,0:0:0:0:
392,313,93093,2,0,P|363:313|339:325,1,55,8|0,0:0|0:0,0:0:0:0:
216,362,93417,6,0,P|243:362|268:351,1,55,4|4,0:3|0:3,0:0:0:0:
280,275,93741,1,8,0:0:0:0:
242,207,93904,2,0,P|243:154|236:94,1,110,0|4,0:0|0:3,0:0:0:0:
176,50,94390,2,0,L|122:56,1,55,8|0,0:0|0:0,0:0:0:0:
25,119,94715,6,0,L|79:125,1,55,4|4,0:3|0:3,0:0:0:0:
119,191,95039,1,8,0:0:0:0:
172,246,95201,2,0,B|160:300|160:300|179:323|177:357,1,110,0|4,0:0|0:3,0:0:0:0:
99,353,95688,2,0,L|42:349,1,55,8|0,0:0|0:0,0:0:0:0:
9,280,96012,6,0,P|3:228|39:188,1,110,4|8,0:3|0:0,0:0:0:0:
105,148,96498,2,0,P|117:126|122:94,1,55
110,20,96823,1,4,0:3:0:0:
186,23,96985,2,0,P|210:26|242:28,1,55,8|0,0:0|0:0,0:0:0:0:
311,57,97309,6,0,L|341:55,7,27.5,4|4|4|4|4|4|4|4,0:0|0:3|0:3|0:3|0:3|0:3|0:3|0:3,0:0:0:0:
370,76,97958,2,0,L|400:74,4,27.5,4|4|4|4|4,0:0|0:3|0:3|0:3|0:3,0:0:0:0:
324,139,98444,6,0,P|315:182|355:181,1,96.2499970626832,2|0,0:0|0:0,0:0:0:0:
324,139,98931,6,0,P|256:137|186:135,1,137.5,4|4,0:0|0:3,0:0:0:0:
150,148,99417,2,0,B|144:174|144:174|144:203,1,55,4|8,0:3|0:0,0:0:0:0:
224,310,99904,6,0,L|320:305,1,93.500001783371,4|8,0:0|0:0,0:0:0:0:
424,175,100552,2,0,L|330:179,1,93.500001783371,4|8,0:0|0:0,0:0:0:0:
217,128,101201,6,0,P|192:83|143:96,1,110,4|0,0:0|0:0,0:0:0:0:
125,121,101688,2,0,L|129:235,1,110,4|0,0:0|0:0,0:0:0:0:
145,256,102174,2,0,B|181:265|206:245|206:245|239:238|277:260,1,132,4|0,0:0|0:0,0:0:0:0:
327,309,102823,6,0,L|329:337,3,24.74999924469,8|8|8|8,0:0|0:0|0:0|0:0,0:0:0:0:
306,364,103147,1,4,0:3:0:0:
235,333,103309,2,0,L|161:336,1,74.2499977340699,4|0,0:3|0:0,0:0:0:0:
128,357,103634,6,0,L|134:248,1,110,4|0,0:0|0:0,0:0:0:0:
198,205,104120,2,0,P|251:204|291:239,1,110,8|4,0:0|0:3,0:0:0:0:
327,309,104606,1,4,0:3:0:0:
327,309,104769,1,8,0:0:0:0:
384,360,104931,6,0,P|437:356|493:358,1,110,4|0,0:0|0:0,0:0:0:0:
496,281,105417,2,0,P|451:255|447:201,1,110,8|4,0:0|0:3,0:0:0:0:
462,125,105904,1,4,0:3:0:0:
462,125,106066,1,8,0:0:0:0:
406,72,106228,6,0,P|348:71|296:68,1,110,4|4,0:0|0:3,0:0:0:0:
227,32,106715,2,0,P|256:75|237:131,1,110,8|4,0:0|0:3,0:0:0:0:
197,191,107201,1,4,0:3:0:0:
197,191,107363,1,8,0:0:0:0:
139,241,107525,6,0,B|137:292|137:292|141:301|141:301|138:351,1,110,4|4,0:0|0:3,0:0:0:0:
211,373,108012,2,0,P|239:372|267:365,1,55,8|4,0:0|0:3,0:0:0:0:
312,305,108336,1,4,0:3:0:0:
288,231,108498,2,0,P|287:200|282:176,1,55,4|8,0:3|0:0,0:0:0:0:
248,107,108823,6,0,B|281:126|281:126|317:122|343:87,1,110,4|4,0:0|0:3,0:0:0:0:
394,34,109309,2,0,P|392:91|394:143,1,110,8|4,0:0|0:3,0:0:0:0:
428,212,109796,1,4,0:3:0:0:
428,212,109958,1,8,0:0:0:0:
387,277,110120,6,0,B|349:263|349:263|323:281|283:271,1,110,4|4,0:0|0:3,0:0:0:0:
222,222,110606,2,0,P|238:245|246:272,1,55,8|0,0:0|0:0,0:0:0:0:
198,332,110931,2,0,B|173:348|146:347|146:347|121:331|122:299,1,110,8|8,0:0|0:0,0:0:0:0:
141,225,111417,6,0,P|142:199|141:171,1,55,8|0,0:0|0:0,0:0:0:0:
118,96,111742,1,8,0:0:0:0:
176,45,111904,1,4,0:3:0:0:
176,45,112066,1,8,0:0:0:0:
246,75,112228,2,0,B|287:80|287:80|327:71,2,82.5,8|8|8,0:0|0:0|0:0,0:0:0:0:
256,192,112796,12,4,114174,0:0:0:0:
