osu file format v14

[General]
AudioFilename: -+.mp3
AudioLeadIn: 0
PreviewTime:86931
Countdown: 0
SampleSet: Soft
StackLeniency: 0.7
Mode: 0
LetterboxInBreaks: 0
WidescreenStoryboard: 1
EpilepsyWarning: 1

[Editor]
Bookmarks: 1307,6496,11685,16874,22063,27252,32442,37631,42820,48009,53198,58388,63577,68766,73955,79144,84334,86928,92117,97306,102496,107685,112874,118247
DistanceSpacing: 1.8
BeatDivisor: 4
GridSize: 4
TimelineZoom: 2

[Metadata]
Title:-+
TitleUnicode:-+
Artist:daisan
ArtistUnicode:daisan
Creator:Starfy
Version:Kencho's Another
Source:BOF2013
Tags:minus plus konzertsaal - THE BMS OF FIGHTERS 2013 Dirt Art Color Teller xellox piano StarForYou Kyle Y IamKwaN happy623 -N_a_n_a_k_o- Nanako Kencho Chaoslitz [ Drop ] choikapo Regou Rizia Kawaiwkyik Nakano Itsuki StarrStyx Prophecy aabc271 Nardoxyribonucleic Skylish ll-oscar autofanboy alienflybot hokin1995 pwhk hong kong hk muse dash electronic instrumental
BeatmapID:909248
BeatmapSetID:389617

[Difficulty]
HPDrainRate:6
CircleSize:4
OverallDifficulty:7
ApproachRate:9
SliderMultiplier:1.6
SliderTickRate:1

[Events]
//Background and Video events
0,0,"BG.png",0,0
//Break Periods
//Storyboard Layer 0 (Background)
//Storyboard Layer 1 (Fail)
//Storyboard Layer 2 (Pass)
//Storyboard Layer 3 (Foreground)
//Storyboard Layer 4 (Overlay)
//Storyboard Sound Samples

[TimingPoints]
2607,324.324324324324,4,2,1,20,1,0
2607,-200,4,2,1,20,0,0
12985,-200,4,2,2,30,0,0
13066,-200,4,2,2,30,0,0
13147,-200,4,2,1,30,0,0
22715,-100,4,2,1,30,0,0
23039,-100,4,2,1,30,0,0
23363,-100,4,1,1,80,0,1
23688,-100,4,1,1,70,0,1
33742,-100,4,1,1,60,0,0
44120,-133.333333333333,4,1,3,60,0,0
44201,-133.333333333333,4,1,3,60,0,0
45093,-133.333333333333,4,2,1,40,0,0
54498,-133.333333333333,4,2,2,40,0,0
54579,-133.333333333333,4,2,1,20,0,0
62282,-100,4,1,1,50,0,0
62606,-100,4,1,1,60,0,0
63579,-100,4,1,1,70,0,0
65688,-100,4,1,6,70,0,0
66174,-100,4,1,1,70,0,0
66985,-100,4,1,6,70,0,0
67471,-100,4,1,1,70,0,0
68282,-100,4,1,6,70,0,0
68769,-100,4,1,1,70,0,0
70877,-100,4,1,6,70,0,0
71363,-100,4,1,1,70,0,0
72174,-100,4,1,6,70,0,0
72661,-100,4,1,1,70,0,0
73471,-100,4,1,6,70,0,0
73958,-100,4,1,1,70,0,0
75255,-100,4,1,1,50,0,0
80444,-100,4,1,1,60,0,0
83039,-100,4,1,1,70,0,0
85634,-100,4,1,1,40,0,0
85715,-100,4,1,1,42,0,0
85796,-100,4,1,1,44,0,0
85877,-100,4,1,1,46,0,0
85958,-100,4,1,1,48,0,0
86039,-100,4,1,1,50,0,0
86120,-100,4,1,1,52,0,0
86201,-100,4,1,1,54,0,0
86282,-100,4,1,1,56,0,0
86363,-100,4,1,1,58,0,0
86444,-100,4,1,1,60,0,0
86525,-100,4,1,1,62,0,0
86606,-100,4,1,1,64,0,0
86688,-100,4,1,1,66,0,0
86769,-100,4,1,1,68,0,0
86850,-100,4,1,1,70,0,0
86931,-133.333333333333,4,1,5,80,0,1
87012,-133.333333333333,4,1,1,40,0,0
87093,-133.333333333333,4,1,1,40,0,0
87336,-133.333333333333,4,1,1,20,0,0
87417,-133.333333333333,4,1,1,50,0,0
87823,-100,4,1,1,20,0,0
87904,-100,4,1,1,60,0,0
88147,-100,4,1,1,20,0,0
88228,-100,4,1,1,70,0,1
90985,-100,4,1,6,70,0,1
91147,-100,4,1,1,70,0,1
91309,-100,4,1,6,70,0,1
91471,-100,4,1,1,70,0,1
91634,-100,4,1,6,70,0,1
91796,-100,4,1,1,70,0,1
91958,-100,4,1,6,70,0,1
92120,-100,4,1,1,70,0,1
98444,-66.6666666666667,4,1,1,70,0,1
98850,-100,4,1,1,20,0,1
98931,-100,4,1,1,70,0,1
102174,-100,4,1,1,80,0,1
103634,-100,4,1,1,70,0,1
114012,-100,4,1,1,5,0,1
114174,-200,4,1,3,40,0,0
114215,-200,4,2,1,40,0,0
118066,370.37037037037,4,2,1,35,1,0
118066,-200,4,2,1,35,0,0
119547,379.746835443038,4,2,1,30,1,0
119547,-200,4,2,1,30,0,0
120917,413.793103448276,4,2,1,25,1,0
120917,-200,4,2,1,25,0,0
122439,491.803278688525,4,2,1,20,1,0
122439,-200,4,2,1,20,0,0

[Colours]
Combo1 : 41,214,166
Combo2 : 128,0,255
Combo3 : 128,255,255
Combo4 : 3,90,252

[HitObjects]
256,284,2607,6,0,P|333:301|411:283,1,160,2|0,0:0|0:0,0:0:0:0:
256,100,3904,2,0,P|178:82|100:100,1,160,2|0,0:0|0:0,0:0:0:0:
256,284,5201,5,2,0:0:0:0:
256,284,6498,1,2,0:0:0:0:
256,284,7796,6,0,L|256:124,1,160,2|0,0:0|0:0,0:0:0:0:
482,44,9093,2,0,L|482:204,1,160,2|0,0:0|0:0,0:0:0:0:
256,124,10390,5,2,0:0:0:0:
256,124,11688,1,2,0:0:0:0:
256,124,12985,5,6,0:0:0:0:
249,147,13634,1,0,0:0:0:0:
243,170,14282,1,2,0:0:0:0:
236,193,14931,1,0,0:0:0:0:
230,216,15579,6,0,L|70:216,1,160,2|0,0:0|0:0,0:0:0:0:
176,56,16877,2,0,L|336:56,1,160,2|0,0:0|0:0,0:0:0:0:
336,56,18174,6,0,L|336:136,1,80,6|0,0:0|0:0,0:0:0:0:
256,296,18823,2,0,L|256:216,1,80,6|0,0:0|0:0,0:0:0:0:
416,216,19471,2,0,L|336:216,1,80,6|0,0:0|0:0,0:0:0:0:
176,136,20120,2,0,L|256:136,1,80,6|0,0:0|0:0,0:0:0:0:
256,296,20769,6,0,L|216:296,3,40,4|4|4|4,0:0|0:0|0:0|0:0,0:0:0:0:
184,296,21417,2,0,L|144:296,3,40,4|4|4|4,0:0|0:0|0:0|0:0,0:0:0:0:
112,296,22066,1,2,0:0:0:0:
112,296,22715,6,0,L|72:292,7,40,2|2|2|2|2|2|2|2,0:0|0:0|0:0|0:0|0:0|0:0|0:0|0:0,0:0:0:0:
112,296,23363,6,0,L|108:216,1,80,12|0,0:0|0:0,0:0:0:0:
62,143,23688,2,0,P|113:171|171:163,1,120,2|0,0:0|0:0,0:0:0:0:
201,152,24012,2,0,L|197:231,1,80,0|8,0:0|0:0,0:0:0:0:
131,82,24336,1,2,0:0:0:0:
131,82,24661,6,0,L|127:2,1,80,8|8,0:0|0:0,0:0:0:0:
201,152,24985,2,0,P|149:180|91:172,1,120,2|8,0:0|0:0,0:0:0:0:
63,161,25309,2,0,L|66:240,1,80,0|8,0:0|0:0,0:0:0:0:
208,304,25634,2,0,L|203:184,1,120,2|8,0:0|0:0,0:0:0:0:
201,152,25958,6,0,P|240:157|279:150,1,80,12|8,0:0|0:0,0:0:0:0:
420,85,26282,2,0,P|441:139|429:197,1,120,2|0,0:0|0:0,0:0:0:0:
409,222,26606,2,0,L|412:302,1,80,0|8,0:0|0:0,0:0:0:0:
280,151,26931,1,2,0:0:0:0:
280,151,27255,6,0,P|318:141|358:145,1,80,8|0,0:0|0:0,0:0:0:0:
326,317,27579,2,0,L|323:237,1,80,2|2,0:0|0:0,0:0:0:0:
295,243,27823,1,2,0:0:0:0:
267,248,27904,2,0,L|227:244,2,40,2|2|2,0:0|0:0|0:0,0:0:0:0:
358,145,28228,2,0,L|437:152,1,80,2|2,0:0|0:0,0:0:0:0:
457,154,28471,1,0,0:0:0:0:
476,158,28552,6,0,L|472:78,1,80,12|8,0:0|0:0,0:0:0:0:
358,145,28877,1,2,0:0:0:0:
480,246,29039,1,0,0:0:0:0:
480,246,29120,1,0,0:0:0:0:
480,246,29201,1,0,0:0:0:0:
472,78,29363,1,8,0:0:0:0:
381,235,29525,2,0,L|301:227,1,80,2|0,0:0|0:0,0:0:0:0:
281,225,29769,1,0,0:0:0:0:
261,223,29850,6,0,L|265:143,1,80,8|8,0:0|0:0,0:0:0:0:
381,235,30175,1,2,0:0:0:0:
257,311,30337,1,0,0:0:0:0:
257,311,30418,1,8,0:0:0:0:
257,311,30499,1,0,0:0:0:0:
265,143,30661,1,8,0:0:0:0:
383,267,30823,2,0,L|387:347,1,80,2|8,0:0|0:0,0:0:0:0:
406,349,31066,1,8,0:0:0:0:
424,352,31147,6,0,L|503:343,1,80,12|8,0:0|0:0,0:0:0:0:
378,183,31471,1,2,0:0:0:0:
267,263,31634,2,0,L|187:254,1,80
377,161,31958,1,8,0:0:0:0:
230,227,32121,2,0,L|150:218,1,80,2|0,0:0|0:0,0:0:0:0:
131,216,32363,1,2,0:0:0:0:
111,214,32444,6,0,L|112:253,3,40,8|2|8|2,0:0|0:0|0:0|0:0,0:0:0:0:
63,125,32769,2,0,L|61:85,3,40,2|8|2|8,0:0|0:0|0:0|0:0,0:0:0:0:
42,194,33093,2,0,L|2:195,3,40,2|2|2|2,0:0|0:0|0:0|0:0,0:0:0:0:
131,146,33418,2,0,L|170:144,3,40,2|0|0|2,0:0|0:0|0:0|0:0,0:0:0:0:
131,146,33742,6,0,L|131:226,1,80,12|8,0:0|0:0,0:0:0:0:
340,306,34066,2,0,L|340:226,1,80,2|0,0:0|0:0,0:0:0:0:
235,226,34390,2,0,L|235:306,1,80,0|8,0:0|0:0,0:0:0:0:
444,226,34714,2,0,L|444:146,1,80,2|0,0:0|0:0,0:0:0:0:
278,131,35039,6,0,L|198:129,1,80,8|8,0:0|0:0,0:0:0:0:
235,226,35363,1,2,0:0:0:0:
241,35,35525,1,0,0:0:0:0:
135,197,35688,2,0,L|55:194,1,80,0|8,0:0|0:0,0:0:0:0:
60,56,36012,2,0,L|139:58,1,80,2|0,0:0|0:0,0:0:0:0:
235,226,36336,6,0,P|233:265|219:303,1,80,12|8,0:0|0:0,0:0:0:0:
135,197,36661,1,2,0:0:0:0:
292,167,36823,1,0,0:0:0:0:
219,304,36985,1,0,0:0:0:0:
203,132,37147,1,8,0:0:0:0:
324,267,37309,2,0,L|321:346,1,80,2|0,0:0|0:0,0:0:0:0:
292,167,37634,6,0,P|331:161|369:173,1,80,8|8,0:0|0:0,0:0:0:0:
324,267,37958,1,2,0:0:0:0:
199,195,38120,1,0,0:0:0:0:
199,195,38201,1,0,0:0:0:0:
199,195,38282,2,0,L|193:155,3,40,2|2|2|2,0:0|0:0|0:0|0:0,0:0:0:0:
236,274,38606,2,0,L|230:313,3,40,2|0|2|0,0:0|0:0|0:0|0:0,0:0:0:0:
324,267,38931,6,0,L|403:264,1,80,12|8,0:0|0:0,0:0:0:0:
193,155,39255,2,0,L|113:157,1,80,2|0,0:0|0:0,0:0:0:0:
341,184,39579,2,0,P|346:145|336:107,1,80,0|8,0:0|0:0,0:0:0:0:
175,236,39904,2,0,P|169:275|179:313,1,80,2|0,0:0|0:0,0:0:0:0:
268,148,40228,6,0,L|262:68,1,80,8|8,0:0|0:0,0:0:0:0:
152,126,40552,1,2,0:0:0:0:
272,232,40715,1,0,0:0:0:0:
340,66,40877,2,0,P|301:60|262:68,1,80,0|8,0:0|0:0,0:0:0:0:
113,205,41201,2,0,P|152:211|191:203,1,80,2|0,0:0|0:0,0:0:0:0:
301,144,41525,6,0,L|299:223,1,80,12|8,0:0|0:0,0:0:0:0:
296,328,41850,1,2,0:0:0:0:
387,186,42012,1,2,0:0:0:0:
213,182,42174,1,2,0:0:0:0:
377,283,42336,1,2,0:0:0:0:
344,73,42498,2,0,P|305:61|267:69,1,80,2|2,0:0|0:0,0:0:0:0:
300,189,42823,6,0,L|307:229,7,40
219,142,43471,2,0,L|213:182,7,40
267,69,44120,5,0,0:0:0:0:
267,69,45093,1,2,0:0:0:0:
194,110,45255,1,2,0:0:0:0:
121,69,45417,6,0,L|0:69,1,120.000004577637,2|0,0:0|0:0,0:0:0:0:
0,237,46066,2,0,L|121:237,1,120.000004577637,2|0,0:0|0:0,0:0:0:0:
120,237,46715,5,0,0:0:0:0:
120,237,47688,1,2,0:0:0:0:
81,311,47850,1,2,0:0:0:0:
144,366,48012,6,0,L|264:366,1,120.000004577637,2|0,0:0|0:0,0:0:0:0:
325,209,48661,2,0,L|205:209,1,120.000004577637,2|0,0:0|0:0,0:0:0:0:
205,209,49309,5,0,0:0:0:0:
205,209,50282,1,2,0:0:0:0:
265,150,50444,1,2,0:0:0:0:
325,209,50606,6,0,L|325:329,1,120.000004577637,2|0,0:0|0:0,0:0:0:0:
493,329,51255,2,0,L|493:209,1,120.000004577637,2|0,0:0|0:0,0:0:0:0:
493,209,51904,5,0,0:0:0:0:
493,209,52715,1,2,0:0:0:0:
428,262,52877,1,2,0:0:0:0:
377,195,53039,1,2,0:0:0:0:
312,248,53201,6,0,L|252:248,1,60.0000022888184,2|0,0:0|0:0,0:0:0:0:
223,169,53525,2,0,L|283:169,1,60.0000022888184
169,236,53850,2,0,L|109:236,1,60.0000022888184,2|0,0:0|0:0,0:0:0:0:
80,157,54174,2,0,L|140:157,1,60.0000022888184
223,169,54498,5,6,0:0:0:0:
223,169,55471,1,2,0:0:0:0:
206,86,55634,1,2,0:0:0:0:
285,113,55796,6,0,P|304:168|285:224,1,120.000004577637,6|0,0:0|0:0,0:0:0:0:
93,142,56444,2,0,P|74:86|93:30,1,120.000004577637,6|0,0:0|0:0,0:0:0:0:
93,30,57093,5,4,0:0:0:0:
93,30,58066,1,2,0:0:0:0:
115,111,58228,1,2,0:0:0:0:
174,51,58390,6,0,L|293:47,1,120.000004577637,6|0,0:0|0:0,0:0:0:0:
432,142,59039,2,0,L|312:145,1,120.000004577637,6|0,0:0|0:0,0:0:0:0:
312,145,59688,5,4,0:0:0:0:
377,300,60012,1,4,0:0:0:0:
432,142,60336,1,4,0:0:0:0:
497,297,60661,1,6,0:0:0:0:
436,239,60823,1,0,0:0:0:0:
377,300,60985,6,0,L|375:359,1,60.0000022888184,4|0,0:0|0:0,0:0:0:0:
497,297,61309,2,0,L|498:356,1,60.0000022888184,6|0,0:0|0:0,0:0:0:0:
432,142,61634,2,0,L|433:82,1,60.0000022888184,6|0,0:0|0:0,0:0:0:0:
312,145,61958,2,0,L|310:85,1,60.0000022888184,6|0,0:0|0:0,0:0:0:0:
369,202,62282,5,8,0:0:0:0:
271,300,62444,1,0,0:0:0:0:
312,145,62607,1,8,0:0:0:0:
348,279,62769,1,12,0:0:0:0:
235,166,62931,2,0,L|195:162,3,40,8|0|8|0,0:0|0:0|0:0|0:0,0:0:0:0:
214,243,63255,2,0,L|174:246,3,40,8|0|8|0,0:0|0:0|0:0|0:0,0:0:0:0:
131,323,63579,6,0,L|131:363,7,40,8|0|8|0|8|8|8|8,0:0|0:0|0:0|0:0|0:0|0:0|0:0|0:0,0:0:0:0:
51,323,64228,6,0,L|11:323,3,40,2|2|2|2,2:2|2:2|2:2|2:2,0:0:0:0:
44,241,64552,6,0,L|17:241,5,26.6666666666667,2|0|0|2|0|0,2:2|0:0|0:0|2:0|0:0|0:0,0:0:0:0:
44,241,64877,6,0,L|284:241,1,240,8|8,0:0|0:0,0:0:0:0:
284,241,65688,2,0,L|284:267,8,26.6666666666667,2|2|2|2|2|2|2|2|2,0:0|0:0|0:0|0:0|0:0|0:0|0:0|0:0|0:0,0:0:0:0:
283,241,66174,6,0,P|178:211|200:104,1,240,8|8,0:0|0:0,0:0:0:0:
200,104,66985,2,0,L|200:77,8,26.6666666666667,2|2|2|2|2|2|2|2|2,0:0|0:0|0:0|0:0|0:0|0:0|0:0|0:0|0:0,0:0:0:0:
200,104,67471,6,0,P|165:207|59:180,1,240,8|8,0:0|0:0,0:0:0:0:
59,180,68282,2,0,L|59:207,8,26.6666666666667,2|2|2|2|2|2|2|2|2,0:0|0:0|0:0|0:0|0:0|0:0|0:0|0:0|0:0,0:0:0:0:
128,136,68769,6,0,L|120:97,7,40,8|2|2|2|2|2|2|2,0:0|0:2|0:2|0:2|0:2|0:2|0:2|0:2,0:0:0:0:
176,203,69417,2,0,L|168:243,7,40,8|2|2|2|2|2|2|2,0:0|0:2|0:2|0:2|0:2|0:2|0:2|0:2,0:0:0:0:
176,203,70066,6,0,P|282:219|296:113,1,240,8|8,0:0|0:0,0:0:0:0:
296,113,70877,2,0,L|296:87,8,26.6666666666667,2|2|2|2|2|2|2|2|2,0:0|0:0|0:0|0:0|0:0|0:0|0:0|0:0|0:0,0:0:0:0:
296,113,71363,6,0,P|310:219|416:202,1,240,8|8,0:0|0:0,0:0:0:0:
416,202,72174,2,0,L|416:228,8,26.6666666666667,2|2|2|2|2|2|2|2|2,0:0|0:0|0:0|0:0|0:0|0:0|0:0|0:0|0:0,0:0:0:0:
416,202,72661,6,0,L|176:202,1,240,8|8,0:0|0:0,0:0:0:0:
176,202,73471,2,0,L|150:202,8,26.6666666666667,2|2|2|2|2|2|2|2|2,0:0|0:0|0:0|0:0|0:0|0:0|0:0|0:0|0:0,0:0:0:0:
111,131,73958,6,0,L|119:92,7,40,8|2|2|2|2|2|2|2,0:0|0:2|0:2|0:2|0:2|0:2|0:2|0:2,0:0:0:0:
69,204,74606,2,0,L|77:244,7,40,8|8|8|8|8|8|8|0,0:0|0:0|0:0|0:0|0:0|0:0|0:0|0:0,0:0:0:0:
69,204,75255,6,0,L|148:208,1,80,8|0,0:0|0:0,0:0:0:0:
181,93,75579,2,0,L|260:88,1,80,8|0,0:0|0:0,0:0:0:0:
288,246,75904,2,0,L|367:250,1,80,8|0,0:0|0:0,0:0:0:0:
400,135,76228,2,0,L|479:130,1,80,8|0,0:0|0:0,0:0:0:0:
414,320,76552,6,0,L|334:324,1,80,8|0,0:0|0:0,0:0:0:0:
302,209,76876,2,0,L|222:204,1,80,8|0,0:0|0:0,0:0:0:0:
195,362,77201,2,0,L|115:366,1,80,8|0,0:0|0:0,0:0:0:0:
83,251,77525,1,8,0:0:0:0:
250,290,77688,1,2,0:0:0:0:
159,113,77850,6,0,P|151:192|158:272,1,160,8|2,0:0|0:0,0:0:0:0:
256,342,78336,1,0,0:0:0:0:
353,272,78498,2,0,P|360:192|352:113,1,160,8|8,0:0|0:0,0:0:0:0:
256,42,78985,1,2,0:0:0:0:
159,114,79147,6,0,B|122:122|122:122|1:111,1,160,8|2,0:0|0:0,0:0:0:0:
62,215,79634,1,2,0:0:0:0:
62,215,79715,1,2,0:0:0:0:
62,215,79796,2,0,B|143:221|143:221|180:213,2,120,2|2|2,0:0|0:0|0:0,0:0:0:0:
1,111,80444,6,0,L|81:119,1,80,8|0,0:0|0:0,0:0:0:0:
196,46,80769,1,2,0:0:0:0:
181,213,80931,1,0,0:0:0:0:
295,139,81093,2,0,L|375:131,1,80,8|0,0:0|0:0,0:0:0:0:
490,204,81418,1,0,0:0:0:0:
475,37,81580,1,2,0:0:0:0:
295,139,81742,6,0,L|215:131,1,80,8|0,0:0|0:0,0:0:0:0:
264,39,82066,1,2,0:0:0:0:
323,224,82228,1,0,0:0:0:0:
323,224,82309,1,0,0:0:0:0:
323,224,82390,2,0,L|442:211,2,120,2|2|2,0:0|0:0|0:0,0:0:0:0:
178,304,83039,6,0,L|180:343,3,40,8|0|0|0,0:0|0:0|0:0|0:0,0:0:0:0:
95,254,83363,2,0,L|92:293,3,40,2|0|0|0,0:0|0:0|0:0|0:0,0:0:0:0:
175,189,83688,2,0,L|177:228,3,40
92,139,84012,2,0,L|89:178,3,40,2|0|0|0,0:0|0:0|0:0|0:0,0:0:0:0:
96,51,84336,6,0,L|56:56,7,40,8|0|0|0|2|0|2|2,0:0|0:0|0:0|0:0|0:0|0:0|0:0|0:0,0:0:0:0:
169,100,84985,2,0,L|208:94,7,40,2|0|2|2|0|2|2|2,0:0|0:0|0:0|0:0|0:0|0:0|0:0|0:0,0:0:0:0:
308,81,85634,6,0,L|306:100,31,20,2|0|2|0|2|0|2|0|2|0|2|0|2|0|2|0|2|0|2|0|2|0|2|0|2|0|2|0|2|0|2|0,0:0|0:0|0:0|0:0|0:0|0:0|0:0|0:0|0:0|0:0|0:0|0:0|0:0|0:0|0:0|0:0|0:0|0:0|0:0|0:0|0:0|0:0|0:0|0:0|0:0|0:0|0:0|0:0|0:0|0:0|0:0|0:0,0:0:0:0:
308,81,86931,6,0,P|387:109|426:36,2,180.000006866455,4|0|0,0:0|0:0|2:2,0:0:0:0:
308,81,88228,6,0,L|306:160,1,80,12|8,0:0|0:0,0:0:0:0:
218,223,88552,2,0,L|221:302,1,80,2|0,0:0|0:0,0:0:0:0:
221,323,88796,1,0,0:0:0:0:
221,342,88877,2,0,L|300:346,1,80,0|8,0:0|0:0,0:0:0:0:
409,239,89201,2,0,L|329:243,1,80,2|0,0:0|0:0,0:0:0:0:
309,246,89444,1,0,0:0:0:0:
289,247,89525,5,8,0:0:0:0:
267,87,89688,1,8,0:0:0:0:
454,155,89850,2,0,L|374:159,1,80,2|0,0:0|0:0,0:0:0:0:
354,162,90093,1,0,0:0:0:0:
334,163,90174,5,0,0:0:0:0:
312,5,90337,1,8,0:0:0:0:
499,71,90498,2,0,L|419:75,1,80,2|0,0:0|0:0,0:0:0:0:
399,78,90741,1,0,0:0:0:0:
379,79,90822,5,12,0:0:0:0:
289,247,90985,1,2,0:0:0:0:
266,67,91147,1,2,0:0:0:0:
384,189,91309,1,2,0:0:0:0:
384,189,91390,1,0,0:0:0:0:
384,189,91471,5,8,0:0:0:0:
180,141,91634,1,2,0:0:0:0:
379,79,91796,1,2,0:0:0:0:
339,317,91958,1,2,0:0:0:0:
339,317,92039,1,0,0:0:0:0:
339,317,92120,6,0,L|259:315,1,80,8|0,0:0|0:0,0:0:0:0:
237,325,92363,1,0,0:0:0:0:
215,335,92444,2,0,L|135:333,1,80,2|8,0:0|0:0,0:0:0:0:
113,343,92688,1,2,0:0:0:0:
91,353,92769,2,0,L|51:352,2,40,0|8|8,0:0|0:0|0:0,0:0:0:0:
176,241,93093,1,2,0:0:0:0:
70,141,93255,1,2,0:0:0:0:
70,141,93336,1,2,0:0:0:0:
70,141,93417,6,0,P|64:180|65:220,1,80,12|8,0:0|0:0,0:0:0:0:
176,93,93742,1,2,0:0:0:0:
293,169,93904,2,0,L|453:161,1,160,0|8,0:0|0:0,0:0:0:0:
314,253,94390,1,2,0:0:0:0:
367,60,94552,1,0,0:0:0:0:
367,60,94634,1,0,0:0:0:0:
367,60,94715,6,0,L|371:139,1,80,8|8,0:0|0:0,0:0:0:0:
381,300,95039,1,2,0:0:0:0:
219,169,95201,2,0,L|59:161,1,160,0|8,0:0|0:0,0:0:0:0:
198,253,95687,1,2,0:0:0:0:
145,60,95849,1,0,0:0:0:0:
145,60,95931,1,0,0:0:0:0:
145,60,96012,6,0,L|140:139,1,80,12|8,0:0|0:0,0:0:0:0:
131,300,96336,1,2,0:0:0:0:
293,169,96498,1,0,0:0:0:0:
293,169,96579,1,0,0:0:0:0:
293,169,96661,2,0,P|332:167|371:177,1,80,0|8,0:0|0:0,0:0:0:0:
424,318,96985,2,0,P|385:327|345:325,1,80,2|2,0:0|0:0,0:0:0:0:
329,322,97228,1,2,0:0:0:0:
313,317,97309,6,0,L|314:277,7,40,8|0|2|2|2|2|2|2,0:0|0:0|0:0|0:0|0:0|0:0|0:0|0:0,0:0:0:0:
228,328,97958,2,0,L|229:367,5,40,8|8|8|8|8|0,0:0|0:0|0:0|0:0|0:0|0:0,0:0:0:0:
221,304,98444,6,0,P|116:277|138:171,1,240.000009155274,12|0,0:0|0:0,0:0:0:0:
139,171,98931,6,0,L|59:174,1,80,2|0,0:0|0:0,0:0:0:0:
39,176,99174,1,0,0:0:0:0:
19,177,99255,2,0,L|13:137,3,40
89,100,99579,2,0,L|83:60,3,40,2|0|0|0,0:0|0:0|0:0|0:0,0:0:0:0:
139,171,99904,6,0,P|177:181|216:175,1,80,8|0,0:0|0:0,0:0:0:0:
184,69,100228,1,2,0:0:0:0:
242,262,100390,1,0,0:0:0:0:
242,262,100471,1,2,0:0:0:0:
242,262,100552,6,0,P|276:241|300:210,1,80
184,69,100877,1,2,0:0:0:0:
360,282,101039,1,2,0:0:0:0:
360,282,101120,1,0,0:0:0:0:
360,282,101201,6,0,L|399:277,5,40,8|0|0|0|2|0,0:0|0:0|0:0|0:0|0:0|0:0,0:0:0:0:
440,207,101688,2,0,L|400:202,5,40,8|0|0|0|2|0,0:0|0:0|0:0|0:0|0:0|0:0,0:0:0:0:
360,133,102174,6,0,L|399:128,3,40,8|0|0|0,0:0|0:0|0:0|0:0,0:0:0:0:
292,181,102498,6,0,L|276:217,3,40,0|0|8|0,0:0|0:0|0:0|0:0,0:0:0:0:
286,97,102823,2,0,L|261:65,3,40,2|2|2|2,0:0|0:0|0:0|0:0,0:0:0:0:
313,138,103147,1,8,0:0:0:0:
505,138,103309,1,8,0:0:0:0:
505,138,103390,1,0,0:0:0:0:
505,138,103471,1,0,0:0:0:0:
408,298,103634,6,0,L|408:138,1,160,12|0,0:0|0:0,0:0:0:0:
492,274,104120,1,2,0:0:0:0:
325,161,104282,1,0,0:0:0:0:
325,161,104363,1,0,0:0:0:0:
325,161,104444,1,8,0:0:0:0:
505,138,104606,1,0,0:0:0:0:
408,298,104769,1,2,0:0:0:0:
266,116,104931,6,0,L|425:107,1,160,8|0,0:0|0:0,0:0:0:0:
289,205,105417,1,2,0:0:0:0:
342,38,105579,1,0,0:0:0:0:
342,38,105661,1,0,0:0:0:0:
342,38,105742,1,8,0:0:0:0:
383,268,105904,1,0,0:0:0:0:
205,154,106066,1,2,0:0:0:0:
425,135,106228,6,0,L|420:294,1,160,8|0,0:0|0:0,0:0:0:0:
341,146,106715,1,2,0:0:0:0:
505,281,106877,1,0,0:0:0:0:
505,281,106958,1,0,0:0:0:0:
505,281,107039,1,8,0:0:0:0:
326,323,107201,1,0,0:0:0:0:
425,135,107363,1,2,0:0:0:0:
299,353,107525,6,0,L|219:343,1,80,8|0,0:0|0:0,0:0:0:0:
217,190,107850,1,0,0:0:0:0:
240,193,107931,1,0,0:0:0:0:
263,196,108012,1,2,0:0:0:0:
120,268,108174,1,0,0:0:0:0:
97,265,108255,1,0,0:0:0:0:
74,262,108336,1,8,0:0:0:0:
216,110,108498,1,0,0:0:0:0:
219,343,108661,1,2,0:0:0:0:
103,177,108823,6,0,L|262:195,1,160,8|0,0:0|0:0,0:0:0:0:
120,268,109309,1,2,0:0:0:0:
216,110,109471,1,0,0:0:0:0:
216,110,109552,1,0,0:0:0:0:
216,110,109634,1,8,0:0:0:0:
219,343,109796,1,0,0:0:0:0:
66,171,109958,1,2,0:0:0:0:
335,109,110120,6,0,L|341:268,1,160,8|0,0:0|0:0,0:0:0:0:
216,110,110606,1,2,0:0:0:0:
416,192,110769,1,8,0:0:0:0:
416,192,110850,1,0,0:0:0:0:
416,192,110931,1,2,0:0:0:0:
282,314,111093,1,8,0:0:0:0:
333,69,111255,1,2,0:0:0:0:
460,270,111417,6,0,L|380:276,1,80,8|0,0:0|0:0,0:0:0:0:
195,289,111742,1,2,0:0:0:0:
333,69,111904,1,2,0:0:0:0:
343,367,112066,1,2,0:0:0:0:
188,159,112228,2,0,L|307:167,2,120,2|2|2,0:0|0:0|0:0,0:0:0:0:
256,192,112796,12,0,114012,0:0:0:0:
256,192,114174,6,0,L|216:192,3,40
256,192,115471,6,0,L|296:192,3,40,2|0|0|0,0:0|0:0|0:0|0:0,0:0:0:0:
256,192,116769,6,0,L|256:152,3,40,2|0|0|0,0:0|0:0|0:0|0:0,0:0:0:0:
256,192,118066,6,0,L|256:352,1,160,2|2,0:0|0:0,0:0:0:0:
256,192,119547,6,0,L|216:190,1,40,2|0,0:0|0:0,0:0:0:0:
200,111,119926,2,0,L|239:112,1,40
256,192,120917,6,0,L|295:190,1,40,2|0,0:0|0:0,0:0:0:0:
312,111,121296,2,0,L|272:112,1,40
256,192,122439,6,0,L|216:190,1,40,2|0,0:0|0:0,0:0:0:0:
165,241,122930,1,0,0:0:0:0:
114,292,123176,2,0,L|54:288,2,60
256,192,124652,12,0,126865,0:0:0:0:
