osu file format v14

[General]
AudioFilename: -+.mp3
AudioLeadIn: 0
PreviewTime:86931
Countdown: 0
SampleSet: Normal
StackLeniency: 0.2
Mode: 0
LetterboxInBreaks: 0
WidescreenStoryboard: 1
EpilepsyWarning: 1

[Editor]
Bookmarks: 2607,12985,23363,28552,33742,44120,54498,64877,75255,80444,88147,93417,98931,103796,108985,114174,119547
DistanceSpacing: 2.5
BeatDivisor: 6
GridSize: 4
TimelineZoom: 8

[Metadata]
Title:-+
TitleUnicode:-+
Artist:daisan
ArtistUnicode:daisan
Creator:Starfy
Version:Extreme
Source:BOF2013
Tags:minus plus konzertsaal - THE BMS OF FIGHTERS 2013 Dirt Art Color Teller xellox piano StarForYou Kyle Y IamKwaN happy623 -N_a_n_a_k_o- Nanako Kencho Chaoslitz [ Drop ] choikapo Regou Rizia Kawaiwkyik Nakano Itsuki StarrStyx Prophecy aabc271 Nardoxyribonucleic Skylish ll-oscar autofanboy alienflybot hokin1995 pwhk hong kong hk muse dash electronic instrumental
BeatmapID:1870149
BeatmapSetID:389617

[Difficulty]
HPDrainRate:6
CircleSize:4.5
OverallDifficulty:9
ApproachRate:9.5
SliderMultiplier:1.9
SliderTickRate:1

[Events]
//Background and Video events
0,0,"BG.png",0,0
//Break Periods
//Storyboard Layer 0 (Background)
//Storyboard Layer 1 (Fail)
//Storyboard Layer 2 (Pass)
//Storyboard Layer 3 (Foreground)
//Storyboard Layer 4 (Overlay)
//Storyboard Sound Samples

[TimingPoints]
2607,324.324324324324,4,2,1,20,1,0
2607,-400,4,2,1,20,0,0
12985,-400,4,2,2,30,0,0
13147,-400,4,2,1,30,0,0
22715,-200,4,2,1,30,0,0
23363,-66.6666666666667,4,1,2,80,0,1
23525,-66.6666666666667,4,1,2,70,0,1
24174,-133.333333333333,4,1,2,70,0,1
24336,-66.6666666666667,4,1,2,70,0,1
25471,-133.333333333333,4,1,2,70,0,1
25634,-66.6666666666667,4,1,2,70,0,1
26769,-133.333333333333,4,1,2,70,0,1
26931,-66.6666666666667,4,1,2,70,0,1
29363,-133.333333333333,4,1,2,70,0,1
29525,-66.6666666666667,4,1,2,70,0,1
30661,-133.333333333333,4,1,2,70,0,1
30823,-66.6666666666667,4,1,2,70,0,1
33742,-80,4,1,2,60,0,0
42823,-66.6666666666667,4,1,2,60,0,0
44120,-400,4,1,3,40,0,0
45093,-400,4,2,1,40,0,0
54498,-200,4,2,2,40,0,0
54579,-200,4,2,1,40,0,0
62282,-200,4,1,1,50,0,0
62606,-200,4,1,1,60,0,0
63579,-200,4,1,1,70,0,0
64228,-133.333333333333,4,1,1,70,0,0
64877,-100,4,1,1,70,0,0
65688,-100,4,1,6,70,0,0
66174,-75,4,1,1,70,0,0
66985,-100,4,1,6,70,0,0
67471,-60,4,1,1,70,0,0
68282,-100,4,1,6,70,0,0
68769,-50,4,1,1,70,0,0
70066,-100,4,1,1,70,0,0
70877,-100,4,1,6,70,0,0
71363,-75,4,1,1,70,0,0
72174,-100,4,1,6,70,0,0
72661,-60,4,1,1,70,0,0
73471,-100,4,1,6,70,0,0
73958,-50,4,1,1,70,0,0
75255,-100,4,1,1,50,0,0
80444,-100,4,1,1,60,0,0
83039,-80,4,1,1,70,0,0
85634,-66.6666666666667,4,1,1,40,0,0
85715,-66.6666666666667,4,1,1,42,0,0
85796,-66.6666666666667,4,1,1,44,0,0
85877,-66.6666666666667,4,1,1,46,0,0
85958,-66.6666666666667,4,1,1,48,0,0
86039,-66.6666666666667,4,1,1,50,0,0
86120,-66.6666666666667,4,1,1,52,0,0
86201,-66.6666666666667,4,1,1,54,0,0
86282,-66.6666666666667,4,1,1,56,0,0
86363,-66.6666666666667,4,1,1,58,0,0
86444,-66.6666666666667,4,1,1,60,0,0
86525,-66.6666666666667,4,1,1,62,0,0
86606,-66.6666666666667,4,1,1,64,0,0
86688,-66.6666666666667,4,1,1,66,0,0
86769,-66.6666666666667,4,1,1,68,0,0
86850,-66.6666666666667,4,1,1,70,0,0
86931,-200,4,1,5,80,0,1
87012,-200,4,1,1,40,0,0
87417,-200,4,1,1,50,0,0
87742,-200,4,1,1,5,0,0
87823,-200,4,1,1,20,0,0
87904,-120,4,1,1,60,0,0
88147,-100,4,1,1,20,0,0
88228,-66.6666666666667,4,1,2,70,0,1
89039,-133.333333333333,4,1,2,70,0,1
89201,-66.6666666666667,4,1,2,70,0,1
90336,-133.333333333333,4,1,2,70,0,1
90498,-66.6666666666667,4,1,2,70,0,1
90904,-66.6666666666667,4,1,1,20,0,1
90985,-66.6666666666667,4,1,0,70,0,1
91025,-66.6666666666667,4,1,1,20,0,1
91147,-66.6666666666667,4,1,2,70,0,1
91188,-66.6666666666667,4,1,1,20,0,1
91309,-66.6666666666667,4,1,0,70,0,1
91350,-66.6666666666667,4,1,1,20,0,1
91471,-66.6666666666667,4,1,2,70,0,1
91552,-66.6666666666667,4,1,1,20,0,1
91634,-66.6666666666667,4,1,0,70,0,1
91674,-66.6666666666667,4,1,1,20,0,1
91796,-66.6666666666667,4,1,2,70,0,1
91836,-66.6666666666667,4,1,1,20,0,1
91958,-66.6666666666667,4,1,0,70,0,1
91998,-66.6666666666667,4,1,1,20,0,1
92120,-66.6666666666667,4,1,2,70,0,1
94228,-133.333333333333,4,1,2,70,0,1
94390,-66.6666666666667,4,1,2,70,0,1
95525,-133.333333333333,4,1,2,70,0,1
95688,-66.6666666666667,4,1,2,70,0,1
96823,-133.333333333333,4,1,2,70,0,1
96985,-66.6666666666667,4,1,2,70,0,1
98444,-133.333333333333,4,1,1,70,0,1
98769,-133.333333333333,4,1,1,20,0,1
98931,-66.6666666666667,4,1,2,70,0,1
102174,-66.6666666666667,4,1,2,80,0,1
103471,-133.333333333333,4,1,1,80,0,1
103634,-66.6666666666667,4,1,2,70,0,1
111417,-50,4,1,2,70,0,1
112715,-66.6666666666667,4,1,2,70,0,1
114012,-100,4,1,1,5,0,1
114174,-400,4,1,3,40,0,0
114215,-400,4,2,1,40,0,0
118066,370.37037037037,4,2,1,35,1,0
118066,-400,4,2,1,35,0,0
119547,379.746835443038,4,2,1,30,1,0
119547,-400,4,2,1,30,0,0
120917,413.793103448276,4,2,1,25,1,0
120917,-400,4,2,1,25,0,0
122439,491.803278688525,4,2,1,20,1,0
122439,-400,4,2,1,20,0,0

[Colours]
Combo1 : 41,214,166
Combo2 : 128,0,255
Combo3 : 128,255,255
Combo4 : 3,90,252

[HitObjects]
32,352,2607,6,0,B|36:320|36:320|28:292|28:292|32:256,1,95,2|0,0:0|0:0,0:0:0:0:
100,192,3904,2,0,B|96:224|96:224|104:252|104:252|100:288,1,95,2|0,0:0|0:0,0:0:0:0:
32,259,5201,2,0,B|96:251|96:251|160:267|160:267|224:259,1,190,2|2,0:0|0:0,0:0:0:0:
219,260,7796,6,0,B|267:252|275:268|313:260,1,95,2|0,0:0|0:0,0:0:0:0:
384,192,9093,2,0,B|336:200|328:184|289:191,1,95,2|0,0:0|0:0,0:0:0:0:
313,259,10390,2,0,P|404:288|476:224,1,190,2|2,0:0|0:0,0:0:0:0:
472,234,12336,6,0,L|481:233,15,5.9375
473,232,12985,6,0,L|469:156,1,71.25,6|0,0:0|0:0,0:0:0:0:
392,192,13634,2,0,L|388:116,1,71.25,2|0,0:0|0:0,0:0:0:0:
311,152,14282,6,0,P|276:144|240:148,1,71.25,2|0,0:0|0:0,0:0:0:0:
201,221,14931,2,0,P|236:229|272:225,1,71.25,2|0,0:0|0:0,0:0:0:0:
311,152,15579,6,0,L|303:56,1,95,2|2,0:0|0:0,0:0:0:0:
236,212,16877,2,0,L|228:116,1,95,2|2,0:0|0:0,0:0:0:0:
161,272,18174,6,0,L|113:276,1,47.5,6|0,0:0|0:0,0:0:0:0:
172,284,18823,2,0,L|124:288,1,47.5,6|0,0:0|0:0,0:0:0:0:
256,208,19471,2,0,L|208:204,1,47.5,6|0,0:0|0:0,0:0:0:0:
267,196,20120,2,0,L|219:192,1,47.5,6|0,0:0|0:0,0:0:0:0:
362,260,20769,5,6,0:0:0:0:
373,272,20931,1,6,0:0:0:0:
468,208,21093,1,6,0:0:0:0:
479,196,21255,1,6,0:0:0:0:
362,260,21417,5,6,0:0:0:0:
373,272,21579,1,6,0:0:0:0:
468,208,21741,1,6,0:0:0:0:
479,196,21903,1,6,0:0:0:0:
362,260,22066,6,0,L|354:332,1,71.25,6|0,0:0|0:0,0:0:0:0:
256,192,22715,5,2,0:0:0:0:BG_002.ogg
256,192,22796,1,2,0:0:0:0:
256,192,22877,1,2,0:0:0:0:
256,192,22958,1,2,0:0:0:0:
250,169,23039,6,0,L|248:158,1,11.875,2|2,0:0|0:0,0:0:0:0:
280,197,23120,2,0,L|291:199,1,11.875,2|2,0:0|0:0,0:0:0:0:
240,209,23201,2,0,L|232:217,1,11.875,2|2,0:0|0:0,0:0:0:0:
260,277,23282,5,0,0:0:0:0:
235,287,23363,6,0,P|188:272|169:243,1,71.2500027179719,12|0,0:0|2:0,0:0:0:0:
88,192,23525,2,0,P|76:158|84:124,1,71.2500027179719,8|0,0:0|2:0,0:0:0:0:
12,325,23688,2,0,B|34:287|66:255|130:255|176:289|176:289|240:281|272:209|160:201|175:256,1,356.25001358986,2|0,0:0|2:0,0:0:0:0:
102,346,24174,6,0,L|107:381,1,35.625001358986,8|0,0:0|2:0,0:0:0:0:
175,257,24336,6,0,B|255:265|255:265|303:249|303:249|385:256,1,213.750008153916,2|0,0:0|2:0,0:0:0:0:
316,360,24661,6,0,L|308:289,1,71.2500027179719,8|0,0:0|2:0,0:0:0:0:
396,188,24823,2,0,L|403:258,1,71.2500027179719,8|0,0:0|2:0,0:0:0:0:
233,375,24985,2,0,B|270:383|270:383|302:367|342:375|342:375|329:359|316:360,1,142.500005435944,2|0,0:0|2:0,0:0:0:0:
320,272,25228,1,8,0:0:0:0:
320,272,25309,2,0,L|312:201,1,71.2500027179719,0|0,0:0|2:0,0:0:0:0:
404,135,25471,6,0,L|408:171,1,35.625001358986,8|0,0:0|2:0,0:0:0:0:
308,289,25634,6,0,L|292:147,1,142.500005435944,2|0,0:0|2:0,0:0:0:0:
403,259,25877,1,0,0:0:0:0:
403,259,25958,6,0,P|435:275|471:271,1,71.2500027179719,8|0,0:0|2:0,0:0:0:0:
472,147,26120,2,0,P|469:111|448:82,1,71.2500027179719,8|0,0:0|2:0,0:0:0:0:
340,143,26282,2,0,P|273:137|252:73,1,142.500005435944,2|0,0:0|2:0,0:0:0:0:
188,189,26525,2,0,P|226:134|292:148,1,142.500005435944,8|0,0:0|2:0,0:0:0:0:
223,34,26769,6,0,L|219:82,1,35.625001358986,8|0,0:0|2:0,0:0:0:0:
100,145,26931,6,0,B|156:97|224:113|224:113|248:149|292:148,1,213.750008153916,2|0,0:0|2:0,0:0:0:0:
398,210,27255,6,0,B|360:185|360:185|264:192,1,142.500005435944,8|0,0:0|2:0,0:0:0:0:
318,80,27498,1,8,0:0:0:0:
318,80,27579,2,0,L|326:8,1,71.2500027179719,2|0,0:0|2:0,0:0:0:0:
292,148,27742,1,8,0:0:0:0:
292,148,27823,1,2,0:0:0:0:
292,148,27904,5,8,0:0:0:0:
220,153,27985,1,2,0:0:0:0:
149,158,28066,1,8,0:0:0:0:
78,163,28147,1,8,0:0:0:0:
109,99,28228,6,0,L|117:27,1,71.2500027179719,2|0,0:0|2:0,0:0:0:0:
189,217,28391,1,2,0:0:0:0:
191,252,28472,1,2,0:0:0:0:
193,287,28552,6,0,L|185:367,1,71.2500027179719,8|0,0:0|2:0,0:0:0:0:
288,256,28715,2,0,L|280:336,1,71.2500027179719,8|0,0:0|2:0,0:0:0:0:
98,318,28877,2,0,L|83:176,1,142.500005435944,2|0,0:0|2:0,0:0:0:0:
68,44,29120,2,0,B|140:36|140:36|109:99,1,142.500005435944,8|0,0:0|2:0,0:0:0:0:
41,105,29363,6,0,L|-7:97,1,35.625001358986,8|0,0:0|2:0,0:0:0:0:
149,158,29525,6,0,B|221:134|221:134|285:158|285:158|376:120,1,213.750008153916,2|0,0:0|2:0,0:0:0:0:
344,96,29850,6,0,P|376:104|424:104,1,71.2500027179719,8|0,0:0|2:0,0:0:0:0:
304,192,30012,2,0,P|336:200|384:200,1,71.2500027179719,8|0,0:0|2:0,0:0:0:0:
512,312,30174,2,0,P|444:325|407:384,1,142.500005435944,2|0,0:0|2:0,0:0:0:0:
496,288,30417,2,0,P|512:216|504:144,1,142.500005435944,8|0,0:0|2:0,0:0:0:0:
436,144,30661,6,0,P|436:168|444:184,1,35.625001358986,8|0,0:0|2:0,0:0:0:0:
512,72,30823,6,0,B|500:0|436:0|436:0|456:8|464:24,1,142.500005435944,2|0,0:0|2:0,0:0:0:0:
408,72,31066,1,8,0:0:0:0:
408,72,31147,6,0,L|336:68,1,71.2500027179719,8|0,0:0|2:0,0:0:0:0:
256,184,31309,2,0,L|328:180,1,71.2500027179719,8|0,0:0|2:0,0:0:0:0:
212,44,31471,5,2,0:0:0:0:
179,57,31552,1,0,0:0:0:0:
144,54,31633,1,0,0:0:0:0:
114,34,31714,1,0,0:0:0:0:
102,1,31796,5,0,0:0:0:0:
130,22,31877,1,0,0:0:0:0:
144,54,31958,1,8,0:0:0:0:
142,89,32039,1,0,0:0:0:0:
120,117,32120,5,2,0:0:0:0:
124,82,32201,1,0,0:0:0:0:
144,54,32282,1,8,0:0:0:0:
176,38,32363,1,2,0:0:0:0:
212,44,32444,5,8,0:0:0:0:
256,96,32525,2,0,L|340:92,1,71.2500027179719,2|0,0:0|0:0,0:0:0:0:
505,148,32688,5,8,0:0:0:0:
461,200,32769,2,0,L|377:196,1,71.2500027179719,2|0,0:0|0:0,0:0:0:0:
212,252,32932,5,8,0:0:0:0:
256,304,33012,1,2,0:0:0:0:
300,356,33093,5,8,0:0:0:0:
324,292,33174,1,2,0:0:0:0:
348,228,33255,1,8,0:0:0:0:
372,164,33336,1,2,0:0:0:0:
329,112,33417,5,2,0:0:0:0:
352,48,33498,1,2,0:0:0:0:
418,36,33580,1,2,0:0:0:0:
462,88,33661,1,2,0:0:0:0:
438,152,33742,6,0,L|374:144,1,59.375,12|0,0:0|2:0,0:0:0:0:
305,176,33904,2,0,L|241:168,1,59.375,8|0,0:0|2:0,0:0:0:0:
172,200,34066,1,2,0:0:0:0:
438,152,34228,5,8,0:0:0:0:
408,148,34309,1,0,0:0:0:0:
305,176,34471,1,0,0:0:0:0:
275,172,34552,1,8,0:0:0:0:
172,200,34715,1,2,0:0:0:0:
38,223,34877,1,0,0:0:0:0:
68,227,34958,1,0,0:0:0:0:
98,231,35039,6,0,L|106:295,1,59.375,8|0,0:0|2:0,0:0:0:0:
184,272,35201,2,0,L|192:336,1,59.375,8|0,0:0|2:0,0:0:0:0:
270,313,35363,1,0,0:0:0:0:
98,231,35525,5,0,0:0:0:0:
119,241,35606,1,8,0:0:0:0:
140,251,35687,1,0,0:0:0:0:
162,261,35768,1,0,0:0:0:0:
184,272,35850,1,8,0:0:0:0:
270,313,36012,1,2,0:0:0:0:
400,333,36173,1,0,0:0:0:0:
378,344,36255,1,8,0:0:0:0:
356,354,36336,6,0,L|364:290,1,59.375,8|0,0:0|2:0,0:0:0:0:
304,240,36498,2,0,L|311:181,1,59.375,8|0,0:0|2:0,0:0:0:0:
252,126,36661,1,2,0:0:0:0:
356,354,36823,5,8,0:0:0:0:
359,324,36904,1,0,0:0:0:0:
304,240,37066,1,0,0:0:0:0:
307,210,37147,1,8,0:0:0:0:
252,126,37309,1,2,0:0:0:0:
187,11,37471,1,8,0:0:0:0:
190,41,37553,1,8,0:0:0:0:
193,71,37634,6,0,L|251:79,1,59.375,8|0,0:0|2:0,0:0:0:0:
256,160,37796,2,0,L|314:168,1,59.375,8|0,0:0|2:0,0:0:0:0:
319,249,37958,1,2,0:0:0:0:
193,71,38120,1,8,0:0:0:0:
208,93,38201,1,2,0:0:0:0:
224,115,38282,1,8,0:0:0:0:
240,137,38363,1,2,0:0:0:0:
256,160,38444,5,8,0:0:0:0:
233,209,38525,1,8,0:0:0:0:
209,257,38606,1,2,0:0:0:0:
390,380,38769,1,2,0:0:0:0:
386,351,38850,1,2,0:0:0:0:
382,322,38931,6,0,P|390:290|390:258,1,59.375,12|0,0:0|2:0,0:0:0:0:
328,216,39093,2,0,P|320:184|320:152,1,59.375,8|0,0:0|2:0,0:0:0:0:
382,110,39255,1,2,0:0:0:0:
382,322,39417,5,8,0:0:0:0:
389,293,39498,1,0,0:0:0:0:
328,216,39661,1,0,0:0:0:0:
320,187,39742,1,8,0:0:0:0:
382,110,39904,1,2,0:0:0:0:
310,3,40066,1,0,0:0:0:0:
311,33,40147,1,0,0:0:0:0:
319,62,40228,6,0,P|287:54|255:54,1,59.375,8|0,0:0|2:0,0:0:0:0:
232,128,40390,2,0,P|202:126|173:119,1,59.375,8|0,0:0|2:0,0:0:0:0:
145,45,40552,1,2,0:0:0:0:
319,62,40715,5,0,0:0:0:0:
297,78,40796,1,8,0:0:0:0:
275,95,40877,1,0,0:0:0:0:
253,111,40958,1,0,0:0:0:0:
232,128,41039,1,8,0:0:0:0:
145,45,41201,1,2,0:0:0:0:
57,110,41363,1,0,0:0:0:0:
86,117,41444,1,8,0:0:0:0:
115,119,41525,6,0,P|107:151|83:175,1,59.375,8|0,0:0|2:0,0:0:0:0:
168,216,41688,2,0,P|143:231|113:234,1,59.375,8|0,0:0|2:0,0:0:0:0:
136,322,41850,2,0,P|107:315|84:296,1,59.375,2|0,0:0|2:0,0:0:0:0:
38,374,42012,2,0,P|22:349|19:319,1,59.375,2|0,0:0|2:0,0:0:0:0:
8,320,42174,6,0,P|10:349|26:374,1,59.375,2|0,0:0|2:0,0:0:0:0:
145,314,42336,2,0,P|167:332|196:339,1,59.375,2|0,0:0|2:0,0:0:0:0:
237,212,42498,2,0,P|266:209|291:193,1,59.375,2|0,0:0|2:0,0:0:0:0:
229,74,42661,2,0,P|247:51|254:22,1,59.375,2|0,0:0|2:0,0:0:0:0:
232,0,42823,6,0,P|208:26|199:60,1,71.2500027179719,8|8,0:0|0:0,0:0:0:0:
236,244,42985,1,8,0:0:0:0:
480,352,43147,1,8,0:0:0:0:
444,356,43228,1,8,0:0:0:0:
408,360,43309,1,2,0:0:0:0:
372,364,43390,1,2,0:0:0:0:
336,368,43471,6,0,L|352:296,1,71.2500027179719,8|0,0:0|2:0,0:0:0:0:
291,193,43634,1,2,0:0:0:0:
220,171,43715,1,2,0:0:0:0:
165,222,43796,1,2,0:0:0:0:
181,294,43877,1,2,0:0:0:0:
252,316,43958,1,2,0:0:0:0:
307,266,44039,1,2,0:0:0:0:
236,244,44120,5,4,0:0:0:0:
236,244,45093,5,2,0:0:0:0:
236,244,45255,1,2,0:0:0:0:
236,244,45417,5,2,0:0:0:0:
320,158,45742,1,2,0:0:0:0:
201,178,46066,1,2,0:0:0:0:
309,231,46390,1,2,0:0:0:0:
252,124,47688,5,2,0:0:0:0:
252,124,47850,1,2,0:0:0:0:
252,124,48012,5,2,0:0:0:0:
132,145,48336,1,2,0:0:0:0:
241,198,48661,1,2,0:0:0:0:
183,90,48985,1,2,0:0:0:0:
167,210,50282,5,2,0:0:0:0:
167,210,50444,1,2,0:0:0:0:
167,210,50606,5,2,0:0:0:0:
262,283,50931,1,2,0:0:0:0:
372,237,51255,1,2,0:0:0:0:
387,118,51580,1,2,0:0:0:0:
292,45,52715,5,2,0:0:0:0:
292,45,52877,1,2,0:0:0:0:
292,45,53039,1,2,0:0:0:0:
292,45,53201,5,2,0:0:0:0:
181,90,53525,1,2,0:0:0:0:
226,201,53850,1,2,0:0:0:0:
337,156,54174,1,2,0:0:0:0:
32,32,54498,6,0,L|40:128,2,95,4|0|0,0:0|0:0|0:0,0:0:0:0:
128,48,55471,1,2,0:0:0:0:
128,48,55634,1,2,0:0:0:0:
128,48,55796,6,0,L|136:144,1,95,2|2,0:0|0:0,0:0:0:0:
224,64,56444,2,0,L|232:160,1,95,2|2,0:0|0:0,0:0:0:0:
320,80,57093,6,0,L|416:72,2,95
304,175,58066,1,2,0:0:0:0:
304,175,58229,1,2,0:0:0:0:
304,175,58390,6,0,L|398:167,1,95,2|2,0:0|0:0,0:0:0:0:
288,272,59039,2,0,L|382:264,1,95,2|2,0:0|0:0,0:0:0:0:
272,369,59688,5,0,0:0:0:0:
272,369,60012,1,0,0:0:0:0:
272,369,60336,1,0,0:0:0:0:
272,369,60661,2,0,L|280:321,1,47.5,2|2,0:0|0:0,0:0:0:0:
208,240,60985,6,0,L|215:286,1,47.5,2|2,0:0|0:0,0:0:0:0:
288,360,61309,2,0,L|296:312,1,47.5,2|2,0:0|0:0,0:0:0:0:
192,231,61634,6,0,L|199:277,1,47.5,2|2,0:0|0:0,0:0:0:0:
304,351,61958,2,0,L|312:303,1,47.5,2|2,0:0|0:0,0:0:0:0:
176,222,62282,6,0,L|183:268,1,47.5
256,192,62606,2,0,L|263:238,1,47.5
336,162,62931,5,0,0:0:0:0:
343,115,63093,1,0,0:0:0:0:
416,192,63255,5,0,0:0:0:0:
423,146,63417,1,0,0:0:0:0:
495,224,63579,6,0,L|500:256,3,23.75
416,252,63904,6,0,L|420:284,3,23.75
336,272,64228,6,0,L|340:243,7,17.812500679493
256,292,64552,6,0,L|260:263,5,23.7500009059906
274,378,64877,6,0,B|258:274|258:274|298:218|298:218|282:90,1,285,8|8,0:0|0:0,0:0:0:0:
274,102,65688,6,0,L|266:78,4,15.8333333333333
286,118,65850,2,0,L|269:136,4,15.8333333333333
293,99,66012,2,0,L|317:104,4,15.8333333333333
284,107,66174,6,0,B|256:135|256:135|216:123|224:59|288:23|340:63|336:127|336:127|328:184|376:232|420:220,1,380,8|8,0:0|0:0,0:0:0:0:
398,213,66985,6,0,L|403:188,4,15.8333333333333
400,232,67147,2,0,L|376:239,4,15.8333333333333
415,219,67309,2,0,L|433:235,4,15.8333333333333
404,222,67471,6,0,B|340:182|284:270|212:198|212:198|308:150|364:206|372:294|276:406,1,475,8|8,0:0|0:0,0:0:0:0:
319,334,68282,6,0,L|335:314,4,15.8333333333333
311,352,68444,2,0,L|286:346,4,15.8333333333333
330,348,68606,2,0,L|337:370,4,15.8333333333333
319,345,68769,6,0,L|327:241,1,95,8|0,0:0|0:0,0:0:0:0:
416,288,68931,2,0,L|423:193,1,95
204,284,69093,6,0,L|196:180,1,95
107,227,69255,2,0,L|99:132,1,95
319,223,69417,6,0,L|327:119,1,95,2|8,0:0|0:0,0:0:0:0:
416,164,69579,2,0,L|423:69,1,95,8|8,0:0|0:0,0:0:0:0:
204,162,69742,6,0,L|196:58,1,95,8|8,0:0|0:0,0:0:0:0:
107,105,69904,2,0,L|99:10,1,95,8|0,0:0|0:0,0:0:0:0:
32,352,70066,6,0,B|96:336|96:336|160:368|160:368|240:352|240:352|176:320,1,285,8|8,0:0|0:0,0:0:0:0:
175,332,70877,6,0,P|163:334|151:341,4,15.8333333333333
173,314,71039,2,0,P|176:303|176:288,4,15.8333333333333
191,320,71201,2,0,P|198:328|211:336,4,15.8333333333333
181,322,71363,6,0,B|157:298|109:314|109:314|165:354|165:354|213:338|253:362|253:362|293:298|381:330,1,380,8|8,0:0|0:0,0:0:0:0:
370,334,72174,6,0,P|358:329|344:329,4,15.8333333333333
377,317,72336,2,0,P|385:308|392:295,4,15.8333333333333
389,331,72498,2,0,P|391:341|398:354,4,15.8333333333333
380,329,72661,6,0,B|404:273|356:233|356:233|364:185|404:169|404:169|464:95|388:33|316:55|287:144|356:185|396:161,1,475,8|8,0:0|0:0,0:0:0:0:
390,168,73471,6,0,P|378:170|365:176,4,15.8333333333333
387,150,73633,2,0,P|390:139|390:124,4,15.8333333333333
404,156,73795,2,0,P|410:163|423:171,4,15.8333333333333
397,161,73958,6,0,P|357:161|309:129,1,95,8|0,0:0|0:0,0:0:0:0:
220,156,74120,2,0,P|191:127|180:71,1,95
307,309,74282,6,0,P|307:269|339:221,1,95,8|0,0:0|0:0,0:0:0:0:
312,132,74444,2,0,P|340:103|396:92,1,95
159,219,74607,6,0,P|199:219|247:251,1,95,8|2,0:0|0:0,0:0:0:0:
336,224,74769,2,0,P|364:252|375:308,1,95,8|8,0:0|0:0,0:0:0:0:
249,71,74931,6,0,P|249:111|217:159,1,95,8|2,0:0|0:0,0:0:0:0:
244,248,75093,2,0,P|215:276|159:287,1,95,8|8,0:0|0:0,0:0:0:0:
480,352,75255,6,0,L|488:256,1,95,8|0,0:0|0:0,0:0:0:0:
416,192,75579,1,8,0:0:0:0:
416,192,75742,2,0,L|408:136,1,47.5
408,360,75904,6,0,L|416:264,1,95,8|0,0:0|0:0,0:0:0:0:
344,200,76227,1,8,0:0:0:0:
344,200,76390,2,0,L|336:144,1,47.5
336,368,76552,6,0,L|344:272,1,95,8|0,0:0|0:0,0:0:0:0:
272,208,76877,1,8,0:0:0:0:
272,208,77039,2,0,L|264:152,1,47.5
264,376,77201,5,8,0:0:0:0:
336,368,77363,1,8,0:0:0:0:
408,360,77525,1,8,0:0:0:0:
223,248,77688,1,2,0:0:0:0:
32,352,77850,6,0,L|24:256,1,95,8|8,0:0|0:0,0:0:0:0:
96,192,78174,1,2,0:0:0:0:
96,192,78337,2,0,L|104:136,1,47.5,8|0,0:0|0:0,0:0:0:0:
104,360,78499,6,0,L|96:264,1,95,8|0,0:0|0:0,0:0:0:0:
168,200,78822,1,8,0:0:0:0:
168,200,78985,2,0,L|176:144,1,47.5,2|0,0:0|0:0,0:0:0:0:
176,368,79147,6,0,L|168:272,1,95,8|8,0:0|0:0,0:0:0:0:
240,208,79471,1,2,0:0:0:0:
240,208,79634,1,8,0:0:0:0:
243,184,79715,1,8,0:0:0:0:
246,160,79796,6,0,L|239:112,1,47.5,2|0,0:0|0:0,0:0:0:0:
255,281,79958,1,8,0:0:0:0:
251,328,80039,1,2,0:0:0:0:
248,376,80120,1,8,0:0:0:0:
312,216,80282,1,2,0:0:0:0:
32,32,80444,5,8,0:0:0:0:
41,52,80525,1,0,0:0:0:0:
56,69,80606,1,8,0:0:0:0:
74,81,80688,1,0,0:0:0:0:
96,88,80769,1,2,0:0:0:0:
119,88,80850,1,0,0:0:0:0:
142,83,80931,1,8,0:0:0:0:
160,71,81013,1,0,0:0:0:0:
176,54,81093,5,8,0:0:0:0:
195,42,81174,1,0,0:0:0:0:
216,36,81255,1,8,0:0:0:0:
239,35,81336,1,0,0:0:0:0:
260,41,81417,1,8,0:0:0:0:
279,52,81499,1,0,0:0:0:0:
294,69,81580,1,2,0:0:0:0:
304,89,81661,1,0,0:0:0:0:
308,110,81742,5,8,0:0:0:0:
306,133,81823,1,0,0:0:0:0:
297,153,81904,1,8,0:0:0:0:
284,171,81985,1,0,0:0:0:0:
266,184,82066,1,2,0:0:0:0:
246,192,82148,1,0,0:0:0:0:
223,194,82229,1,8,0:0:0:0:
201,190,82310,1,0,0:0:0:0:
183,180,82390,6,0,L|191:228,1,47.5,2|0,0:0|0:0,0:0:0:0:
84,256,82552,1,8,0:0:0:0:
84,256,82634,2,0,L|92:304,1,47.5,2|8,0:0|0:0,0:0:0:0:
236,351,82796,1,8,0:0:0:0:
236,351,82878,2,0,L|244:303,1,47.5,2|0,0:0|0:0,0:0:0:0:
335,275,83039,5,8,0:0:0:0:
343,228,83120,1,0,0:0:0:0:
377,194,83201,1,8,0:0:0:0:
424,187,83282,1,0,0:0:0:0:
467,208,83363,5,2,0:0:0:0:
445,166,83444,1,0,0:0:0:0:
402,144,83525,1,8,0:0:0:0:
355,151,83606,1,0,0:0:0:0:
321,186,83688,5,8,0:0:0:0:
272,194,83769,1,0,0:0:0:0:
228,172,83850,1,8,0:0:0:0:
205,128,83931,1,0,0:0:0:0:
212,78,84012,5,2,0:0:0:0:
236,123,84093,1,0,0:0:0:0:
281,145,84174,1,2,0:0:0:0:
331,136,84255,1,0,0:0:0:0:
366,100,84336,5,8,0:0:0:0:
415,91,84417,1,8,0:0:0:0:
460,113,84498,1,8,0:0:0:0:
483,156,84579,1,8,0:0:0:0:
476,205,84661,1,2,0:0:0:0:
441,241,84742,1,8,0:0:0:0:
393,249,84823,1,2,0:0:0:0:
347,226,84904,1,2,0:0:0:0:
325,183,84985,5,8,0:0:0:0:
292,118,85066,1,8,0:0:0:0:
227,84,85147,1,8,0:0:0:0:
154,95,85228,1,2,0:0:0:0:
102,146,85309,1,8,0:0:0:0:
90,217,85391,1,8,0:0:0:0:
123,283,85472,1,2,0:0:0:0:
188,317,85553,1,8,0:0:0:0:
260,307,85634,6,0,P|272:288|276:272,31,35.625001358986,2|2|2|2|2|2|2|2|2|2|2|2|2|2|2|2|2|2|2|2|2|2|2|2|2|2|2|2|2|2|2|2,0:0|0:0|0:0|0:0|0:0|0:0|0:0|0:0|0:0|0:0|0:0|0:0|0:0|0:0|0:0|0:0|0:0|0:0|0:0|0:0|0:0|0:0|0:0|0:0|0:0|0:0|0:0|0:0|0:0|0:0|0:0|0:0,0:0:0:0:
224,224,86931,6,0,L|128:232,1,95,4|0,0:0|0:0,0:0:0:0:
288,160,87417,6,0,L|414:149,1,118.75
342,96,87904,6,0,L|352:214,1,118.75
372,224,88228,6,0,L|364:312,1,71.2500027179719,12|0,0:0|2:0,0:0:0:0:
472,286,88390,2,0,L|466:357,1,71.2500027179719,8|0,0:0|2:0,0:0:0:0:
296,318,88552,2,0,B|248:334|218:286|218:286|280:254|344:286|344:286|408:318|472:286,1,356.25001358986,2|0,0:0|2:0,0:0:0:0:
372,224,89039,6,0,L|368:259,1,35.625001358986,8|0,0:0|2:0,0:0:0:0:
472,286,89201,6,0,B|456:222|456:222|472:142|472:142|424:158|440:206,1,213.750008153916,2|0,0:0|2:0,0:0:0:0:
428,84,89525,6,0,P|467:69|504:80,1,71.2500027179719,8|0,0:0|2:0,0:0:0:0:
438,233,89688,2,0,P|404:238|372:224,1,71.2500027179719,8|0,0:0|2:0,0:0:0:0:
386,26,89850,2,0,B|450:10|450:10|428:84,1,142.500005435944,2|0,0:0|2:0,0:0:0:0:
360,207,90093,1,8,0:0:0:0:
360,207,90174,2,0,P|328:191|310:161,1,71.2500027179719,0|0,0:0|2:0,0:0:0:0:
439,99,90336,6,0,L|431:147,1,35.625001358986,8|0,0:0|2:0,0:0:0:0:
311,139,90498,6,0,L|159:147,1,142.500005435944,2|0,0:0|2:0,0:0:0:0:
296,248,90742,1,2,0:0:0:0:
296,248,90823,6,0,L|304:336,1,71.2500027179719,8|0,0:0|2:0,0:0:0:0:
102,162,90985,2,0,L|78:135,1,35.625001358986,2|0,0:0|2:0,0:0:0:0:
309,117,91147,2,0,L|343:124,1,35.625001358986,2|0,0:0|2:0,0:0:0:0:
167,274,91309,2,0,L|134:288,1,35.625001358986,2|0,0:0|2:0,0:0:0:0:
188,64,91471,6,0,L|226:-1,1,71.2500027179719,8|0,0:0|2:0,0:0:0:0:
296,248,91634,2,0,L|301:306,1,35.625001358986,2|0,0:0|2:0,0:0:0:0:
102,162,91796,2,0,L|78:135,1,35.625001358986,2|0,0:0|2:0,0:0:0:0:
309,117,91958,2,0,L|343:124,1,35.625001358986,2|0,0:0|2:0,0:0:0:0:
167,274,92120,6,0,L|19:243,1,142.500005435944,8|0,0:0|2:0,0:0:0:0:
232,199,92363,1,8,0:0:0:0:
232,199,92444,2,0,L|188:64,1,142.500005435944,2|8,0:0|0:0,0:0:0:0:
330,218,92688,1,2,0:0:0:0:
330,218,92769,6,0,L|382:158,1,71.2500027179719,8|2,0:0|0:0,0:0:0:0:
362,311,92931,2,0,L|439:326,1,71.2500027179719,8|8,0:0|0:0,0:0:0:0:
198,368,93093,1,2,0:0:0:0:
432,325,93255,1,2,0:0:0:0:
432,325,93336,1,2,0:0:0:0:
432,325,93417,6,0,P|448:293|440:245,1,71.2500027179719,12|0,0:0|2:0,0:0:0:0:
448,136,93579,2,0,P|428:106|382:89,1,71.2500027179719,8|0,0:0|2:0,0:0:0:0:
221,26,93742,2,0,B|221:122|325:122|325:122|397:90|397:90|453:122|509:90,1,356.25001358986,2|0,0:0|2:0,0:0:0:0:
391,55,94228,6,0,L|397:91,1,35.625001358986,8|0,0:0|2:0,0:0:0:0:
379,224,94390,6,0,B|352:275|352:275|325:119,1,213.750008153916,2|0,0:0|2:0,0:0:0:0:
232,208,94715,6,0,L|302:201,1,71.2500027179719,8|0,0:0|2:0,0:0:0:0:
224,104,94877,2,0,L|153:110,1,71.2500027179719,8|0,0:0|2:0,0:0:0:0:
214,302,95039,2,0,B|234:318|234:318|270:262|226:198,1,142.500005435944,2|0,0:0|2:0,0:0:0:0:
141,126,95282,1,8,0:0:0:0:
141,126,95363,2,0,P|116:151|109:185,1,71.2500027179719,0|0,0:0|2:0,0:0:0:0:
244,223,95525,6,0,L|300:215,1,35.625001358986,8|0,0:0|2:0,0:0:0:0:
97,201,95688,6,0,B|65:233|65:233|81:329,1,142.500005435944,2|0,0:0|2:0,0:0:0:0:
228,356,95931,1,8,0:0:0:0:
228,356,96012,6,0,L|298:348,1,71.2500027179719,8|0,0:0|2:0,0:0:0:0:
416,384,96174,2,0,L|445:319,1,71.2500027179719,8|0,0:0|2:0,0:0:0:0:
480,200,96336,2,0,B|432:192|432:192|392:208|392:208|328:200,1,142.500005435944,2|0,0:0|2:0,0:0:0:0:
361,73,96579,2,0,B|378:118|378:118|412:145|412:145|432:192,1,142.500005435944,8|0,0:0|2:0,0:0:0:0:
311,240,96823,6,0,L|344:200,1,35.625001358986,8|0,0:0|2:0,0:0:0:0:
439,72,96985,6,0,P|410:9|343:-3,1,142.500005435944,2|2,0:0|0:0,0:0:0:0:
260,28,97228,1,2,0:0:0:0:
260,28,97309,5,8,0:0:0:0:
292,92,97390,1,0,0:0:0:0:
269,159,97471,1,2,0:0:0:0:
205,191,97552,1,2,0:0:0:0:
138,168,97634,5,2,0:0:0:0:
74,199,97715,1,8,0:0:0:0:
51,266,97796,1,2,0:0:0:0:
82,330,97877,1,8,0:0:0:0:
149,353,97958,5,8,0:0:0:0:
221,316,98039,1,8,0:0:0:0:
300,298,98120,1,2,0:0:0:0:
380,301,98201,1,8,0:0:0:0:
458,325,98282,1,0,0:0:0:0:
452,344,98363,1,0,0:0:0:0:
446,363,98444,6,0,L|422:219,1,142.500005435944,8|0,0:0|0:0,0:0:0:0:
466,146,98931,6,0,B|467:107|400:100|400:100|423:224,1,213.750008153916,12|0,0:0|2:0,0:0:0:0:
512,68,99255,1,8,0:0:0:0:
512,68,99336,1,2,0:0:0:0:
512,68,99417,2,0,L|424:76,1,71.2500027179719,8|0,0:0|2:0,0:0:0:0:
288,124,99579,2,0,B|328:64|328:64|351:203,1,213.750008153916,2|0,0:0|2:0,0:0:0:0:
423,222,99904,6,0,L|415:302,1,71.2500027179719,8|0,0:0|2:0,0:0:0:0:
344,280,100066,2,0,L|336:360,1,71.2500027179719,8|0,0:0|2:0,0:0:0:0:
224,296,100228,2,0,L|216:216,1,71.2500027179719,2|0,0:0|2:0,0:0:0:0:
145,237,100390,1,8,0:0:0:0:
145,237,100471,2,0,L|137:157,1,71.2500027179719,2|0,0:0|2:0,0:0:0:0:
25,221,100634,1,2,0:0:0:0:
25,221,100715,2,0,L|17:301,1,71.2500027179719,8|0,0:0|2:0,0:0:0:0:
90,280,100877,2,0,L|82:350,1,71.2500027179719,2|0,0:0|2:0,0:0:0:0:
224,296,101039,1,2,0:0:0:0:
220,260,101120,1,2,0:0:0:0:
217,225,101201,6,0,L|305:233,1,71.2500027179719,8|0,0:0|2:0,0:0:0:0:
360,192,101363,2,0,L|448:200,1,71.2500027179719,8|0,0:0|2:0,0:0:0:0:
503,159,101525,1,2,0:0:0:0:
224,208,101688,5,8,0:0:0:0:
367,175,101850,1,8,0:0:0:0:
360,192,101931,1,8,0:0:0:0:
353,209,102012,1,8,0:0:0:0:
511,143,102174,5,8,0:0:0:0:
480,352,102336,1,2,0:0:0:0:
480,352,102417,1,2,0:0:0:0:
480,352,102498,6,0,L|472:272,1,71.2500027179719,8|0,0:0|2:0,0:0:0:0:
353,209,102661,2,0,L|360:279,1,71.2500027179719,8|0,0:0|2:0,0:0:0:0:
240,352,102823,1,2,0:0:0:0:
176,384,102904,1,2,0:0:0:0:
108,361,102985,1,8,0:0:0:0:
75,297,103066,1,8,0:0:0:0:
98,229,103147,6,0,P|106:197|102:157,1,71.2500027179719,8|0,0:0|2:0,0:0:0:0:
32,32,103309,2,0,P|28:67|36:101,1,71.2500027179719,8|8,0:0|0:0,0:0:0:0:
184,120,103471,6,0,L|236:116,1,35.625001358986,2|0,2:0|0:0,0:0:0:0:
324,100,103634,6,0,B|328:60|388:60|416:104|384:172|328:148|328:148|276:112|200:132|184:196,1,356.25001358986,12|0,0:0|2:0,0:0:0:0:
263,287,104120,2,0,P|271:253|270:218,1,71.2500027179719,2|0,0:0|2:0,0:0:0:0:
220,117,104282,2,0,P|194:92|162:76,1,71.2500027179719,8|0,0:0|2:0,0:0:0:0:
50,69,104444,1,8,0:0:0:0:
52,92,104525,1,0,0:0:0:0:
54,115,104606,1,8,0:0:0:0:
224,32,104769,1,2,0:0:0:0:
263,287,104931,6,0,B|223:263|175:247|175:247|119:263|87:287|87:287|47:255|47:255|95:207|151:215,1,356.25001358986,8|0,0:0|2:0,0:0:0:0:
173,318,105417,1,2,0:0:0:0:
300,148,105579,2,0,L|292:72,1,71.2500027179719,8|0,0:0|2:0,0:0:0:0:
353,209,105742,1,8,0:0:0:0:
353,209,105823,1,0,0:0:0:0:
353,209,105904,2,0,P|381:225|421:221,1,71.2500027179719,0|0,0:0|2:0,0:0:0:0:
493,190,106066,1,2,0:0:0:0:
288,352,106228,6,0,B|240:304|176:296|176:296|120:336|32:312|32:312|80:344|80:384,1,356.25001358986,8|0,0:0|2:0,0:0:0:0:
176,296,106715,2,0,P|192:264|184:208,1,71.2500027179719,2|0,0:0|2:0,0:0:0:0:
240,128,106877,2,0,P|270:145|289:175,1,71.2500027179719,8|0,0:0|2:0,0:0:0:0:
241,15,107039,1,8,0:0:0:0:
205,17,107120,1,0,0:0:0:0:
174,34,107201,1,8,0:0:0:0:
360,72,107363,1,2,0:0:0:0:
146,214,107525,6,0,B|130:142|130:142|66:190|66:190|99:337,1,285.000010871888,8|0,0:0|2:0,0:0:0:0:
8,352,107931,1,8,0:0:0:0:
8,352,108012,2,0,L|96:344,1,71.2500027179719,2|0,0:0|2:0,0:0:0:0:
216,304,108174,1,8,0:0:0:0:
263,287,108255,1,2,0:0:0:0:
312,295,108336,1,8,0:0:0:0:
350,327,108417,1,2,0:0:0:0:
367,373,108498,2,0,L|383:301,1,71.2500027179719,8|0,0:0|0:0,0:0:0:0:
480,196,108661,2,0,L|464:126,1,71.2500027179719,2|0,0:0|0:0,0:0:0:0:
271,53,108823,6,0,B|199:53|143:101|143:101|174:34,1,213.750008153916,12|0,0:0|2:0,0:0:0:0:
287,83,109147,2,0,P|322:91|350:112,1,71.2500027179719,8|0,0:0|2:0,0:0:0:0:
182,176,109309,1,2,0:0:0:0:
182,176,109390,2,0,L|174:33,1,142.500005435944,8|0,0:0|2:0,0:0:0:0:
289,207,109634,1,8,0:0:0:0:
217,210,109715,1,8,0:0:0:0:
146,214,109796,1,8,0:0:0:0:
360,72,109958,1,2,0:0:0:0:
512,272,110120,6,0,B|449:307|445:383|445:383|420:344|376:344,1,213.750008153916,8|0,0:0|2:0,0:0:0:0:
284,384,110444,2,0,L|368:376,1,71.2500027179719,8|0,0:0|2:0,0:0:0:0:
353,209,110606,1,2,0:0:0:0:
323,276,110688,1,8,0:0:0:0:
259,312,110769,1,8,0:0:0:0:
185,305,110850,1,8,0:0:0:0:
131,255,110931,5,8,0:0:0:0:
204,264,111012,1,0,0:0:0:0:
268,227,111093,1,8,0:0:0:0:
299,160,111174,1,0,0:0:0:0:
284,88,111255,1,2,0:0:0:0:
229,38,111336,1,8,0:0:0:0:
155,29,111417,6,0,B|48:80|111:181|111:181|183:173|163:85,1,285,12|0,0:0|2:0,0:0:0:0:
158,110,111742,2,0,L|64:104,1,95,10|0,0:0|2:0,0:0:0:0:
268,227,111904,2,0,L|173:233,1,95,10|0,0:0|2:0,0:0:0:0:
377,110,112066,2,0,L|282:103,1,95,10|0,0:0|2:0,0:0:0:0:
480,288,112228,6,0,B|448:352|448:352|416:224,1,190,10|0,0:0|2:0,0:0:0:0:
282,103,112471,2,0,B|250:39|250:39|218:167,1,190,10|0,0:0|2:0,0:0:0:0:
32,352,112715,6,0,B|71:291|159:299|159:299|199:347|263:331|263:331|295:267|399:251|439:347|439:347|335:411|279:315|288:216|288:216|304:80|408:56|512:104|512:104|480:184|432:208|360:168,1,1211.25004620552,10|0,0:0|0:0,0:0:0:0:
398,184,114174,5,0,0:0:0:0:
349,236,114336,1,2,0:0:0:0:
279,219,114498,1,2,0:0:0:0:
258,149,114661,1,2,0:0:0:0:
308,95,115471,5,2,0:0:0:0:
381,92,115634,1,2,0:0:0:0:
434,141,115796,1,2,0:0:0:0:
437,214,115958,1,2,0:0:0:0:
388,267,116769,5,2,0:0:0:0:
319,288,116931,1,2,0:0:0:0:
248,271,117093,1,2,0:0:0:0:
195,221,117255,1,2,0:0:0:0:
174,151,118066,5,2,0:0:0:0:
171,77,118806,1,2,0:0:0:0:
190,4,119547,5,2,0:0:0:0:
258,20,119736,1,0,0:0:0:0:
329,36,119926,1,0,0:0:0:0:
400,52,120116,1,0,0:0:0:0:
115,65,120917,5,2,0:0:0:0:
178,79,121123,1,0,0:0:0:0:
242,93,121330,1,0,0:0:0:0:
306,108,121537,1,0,0:0:0:0:
43,126,122439,5,2,0:0:0:0:
118,152,122684,1,2,0:0:0:0:
169,212,122930,1,2,0:0:0:0:
183,289,123176,1,2,0:0:0:0:
266,228,123607,5,2,0:0:0:0:
370,220,124037,5,2,0:0:0:0:
486,286,124590,5,2,0:0:0:0:
