osu file format v14

[General]
AudioFilename: -+.mp3
AudioLeadIn: 0
PreviewTime:86931
Countdown: 0
SampleSet: Normal
StackLeniency: 0.7
Mode: 0
LetterboxInBreaks: 0
WidescreenStoryboard: 1
EpilepsyWarning: 1

[Editor]
Bookmarks: 20442,61306,111985,113039
DistanceSpacing: 2
BeatDivisor: 4
GridSize: 4
TimelineZoom: 2.9

[Metadata]
Title:-+
TitleUnicode:-+
Artist:daisan
ArtistUnicode:daisan
Creator:Starfy
Version:Drop's Extra
Source:BOF2013
Tags:minus plus konzertsaal - THE BMS OF FIGHTERS 2013 Dirt Art Color Teller xellox piano StarForYou Kyle Y IamKwaN happy623 -N_a_n_a_k_o- Nanako Kencho Chaoslitz [ Drop ] choikapo Regou Rizia Kawaiwkyik Nakano Itsuki StarrStyx Prophecy aabc271 Nardoxyribonucleic Skylish ll-oscar autofanboy alienflybot hokin1995 pwhk hong kong hk muse dash electronic instrumental
BeatmapID:854741
BeatmapSetID:389617

[Difficulty]
HPDrainRate:7
CircleSize:4
OverallDifficulty:7
ApproachRate:9
SliderMultiplier:1.9
SliderTickRate:1

[Events]
//Background and Video events
0,0,"BG.png",0,0
//Break Periods
//Storyboard Layer 0 (Background)
//Storyboard Layer 1 (Fail)
//Storyboard Layer 2 (Pass)
//Storyboard Layer 3 (Foreground)
//Storyboard Layer 4 (Overlay)
//Storyboard Sound Samples

[TimingPoints]
2607,324.324324324324,4,2,1,20,1,0
2607,-400,4,2,1,20,0,0
12985,-200,4,2,2,30,0,0
13147,-200,4,2,1,30,0,0
18174,-133.333333333333,4,2,1,30,0,0
23363,-100,4,1,1,80,0,0
23688,-100,4,1,1,70,0,0
32769,-90.9090909090909,4,1,1,70,0,0
33742,-100,4,1,1,60,0,0
44120,-250,4,1,3,60,0,0
45093,-250,4,2,1,40,0,0
54498,-133.333333333333,4,2,2,40,0,0
54579,-133.333333333333,4,2,1,40,0,0
56039,-133.333333333333,4,2,1,5,0,0
56120,-133.333333333333,4,2,1,40,0,0
56363,-133.333333333333,4,2,1,5,0,0
56444,-133.333333333333,4,2,1,40,0,0
56688,-133.333333333333,4,2,1,5,0,0
56769,-133.333333333333,4,2,1,40,0,0
57012,-133.333333333333,4,2,1,5,0,0
57093,-133.333333333333,4,2,1,40,0,0
58634,-133.333333333333,4,2,1,5,0,0
58715,-133.333333333333,4,2,1,40,0,0
58958,-133.333333333333,4,2,1,5,0,0
59039,-133.333333333333,4,2,1,40,0,0
59282,-133.333333333333,4,2,1,5,0,0
59363,-133.333333333333,4,2,1,40,0,0
59606,-133.333333333333,4,2,1,5,0,0
59688,-133.333333333333,4,2,1,40,0,0
62282,-125,4,1,1,50,0,0
62606,-125,4,1,1,60,0,0
63579,-125,4,1,1,70,0,0
64228,-133.333333333333,4,1,1,70,0,0
64877,-83.3333333333333,4,1,1,70,0,0
65688,-83.3333333333333,4,1,6,70,0,0
66174,-83.3333333333333,4,1,1,70,0,0
66985,-83.3333333333333,4,1,6,70,0,0
67471,-83.3333333333333,4,1,1,70,0,0
68282,-83.3333333333333,4,1,6,70,0,0
68769,-83.3333333333333,4,1,1,70,0,0
70877,-83.3333333333333,4,1,6,70,0,0
71363,-83.3333333333333,4,1,1,70,0,0
72174,-83.3333333333333,4,1,6,70,0,0
72661,-83.3333333333333,4,1,1,70,0,0
73471,-83.3333333333333,4,1,6,70,0,0
73958,-83.3333333333333,4,1,1,70,0,0
75255,-100,4,1,1,50,0,0
80444,-100,4,1,1,60,0,0
83039,-100,4,1,1,70,0,0
86931,-133.333333333333,4,1,5,80,0,1
87012,-133.333333333333,4,1,1,40,0,0
87336,-133.333333333333,4,1,1,20,0,0
87417,-133.333333333333,4,1,1,50,0,0
87823,-133.333333333333,4,1,1,20,0,0
87904,-133.333333333333,4,1,1,60,0,0
88147,-133.333333333333,4,1,1,20,0,0
88228,-100,4,1,1,70,0,1
90985,-100,4,1,6,70,0,1
91147,-100,4,1,1,70,0,1
91309,-100,4,1,6,70,0,1
91471,-100,4,1,1,70,0,1
91634,-100,4,1,6,70,0,1
91796,-100,4,1,1,70,0,1
91958,-100,4,1,6,70,0,1
92120,-100,4,1,1,70,0,1
98444,-133.333333333333,4,1,1,70,0,1
98850,-133.333333333333,4,1,1,20,0,1
98931,-83.3333333333333,4,1,1,70,0,1
99255,-100,4,1,1,70,0,1
102174,-100,4,1,1,80,0,1
103634,-100,4,1,1,70,0,1
112715,-105.263157894737,4,1,1,70,0,1
114012,-100,4,1,1,5,0,1
114174,-400,4,1,3,40,0,0
114215,-400,4,2,1,40,0,0
118066,370.37037037037,4,2,1,35,1,0
118066,-400,4,2,1,35,0,0
119547,379.746835443038,4,2,1,30,1,0
119547,-400,4,2,1,30,0,0
120917,413.793103448276,4,2,1,25,1,0
120917,-400,4,2,1,25,0,0
122439,491.803278688525,4,2,1,20,1,0
122439,-400,4,2,1,20,0,0

[Colours]
Combo1 : 41,214,166
Combo2 : 128,0,255
Combo3 : 128,255,255
Combo4 : 3,90,252

[HitObjects]
68,64,2607,6,0,B|116:60|116:60|168:64,1,95,2|0,0:0|0:0,0:0:0:0:
276,180,3904,2,0,B|228:184|228:184|181:180,1,95,2|0,0:0|0:0,0:0:0:0:
344,68,5201,2,0,L|352:268,1,190,2|2,0:0|0:0,0:0:0:0:
320,328,7796,6,0,P|372:332|412:308,1,95,2|0,0:0|0:0,0:0:0:0:
264,260,9093,2,0,P|234:303|235:349,1,95,2|0,0:0|0:0,0:0:0:0:
352,260,10390,6,0,B|368:216|353:166|353:166|336:116|360:72,1,190
358,74,12985,6,0,B|312:90|268:78|268:78|204:62|160:78,1,190,6|0,0:0|0:0,0:0:0:0:
32,216,14282,2,0,B|78:231|122:219|122:219|186:203|230:219,1,190,2|0,0:0|0:0,0:0:0:0:
372,304,15579,2,0,P|320:332|372:196,1,380,2|2,0:0|0:0,0:0:0:0:
382,201,18174,6,0,B|412:240|397:287|397:287|414:312|410:336,1,142.500005435944,6|0,0:0|0:0,0:0:0:0:
102,336,18823,2,0,B|98:312|115:287|115:287|100:240|134:195,1,142.500005435944,6|0,0:0|0:0,0:0:0:0:
304,288,19471,2,0,B|256:340|256:340|208:288,1,142.500005435944,6|0,0:0|0:0,0:0:0:0:
256,80,20120,2,0,B|252:128|252:128|260:180|260:180|256:232,1,142.500005435944,6|0,0:0|0:0,0:0:0:0:
248,240,20769,6,0,L|163:243,1,71.2500027179719,4|4,0:0|0:0,0:0:0:0:
20,200,21093,2,0,L|105:203,1,71.2500027179719,4|4,0:0|0:0,0:0:0:0:
251,168,21417,2,0,L|247:260,1,71.2500027179719,4|4,0:0|0:0,0:0:0:0:
20,200,21742,2,0,L|16:128,1,71.2500027179719,4|4,0:0|0:0,0:0:0:0:
148,56,22066,6,0,L|132:339,1,249.375009512902,2|0,0:0|0:0,0:0:0:0:
154,334,22715,5,2,0:0:0:0:
182,355,22796,1,2,0:0:0:0:
216,365,22877,1,2,0:0:0:0:
251,362,22958,1,2,0:0:0:0:
280,348,23039,2,0,L|273:320,1,17.812500679493,2|0,0:0|0:0,0:0:0:0:
318,329,23120,2,0,L|315:300,1,17.812500679493,2|0,0:0|0:0,0:0:0:0:
360,327,23201,2,0,L|362:298,1,17.812500679493,2|0,0:0|0:0,0:0:0:0:
401,339,23282,2,0,L|408:311,1,17.812500679493,2|0,0:0|0:0,0:0:0:0:
436,364,23363,6,0,B|428:326|428:326|440:232,1,95,12|0,0:0|0:0,0:0:0:0:
496,160,23688,5,2,0:0:0:0:
455,184,23769,1,0,0:0:0:0:
408,191,23850,1,0,0:0:0:0:
363,179,23931,1,0,0:0:0:0:
325,150,24012,1,0,0:0:0:0:
288,120,24093,1,0,0:0:0:0:
242,107,24174,1,8,0:0:0:0:
195,115,24255,1,0,0:0:0:0:
156,138,24336,2,0,L|160:212,1,47.5,2|0,0:0|0:0,0:0:0:0:
228,332,24498,2,0,L|230:284,1,47.5
296,212,24661,5,8,0:0:0:0:
88,244,24823,1,8,0:0:0:0:
340,128,24985,1,2,0:0:0:0:
374,160,25066,1,0,0:0:0:0:
389,204,25147,1,0,0:0:0:0:
381,250,25228,1,8,0:0:0:0:
351,287,25309,1,0,0:0:0:0:
308,306,25390,1,0,0:0:0:0:
261,301,25471,1,8,0:0:0:0:
222,275,25552,1,0,0:0:0:0:
201,233,25634,2,0,P|197:209|196:176,1,47.5,2|0,0:0|0:0,0:0:0:0:
272,84,25796,2,0,P|275:107|277:141,1,47.5,0|8,0:0|0:0,0:0:0:0:
183,40,25958,6,0,L|306:36,1,95,12|8,0:0|0:0,0:0:0:0:
348,64,26201,2,0,L|389:70,1,23.75
348,64,26282,2,0,P|362:114|350:161,1,95,2|0,0:0|0:0,0:0:0:0:
304,216,26525,2,0,L|263:222,1,23.75
304,216,26606,2,0,L|316:336,1,95,0|8,0:0|0:0,0:0:0:0:
377,384,26850,2,0,L|380:360,1,23.75
372,360,26931,5,2,0:0:0:0:
416,344,27012,1,0,0:0:0:0:
447,309,27093,1,2,0:2:0:0:
459,263,27174,1,2,0:2:0:0:
448,218,27255,5,8,0:0:0:0:
418,182,27336,1,0,0:0:0:0:
374,165,27417,1,0,0:0:0:0:
327,171,27498,1,8,0:0:0:0:
288,197,27579,1,2,0:0:0:0:
249,223,27661,1,0,0:0:0:0:
202,228,27742,5,2,0:0:0:0:
158,211,27823,1,2,0:0:0:0:
127,176,27904,1,2,0:0:0:0:
116,130,27985,1,2,0:0:0:0:
128,84,28066,1,2,0:0:0:0:
160,50,28147,1,2,0:0:0:0:
204,34,28228,1,2,0:0:0:0:
316,104,28390,5,2,0:0:0:0:
316,104,28471,1,0,0:0:0:0:
316,104,28552,2,0,L|312:172,1,47.5,12|0,0:0|0:0,0:0:0:0:
224,264,28715,2,0,L|221:216,1,47.5,8|0,0:0|0:0,0:0:0:0:
131,103,28877,2,0,L|128:150,1,47.5,2|0,0:0|0:0,0:0:0:0:
60,252,29039,1,0,0:0:0:0:
192,352,29201,1,0,0:0:0:0:
213,188,29363,1,8,0:0:0:0:
60,252,29525,1,2,0:0:0:0:
94,243,29606,1,0,0:0:0:0:
129,247,29687,1,0,0:0:0:0:
160,264,29768,1,0,0:0:0:0:
183,291,29850,6,0,L|191:360,1,47.5,8|0,0:0|0:0,0:0:0:0:
312,228,30012,2,0,L|304:297,1,47.5,8|0,0:0|0:0,0:0:0:0:
160,160,30174,2,0,L|168:229,1,47.5,2|0,0:0|0:0,0:0:0:0:
320,108,30336,1,0,0:0:0:0:
264,352,30498,1,0,0:0:0:0:
81,182,30661,1,8,0:0:0:0:
320,108,30823,1,2,0:0:0:0:
350,125,30904,1,0,0:0:0:0:
385,124,30985,1,8,0:0:0:0:
415,105,31066,1,8,0:0:0:0:
432,74,31147,6,0,P|438:47|437:4,1,47.5,2|0,0:0|0:0,0:0:0:0:
320,108,31309,2,0,P|321:131|327:154,1,47.5,2|0,0:0|0:0,0:0:0:0:
400,228,31471,1,8,0:0:0:0:
223,49,31634,1,0,0:0:0:0:
258,48,31715,1,0,0:0:0:0:
294,47,31796,1,0,0:0:0:0:
329,46,31877,1,0,0:0:0:0:
364,44,31958,2,0,L|361:102,1,47.5,8|0,0:0|0:0,0:0:0:0:
288,176,32120,2,0,L|291:234,1,47.5,2|0,0:0|0:0,0:0:0:0:
364,308,32282,5,2,0:0:0:0:
364,308,32363,1,2,0:0:0:0:
364,308,32444,2,0,L|496:304,1,95,8|8,0:0|0:0,0:0:0:0:
508,244,32688,1,2,0:0:0:0:
508,244,32769,2,0,L|512:168,1,52.2500015945435,2|8,0:0|0:0,0:0:0:0:
361,255,32931,2,0,L|363:307,1,52.2500015945435,2|8,0:0|0:0,0:0:0:0:
400,140,33093,6,0,L|394:180,1,26.1250007972718,2|0,0:0|0:0,0:0:0:0:
364,123,33174,2,0,L|367:163,1,26.1250007972718,2|0,0:0|0:0,0:0:0:0:
325,121,33255,2,0,L|337:159,1,26.1250007972718,2|0,0:0|0:0,0:0:0:0:
288,133,33336,2,0,L|308:167,1,26.1250007972718,2|0,0:0|0:0,0:0:0:0:
258,158,33417,1,2,0:0:0:0:
219,191,33498,1,2,0:0:0:0:
168,199,33579,1,2,0:0:0:0:
120,180,33660,1,2,0:0:0:0:
90,138,33742,6,0,L|96:32,1,95,12|8,0:0|0:0,0:0:0:0:
248,148,34066,2,0,L|242:254,1,95,2|0,0:0|0:0,0:0:0:0:
156,292,34390,1,0,0:0:0:0:
192,80,34552,1,8,0:0:0:0:
332,240,34715,1,2,0:0:0:0:
368,28,34877,1,0,0:0:0:0:
256,184,35039,5,8,0:0:0:0:
468,168,35201,1,8,0:0:0:0:
188,232,35363,2,0,P|176:190|193:131,1,95,2|0,0:0|0:0,0:0:0:0:
268,288,35688,2,0,P|280:330|263:389,1,95,0|8,0:0|0:0,0:0:0:0:
152,336,36012,1,2,0:0:0:0:
392,316,36174,1,0,0:0:0:0:
128,316,36336,6,0,L|124:212,1,95,12|8,0:0|0:0,0:0:0:0:
252,96,36661,2,0,L|248:190,1,95,2|0,0:0|0:0,0:0:0:0:
316,32,36985,1,0,0:0:0:0:
157,47,37147,1,8,0:0:0:0:
262,281,37310,1,2,0:0:0:0:
379,176,37471,1,0,0:0:0:0:
125,202,37634,6,0,L|16:196,1,95,8|8,0:0|0:0,0:0:0:0:
162,294,37958,1,2,0:0:0:0:
205,275,38039,1,0,0:0:0:0:
251,279,38120,1,0,0:0:0:0:
290,306,38201,1,0,0:0:0:0:
310,348,38282,2,0,L|385:346,1,47.5,2|2,0:0|0:0,0:0:0:0:
488,304,38444,1,2,0:0:0:0:
488,304,38525,1,2,0:0:0:0:
488,304,38606,2,0,L|413:301,1,47.5,2|0,0:0|0:0,0:0:0:0:
287,251,38769,2,0,L|361:248,1,47.5,2|0,0:0|0:0,0:0:0:0:
512,184,38931,6,0,L|410:179,1,95,12|8,0:0|0:0,0:0:0:0:
383,178,39174,1,0,0:0:0:0:
383,178,39255,1,0,0:0:0:0:
307,369,39417,6,0,P|276:371|246:385,1,47.5
145,322,39579,2,0,P|167:328|191:329,1,47.5
224,256,39742,2,0,L|219:161,1,95,8|2,0:0|0:0,0:0:0:0:
215,125,39985,1,0,0:0:0:0:
213,91,40066,1,0,0:0:0:0:
333,195,40228,6,0,L|328:289,1,95,8|8,0:0|0:0,0:0:0:0:
348,328,40471,1,0,0:0:0:0:
372,364,40552,2,0,P|422:376|472:364,1,95,2|0,0:0|0:0,0:0:0:0:
284,264,40877,6,0,L|289:331,1,47.5
333,195,41039,2,0,P|283:183|233:195,1,95,8|2,0:0|0:0,0:0:0:0:
200,212,41282,1,0,0:0:0:0:
160,232,41363,1,0,0:0:0:0:
113,239,41444,1,0,0:0:0:0:
67,228,41525,2,0,L|60:174,1,47.5
116,120,41688,5,8,0:0:0:0:
251,306,41850,1,2,0:0:0:0:
32,235,42012,1,2,0:0:0:0:
251,164,42174,1,2,0:0:0:0:
115,350,42336,1,2,0:0:0:0:
116,120,42498,1,2,0:0:0:0:
315,236,42661,1,2,0:0:0:0:
115,350,42823,5,2,0:0:0:0:
104,328,42904,1,2,0:0:0:0:
96,304,42985,2,0,L|91:229,1,47.5,2|0,0:0|0:0,0:0:0:0:
232,160,43147,2,0,L|228:207,1,47.5,2|2,0:0|0:0,0:0:0:0:
68,68,43309,5,2,0:0:0:0:
110,88,43390,1,2,0:0:0:0:
157,87,43471,1,2,0:0:0:0:
197,63,43552,1,0,0:0:0:0:
222,23,43633,1,2,0:0:0:0:
268,12,43715,1,2,0:0:0:0:
315,15,43796,1,2,0:0:0:0:
360,31,43877,1,2,0:0:0:0:
398,59,43958,2,0,P|424:89|438:129,1,47.5,2|2,0:0|0:0,0:0:0:0:
287,172,44120,6,0,P|271:115|409:69,1,228,4|2,0:0|0:0,0:0:0:0:
351,124,45255,1,2,0:0:0:0:
337,236,45417,2,0,P|301:251|254:248,1,76,2|0,0:0|0:0,0:0:0:0:
351,124,46066,2,0,P|388:124|423:138,1,76,2|0,0:0|0:0,0:0:0:0:
512,112,46715,6,0,B|455:61|455:61|484:227,1,228
494,294,47850,1,2,0:0:0:0:
393,341,48012,6,0,L|405:254,1,76
230,291,48661,2,0,L|240:366,1,76
80,308,49309,6,0,P|56:268|179:190,1,228,0|2,0:0|0:0,0:0:0:0:
244,228,50444,1,2,0:0:0:0:
292,159,50606,2,0,B|300:122|300:122|294:77,1,76,2|0,0:0|0:0,0:0:0:0:
176,264,51255,2,0,B|168:301|168:301|174:346,1,76,2|0,0:0|0:0,0:0:0:0:
256,360,51904,6,0,B|248:304|248:304|264:220|264:220|256:164,1,190,0|2,0:0|0:0,0:0:0:0:
257,172,52877,1,2,0:0:0:0:
257,172,53039,1,2,0:0:0:0:
324,304,53201,2,0,B|361:301|361:301|408:312,1,76,2|0,0:0|0:0,0:0:0:0:
188,220,53850,2,0,B|151:217|151:217|104:228,1,76,2|0,0:0|0:0,0:0:0:0:
257,172,54498,6,0,L|260:93,1,71.2500027179719,6|0,0:0|0:0,0:0:0:0:
312,244,54823,2,0,L|308:322,1,71.2500027179719
364,172,55147,2,0,L|367:93,1,71.2500027179719,4|0,0:0|0:0,0:0:0:0:
419,244,55471,2,0,L|415:322,1,71.2500027179719,2|2,0:0|0:0,0:0:0:0:
483,201,55796,6,0,P|435:173|367:189,1,106.875004076958,6|0,0:0|0:0,0:0:0:0:
328,224,56120,2,0,B|280:220|280:220|243:240|200:224,1,106.875004076958
160,272,56444,2,0,B|148:236|148:236|164:160,1,106.875004076958,6|0,0:0|0:0,0:0:0:0:
196,96,56769,2,0,L|76:100,1,106.875004076958
36,161,57093,6,0,P|28:204|36:239,1,71.2500027179719,6|0,0:0|0:0,0:0:0:0:
112,352,57417,2,0,P|120:309|112:274,1,71.2500027179719
173,127,57742,2,0,P|165:170|173:205,1,71.2500027179719,4|0,0:0|0:0,0:0:0:0:
249,318,58066,2,0,P|257:275|249:240,1,71.2500027179719,2|2,0:0|0:0,0:0:0:0:
168,344,58390,6,0,B|296:340,1,106.875004076958,6|0,0:0|0:0,0:0:0:0:
344,372,58715,2,0,P|380:344|455:351,1,106.875004076958
504,303,59039,2,0,B|477:260|477:260|495:190,1,106.875004076958
482,128,59363,2,0,L|371:142,1,106.875004076958
319,196,59688,6,0,B|314:231|314:231|320:275,1,71.2500027179719,4|0,0:0|0:0,0:0:0:0:
252,128,60012,2,0,B|257:93|257:93|251:49,1,71.2500027179719,4|0,0:0|0:0,0:0:0:0:
200,236,60336,2,0,B|195:271|195:271|201:315,1,71.2500027179719,4|0,0:0|0:0,0:0:0:0:
133,168,60661,2,0,B|138:133|138:133|132:89,1,71.2500027179719,6|2,0:0|0:0,0:0:0:0:
64,40,60985,5,4,0:0:0:0:
152,24,61147,1,2,0:0:0:0:
176,176,61309,1,6,0:0:0:0:
118,107,61471,1,2,0:0:0:0:
238,12,61634,1,6,0:0:0:0:
207,96,61796,1,2,0:0:0:0:
207,260,61958,1,6,0:0:0:0:
176,176,62120,1,2,0:0:0:0:
42,96,62282,6,0,L|133:109,1,76,8|0,0:0|0:0,0:0:0:0:
328,184,62606,2,0,L|252:194,1,76,8|12,0:0|0:0,0:0:0:0:
42,272,62931,2,0,L|117:282,1,76,8|8,0:0|0:0,0:0:0:0:
328,360,63255,2,0,L|252:370,1,76,8|8,0:0|0:0,0:0:0:0:
117,282,63579,5,8,0:0:0:0:
148,254,63660,1,0,0:0:0:0:
189,241,63741,1,8,0:0:0:0:
231,244,63822,1,0,0:0:0:0:
269,263,63903,1,8,0:0:0:0:
309,279,63984,1,0,0:0:0:0:
351,281,64065,1,0,0:0:0:0:
392,268,64146,1,0,0:0:0:0:
427,244,64228,6,0,L|436:272,1,17.812500679493,2|0,2:2|0:0,0:0:0:0:
438,210,64309,2,0,L|452:235,1,17.812500679493
437,175,64390,2,0,L|456:196,1,17.812500679493,2|0,2:2|0:0,0:0:0:0:
424,142,64471,2,0,L|447:159,1,17.812500679493
400,115,64552,2,0,L|426:127,1,17.812500679493,2|0,2:2|0:0,0:0:0:0:
369,98,64634,2,0,L|397:104,1,17.812500679493
334,92,64715,2,0,L|363:92,1,17.812500679493,2|0,2:2|0:0,0:0:0:0:
299,99,64796,2,0,L|327:92,1,17.812500679493
269,117,64877,6,0,B|208:128|208:128|96:104|96:104|32:116|32:116|-16:176,1,284.999991302491,8|0,0:0|0:0,0:0:0:0:
270,191,65363,2,0,B|210:203|210:203|103:180,1,170.999994781494,8|0,0:0|0:0,0:0:0:0:
4,149,65688,2,0,L|6:194,10,28.4999991302491,2|0|0|0|0|0|0|0|0|0|0,0:0|0:0|0:0|0:0|0:0|0:0|0:0|0:0|0:0|0:0|0:0,0:0:0:0:
12,264,66174,6,0,B|88:252|88:252|148:296|224:288|268:256|288:240,1,284.999991302491,8|0,0:0|0:0,0:0:0:0:
156,160,66661,2,0,B|132:176|126:193|126:193|160:222|215:217|256:176,1,170.999994781494,8|0,0:0|0:0,0:0:0:0:
300,128,66985,2,0,L|298:88,10,28.4999991302491,2|0|0|0|0|0|0|0|0|0|0,0:0|0:0|0:0|0:0|0:0|0:0|0:0|0:0|0:0|0:0|0:0,0:0:0:0:
371,164,67471,6,0,B|416:133|416:133|476:146|516:228|505:305|489:338,1,284.999991302491,8|0,0:0|0:0,0:0:0:0:
392,244,67958,2,0,B|404:240|416:222|416:222|434:254|428:305|416:323|416:323|407:306|379:296,1,170.999994781494,8|0,0:0|0:0,0:0:0:0:
300,276,68282,2,0,L|263:275,10,28.4999991302491,2|0|0|0|0|0|0|0|0|0|0,0:0|0:0|0:0|0:0|0:0|0:0|0:0|0:0|0:0|0:0|0:0,0:0:0:0:
319,206,68768,5,8,0:0:0:0:
349,160,68850,1,2,0:2:0:0:
348,103,68931,1,2,0:2:0:0:
317,57,69012,1,2,0:2:0:0:
265,34,69093,1,2,0:2:0:0:
210,43,69174,1,2,0:2:0:0:
168,80,69255,1,2,0:2:0:0:
116,103,69336,1,2,0:2:0:0:
60,94,69417,5,0,0:0:0:0:
115,84,69498,1,0,0:0:0:0:
169,102,69579,1,0,0:0:0:0:
209,142,69660,1,0,0:0:0:0:
226,196,69741,1,0,0:0:0:0:
216,252,69822,1,0,0:0:0:0:
182,297,69903,1,0,0:0:0:0:
131,321,69984,1,0,0:0:0:0:
76,320,70066,6,0,B|127:336|184:296|184:296|232:336|299:344|360:316,1,284.999991302491,8|0,0:0|0:0,0:0:0:0:
111,248,70552,2,0,B|144:223|182:218|182:218|240:224|281:272,1,170.999994781494,8|0,0:0|0:0,0:0:0:0:
352,276,70877,2,0,L|385:273,10,28.4999991302491,2|0|0|0|0|0|0|0|0|0|0,0:0|0:0|0:0|0:0|0:0|0:0|0:0|0:0|0:0|0:0|0:0,0:0:0:0:
352,176,71363,6,0,B|422:183|422:183|486:138|473:28|411:-7,1,284.999991302491,8|0,0:0|0:0,0:0:0:0:
339,107,71850,2,0,B|394:112|394:112|403:81|391:43|358:33|304:48,1,170.999994781494,8|0,0:0|0:0,0:0:0:0:
250,102,72174,2,0,L|256:132,10,28.4999991302491
160,60,72661,6,0,B|96:64|96:64|64:140|64:140|100:212|100:212|164:208,1,284.999991302491,8|0,0:0|0:0,0:0:0:0:
232,176,73147,2,0,B|266:132|266:132|124:136,1,170.999994781494,8|0,0:0|0:0,0:0:0:0:
48,264,73471,2,0,L|9:259,10,28.4999991302491,2|0|0|0|0|0|0|0|0|0|0,0:0|0:0|0:0|0:0|0:0|0:0|0:0|0:0|0:0|0:0|0:0,0:0:0:0:
132,320,73958,5,8,0:0:0:0:
168,362,74039,1,2,0:2:0:0:
221,382,74120,1,2,0:2:0:0:
277,373,74201,1,2,0:2:0:0:
321,338,74282,1,2,0:2:0:0:
343,286,74363,1,2,0:2:0:0:
337,230,74444,1,2,0:2:0:0:
304,184,74525,1,2,0:2:0:0:
253,160,74606,6,0,P|248:200|254:239,1,56.9999982604981,8|0,0:0|0:0,0:0:0:0:
160,56,74769,2,0,P|164:27|163:-1,1,56.9999982604981,8|0,0:0|0:0,0:0:0:0:
256,60,74931,2,0,P|296:65|335:59,1,56.9999982604981,8|0,0:0|0:0,0:0:0:0:
152,153,75094,2,0,P|123:149|95:150,1,56.9999982604981,8|0,0:0|0:0,0:0:0:0:
48,232,75255,6,0,P|42:255|42:278,3,47.5,8|0|0|0,0:0|0:0|0:0|0:0,0:0:0:0:
144,364,75579,2,0,L|215:363,3,47.5,8|0|0|0,0:0|0:0|0:0|0:0,0:0:0:0:
304,312,75904,2,0,L|351:312,3,47.5,8|0|0|0,0:0|0:0|0:0|0:0,0:0:0:0:
466,253,76228,2,0,L|470:186,1,47.5,8|0,0:0|0:0,0:0:0:0:
368,104,76390,2,0,L|370:151,1,47.5
448,52,76552,5,8,0:0:0:0:
418,26,76633,1,0,0:0:0:0:
380,14,76714,1,0,0:0:0:0:
341,17,76795,1,0,0:0:0:0:
307,36,76876,1,8,0:0:0:0:
282,66,76957,1,0,0:0:0:0:
271,104,77039,1,0,0:0:0:0:
260,141,77120,1,0,0:0:0:0:
235,172,77201,5,8,0:0:0:0:
201,191,77282,1,0,0:0:0:0:
162,194,77363,1,0,0:0:0:0:
124,182,77444,1,0,0:0:0:0:
94,156,77525,2,0,P|89:125|93:86,1,47.5,8|0,0:0|0:0,0:0:0:0:
184,8,77688,2,0,P|183:31|179:55,1,47.5,2|0,0:0|0:0,0:0:0:0:
3,172,77850,5,8,0:0:0:0:
47,155,77931,1,0,0:0:0:0:
94,156,78012,1,0,0:0:0:0:
136,176,78093,1,0,0:0:0:0:
168,211,78174,2,0,L|163:276,3,47.5,2|0|0|0,0:0|0:0|0:0|0:0,0:0:0:0:
216,320,78498,5,8,0:0:0:0:
260,337,78579,1,0,0:0:0:0:
307,336,78660,1,0,0:0:0:0:
349,316,78741,1,0,0:0:0:0:
381,281,78822,2,0,L|376:216,3,47.5,8|0|2|0,0:0|0:0|0:0|0:0,0:0:0:0:
324,176,79147,5,8,0:0:0:0:
303,134,79228,1,0,0:0:0:0:
306,87,79309,1,0,0:0:0:0:
332,48,79390,1,0,0:0:0:0:
375,27,79471,2,0,P|403:25|443:27,1,47.5,8|0,0:0|0:0,0:0:0:0:
283,166,79634,2,0,P|259:166|236:165,1,47.5,8|8,0:0|0:0,0:0:0:0:
364,160,79796,6,0,L|484:156,1,95
376,328,80039,2,0,L|470:325,1,95
416,240,80282,1,0,0:0:0:0:
256,340,80444,5,8,0:0:0:0:
213,359,80525,1,0,0:0:0:0:
166,355,80606,1,0,0:0:0:0:
127,328,80687,1,0,0:0:0:0:
106,286,80768,1,2,0:0:0:0:
109,240,80849,1,0,0:0:0:0:
134,200,80930,1,0,0:0:0:0:
159,160,81012,1,0,0:0:0:0:
161,113,81093,5,8,0:0:0:0:
140,71,81174,1,0,0:0:0:0:
101,44,81255,1,0,0:0:0:0:
54,40,81336,1,0,0:0:0:0:
12,60,81417,2,0,L|18:132,1,47.5
159,160,81579,2,0,L|155:207,1,47.5,2|0,0:0|0:0,0:0:0:0:
12,260,81742,6,0,B|60:248|104:272|104:272|154:298|230:262,1,190,8|2,0:0|0:0,0:0:0:0:
392,200,82228,1,0,0:0:0:0:
152,68,82390,2,0,B|145:108|145:108|155:224,1,142.5,2|2,0:0|0:0,0:0:0:0:
196,275,82715,1,0,0:0:0:0:
392,200,82877,1,2,0:0:0:0:
136,332,83039,5,8,0:0:0:0:
175,357,83120,1,0,0:0:0:0:
222,356,83201,1,0,0:0:0:0:
260,330,83282,1,0,0:0:0:0:
277,286,83363,1,2,0:0:0:0:
267,240,83444,1,0,0:0:0:0:
257,194,83525,1,0,0:0:0:0:
274,150,83606,1,0,0:0:0:0:
312,124,83687,1,0,0:0:0:0:
359,123,83768,1,0,0:0:0:0:
398,148,83850,1,0,0:0:0:0:
442,162,83931,1,0,0:0:0:0:
485,146,84012,1,2,0:0:0:0:
509,105,84093,1,0,0:0:0:0:
502,59,84174,1,0,0:0:0:0:
467,28,84255,1,0,0:0:0:0:
421,25,84336,6,0,L|356:24,1,47.5,8|0,0:0|0:0,0:0:0:0:
240,152,84498,5,0,0:0:0:0:
272,185,84579,1,0,0:0:0:0:
318,189,84660,1,2,0:0:0:0:
355,162,84741,1,0,0:0:0:0:
365,116,84822,1,2,0:0:0:0:
343,76,84903,1,2,0:0:0:0:
299,60,84985,2,0,L|236:56,1,47.5,2|2,0:0|0:0,0:0:0:0:
120,144,85147,1,2,0:0:0:0:
120,144,85228,2,0,L|188:140,1,47.5,2|2,0:0|0:0,0:0:0:0:
368,188,85390,1,2,0:0:0:0:
368,188,85471,2,0,L|300:184,1,47.5,2|2,0:0|0:0,0:0:0:0:
268,264,85634,6,0,L|264:304,30,23.75,2|0|2|0|2|0|2|0|2|0|2|0|2|0|2|0|2|0|2|0|2|0|2|0|2|0|2|0|2|0|2,0:0|0:0|0:0|0:0|0:0|0:0|0:0|0:0|0:0|0:0|0:0|0:0|0:0|0:0|0:0|0:0|0:0|0:0|0:0|0:0|0:0|0:0|0:0|0:0|0:0|0:0|0:0|0:0|0:0|0:0|0:0,0:0:0:0:
279,238,86931,6,0,B|263:184|292:141|292:141|328:92|303:22,2,213.750008153916
460,220,88228,5,12,0:0:0:0:
292,344,88390,2,0,L|160:340,1,95,8|2,0:0|0:0,0:0:0:0:
160,156,88715,1,0,0:0:0:0:
160,156,88796,1,0,0:0:0:0:
160,156,88877,2,0,L|292:160,1,95,0|8,0:0|0:0,0:0:0:0:
68,200,89201,2,0,P|60:118|128:70,1,142.5,2|0,0:0|0:0,0:0:0:0:
128,72,89525,5,8,0:0:0:0:
160,288,89688,1,8,0:0:0:0:
264,72,89850,2,0,L|163:68,1,95,2|0,0:0|0:0,0:0:0:0:
128,72,90093,1,0,0:0:0:0:
88,76,90174,1,0,0:0:0:0:
272,252,90336,1,8,0:0:0:0:
400,136,90498,2,0,L|403:41,1,95,2|0,0:0|0:0,0:0:0:0:
403,41,90742,1,0,0:0:0:0:
403,41,90823,5,12,0:0:0:0:
364,240,90985,1,2,0:0:0:0:
480,144,91147,1,2,0:0:0:0:
339,92,91309,2,0,L|268:100,2,47.5
480,144,91634,1,2,0:0:0:0:
376,265,91796,2,0,L|243:250,1,95,2|0,0:0|0:0,0:0:0:0:
336,28,92120,5,8,0:0:0:0:
384,252,92282,1,0,0:0:0:0:
204,140,92444,2,0,L|295:144,1,47.5,2|0,0:0|0:0,0:0:0:0:
440,88,92606,1,8,0:0:0:0:
440,88,92688,2,0,L|320:93,1,95,2|8,0:0|0:0,0:0:0:0:
300,72,92931,1,8,0:0:0:0:
256,92,93012,2,0,L|136:97,1,95,8|0,0:0|0:0,0:0:0:0:
17,176,93255,2,0,P|9:153|9:129,1,47.5,2|2,0:0|0:0,0:0:0:0:
88,140,93417,6,0,L|84:252,1,95,12|8,0:0|0:0,0:0:0:0:
79,370,93742,1,2,0:0:0:0:
146,292,93863,1,0,0:0:0:0:
164,261,93944,1,0,0:0:0:0:
170,227,94025,1,0,0:0:0:0:
84,234,94228,1,8,0:0:0:0:
255,215,94390,2,0,L|387:219,1,95,2|0,0:0|0:0,0:0:0:0:
375,227,94634,1,0,0:0:0:0:
399,235,94715,5,8,0:0:0:0:
251,309,94877,1,8,0:0:0:0:
184,152,95039,2,0,B|188:124|188:124|180:80|180:80|184:44,1,95,2|0,0:0|0:0,0:0:0:0:
182,58,95282,1,0,0:0:0:0:
182,58,95363,1,0,0:0:0:0:
390,150,95525,2,0,B|386:178|386:178|394:222|394:222|390:258,1,95,8|2,0:0|0:0,0:0:0:0:
240,309,95850,5,0,0:0:0:0:
220,312,95931,1,0,0:0:0:0:
196,316,96012,1,12,0:0:0:0:
104,332,96174,1,8,0:0:0:0:
317,357,96336,2,0,B|331:313|331:313|310:252,1,95,2|0,0:0|0:0,0:0:0:0:
308,249,96579,1,0,0:0:0:0:
308,249,96661,1,0,0:0:0:0:
431,294,96823,1,8,0:0:0:0:
504,132,96985,1,0,0:0:0:0:
464,157,97066,1,0,0:0:0:0:
418,167,97147,1,0,0:0:0:0:
371,160,97228,1,0,0:0:0:0:
329,137,97309,2,0,P|314:111|308:81,1,47.5
200,96,97471,5,2,0:0:0:0:
159,73,97552,1,2,0:0:0:0:
113,83,97633,1,2,0:0:0:0:
84,120,97714,1,0,0:0:0:0:
86,166,97795,1,2,0:0:0:0:
117,201,97876,1,0,0:0:0:0:
163,207,97958,2,0,P|211:206|247:197,1,47.5,8|8,0:0|0:0,0:0:0:0:
328,284,98120,1,8,0:0:0:0:
328,284,98201,1,8,0:0:0:0:
328,284,98282,2,0,P|280:285|244:294,1,47.5,8|0,0:0|0:0,0:0:0:0:
375,345,98444,6,0,B|410:311|418:264|372:220|372:220|320:208,1,178.12500679493,12|0,0:0|0:0,0:0:0:0:
156,84,98931,6,0,B|132:117|132:117|301:111,1,170.999994781494
280,72,99255,1,0,0:0:0:0:
319,47,99336,1,0,0:0:0:0:
366,47,99417,1,0,0:0:0:0:
405,73,99498,1,0,0:0:0:0:
424,116,99579,1,2,0:0:0:0:
418,162,99660,1,0,0:0:0:0:
387,197,99741,1,0,0:0:0:0:
356,232,99823,1,0,0:0:0:0:
349,278,99904,5,8,0:0:0:0:
368,321,99985,1,0,0:0:0:0:
407,347,100066,1,0,0:0:0:0:
454,347,100147,1,0,0:0:0:0:
494,322,100228,2,0,L|496:260,3,47.5,2|0|0|2,0:0|0:0|0:0|0:0,0:0:0:0:
416,216,100552,2,0,L|414:154,3,47.5,2|0|0|2,0:0|0:0|0:0|0:0,0:0:0:0:
480,92,100877,1,2,0:0:0:0:
432,90,100958,1,0,0:0:0:0:
385,88,101039,1,2,0:0:0:0:
337,86,101120,1,0,0:0:0:0:
290,84,101201,6,0,L|301:152,1,47.5,8|0,0:0|0:0,0:0:0:0:
312,280,101363,1,0,0:0:0:0:
312,280,101444,1,0,0:0:0:0:
312,280,101525,1,2,0:0:0:0:
312,280,101606,1,0,0:0:0:0:
312,280,101688,6,0,L|365:236,1,47.5,8|0,0:0|0:0,0:0:0:0:
471,163,101850,1,0,0:0:0:0:
471,163,101931,1,0,0:0:0:0:
471,163,102012,1,2,0:0:0:0:
471,163,102093,1,0,0:0:0:0:
471,163,102174,6,0,L|476:64,1,95,8|0,0:0|0:0,0:0:0:0:
301,24,102498,6,0,L|299:0,6,23.75
227,97,102823,6,0,L|225:121,6,23.75
138,50,103147,6,0,L|136:26,10,23.75
96,132,103634,6,0,P|100:185|110:244,1,95,12|0,0:0|0:0,0:0:0:0:
236,266,103958,1,0,0:0:0:0:
336,56,104120,1,2,0:0:0:0:
307,76,104201,1,0,0:0:0:0:
273,86,104282,1,0,0:0:0:0:
237,85,104363,1,0,0:0:0:0:
204,73,104444,1,8,0:0:0:0:
259,5,104606,1,0,0:0:0:0:
329,157,104769,1,2,0:0:0:0:
179,233,104931,6,0,B|219:241|219:241|253:230|291:239,1,95,8|0,0:0|0:0,0:0:0:0:
254,317,105255,1,0,0:0:0:0:
100,280,105417,1,2,0:0:0:0:
92,245,105498,1,0,0:0:0:0:
99,210,105579,1,0,0:0:0:0:
116,180,105660,1,0,0:0:0:0:
146,159,105741,1,8,0:0:0:0:
132,356,105904,1,0,0:0:0:0:
32,144,106066,1,2,0:0:0:0:
266,164,106228,6,0,L|380:160,1,95,8|0,0:0|0:0,0:0:0:0:
468,268,106552,1,0,0:0:0:0:
439,305,106633,1,0,0:0:0:0:
396,323,106714,1,2,0:0:0:0:
349,318,106795,1,0,0:0:0:0:
311,290,106876,1,0,0:0:0:0:
273,262,106958,1,0,0:0:0:0:
226,257,107039,1,8,0:0:0:0:
183,275,107120,1,0,0:0:0:0:
152,312,107201,2,0,L|158:372,1,47.5
311,290,107363,2,0,L|315:242,1,47.5,2|0,0:0|0:0,0:0:0:0:
208,128,107525,6,0,L|218:230,1,95,8|0,0:0|0:0,0:0:0:0:
280,64,107850,1,0,0:0:0:0:
239,39,107931,1,0,0:0:0:0:
192,37,108012,1,2,0:0:0:0:
150,57,108093,1,0,0:0:0:0:
122,95,108174,2,0,P|110:135|113:172,1,47.5
184,220,108336,2,0,P|224:210|255:189,1,47.5,8|0,0:0|0:0,0:0:0:0:
260,108,108498,2,0,P|231:77|197:61,1,47.5
28,200,108661,1,2,0:0:0:0:
93,269,108823,6,0,L|96:364,1,95,8|0,0:0|0:0,0:0:0:0:
460,284,109147,5,0,0:0:0:0:
413,294,109228,1,0,0:0:0:0:
366,293,109309,1,2,0:0:0:0:
320,284,109390,1,0,0:0:0:0:
273,274,109471,1,0,0:0:0:0:
226,276,109552,1,0,0:0:0:0:
180,288,109634,6,0,L|171:359,1,47.5,8|0,0:0|0:0,0:0:0:0:
24,224,109796,2,0,L|30:271,1,47.5
204,144,109958,2,0,L|197:191,1,47.5,2|0,0:0|0:0,0:0:0:0:
0,48,110120,6,0,L|11:142,1,95,8|0,0:0|0:0,0:0:0:0:
51,218,110363,5,0,0:0:0:0:
92,239,110444,1,0,0:0:0:0:
138,230,110525,1,0,0:0:0:0:
169,195,110606,1,2,0:0:0:0:
173,149,110687,1,0,0:0:0:0:
147,110,110768,1,8,0:0:0:0:
104,96,110850,6,0,L|110:58,1,23.75
140,97,110931,2,0,L|146:59,1,23.75,2|0,0:0|0:0,0:0:0:0:
171,98,111012,2,0,L|177:60,1,23.75
205,99,111093,2,0,L|211:61,1,23.75,8|0,0:0|0:0,0:0:0:0:
239,100,111174,2,0,L|245:62,1,23.75
273,101,111255,2,0,L|279:63,1,23.75,2|0,0:0|0:0,0:0:0:0:
307,102,111336,2,0,L|313:64,1,23.75
341,103,111417,6,0,P|434:78|396:8,1,190,8|2,0:0|0:0,0:0:0:0:
320,256,111904,1,2,0:0:0:0:
500,224,112066,1,2,0:0:0:0:
272,84,112228,6,0,L|286:207,1,95,2|0,0:0|0:0,0:0:0:0:
416,264,112471,2,0,L|426:169,1,95,2|0,0:0|0:0,0:0:0:0:
496,60,112715,6,0,B|465:20|415:18|381:49|381:49|381:118|325:188|174:149|168:37|265:-46|357:36|357:149|199:185|145:116|145:52|145:52|113:18|42:27|30:72,1,721.999980720521
62,192,114174,5,0,0:0:0:0:
62,192,114336,2,0,L|64:224,2,23.75
136,88,115471,1,2,0:0:0:0:
136,88,115634,1,0,0:0:0:0:
136,88,115796,1,0,0:0:0:0:
136,88,115958,2,0,L|256:92,1,118.75,0|2,0:0|0:0,0:0:0:0:
324,136,116931,5,0,0:0:0:0:
324,136,117093,1,0,0:0:0:0:
324,136,117255,2,0,P|336:196|320:236,1,95
272,288,118066,6,0,L|168:296,1,95,2|2,0:0|0:0,0:0:0:0:
104,344,119547,6,0,B|96:315|96:315|99:266,1,71.25,2|0,0:0|0:0,0:0:0:0:
180,160,120917,2,0,B|188:189|188:189|185:238,1,71.25,2|0,0:0|0:0,0:0:0:0:
80,88,122439,6,0,B|124:86|124:86|153:99|153:99|199:96|199:96|220:81|220:81|254:78|254:78|236:100,1,207.8125
