osu file format v14

[General]
AudioFilename: -+.mp3
AudioLeadIn: 0
PreviewTime: 86931
Countdown: 0
SampleSet: Soft
StackLeniency: 0.2
Mode: 0
LetterboxInBreaks: 0
EpilepsyWarning: 1
WidescreenStoryboard: 1

[Editor]
Bookmarks: 2607,12985,23363,33742,44120,54498,64877,75255,86931,88228,93417,98931,103634,108823,114174
DistanceSpacing: 2
BeatDivisor: 16
GridSize: 4
TimelineZoom: 5.599997

[Metadata]
Title:-+
TitleUnicode:-+
Artist:daisan
ArtistUnicode:daisan
Creator:Starfy
Version:DSE Wintertime 2019
Source:BOF2013
Tags:minus plus konzertsaal - THE BMS OF FIGHTERS 2013 Dirt Art Color Teller xellox piano StarForYou Kyle Y IamKwaN happy623 -N_a_n_a_k_o- Nanako Kencho Chaoslitz [ Drop ] choikapo Regou Rizia Kawaiwkyik Nakano Itsuki StarrStyx Prophecy aabc271 Nardoxyribonucleic Skylish ll-oscar autofanboy alienflybot hokin1995 pwhk hong kong hk muse dash electronic instrumental
BeatmapID:1870148
BeatmapSetID:389617

[Difficulty]
HPDrainRate:6
CircleSize:4.2
OverallDifficulty:9
ApproachRate:9.5
SliderMultiplier:1.8
SliderTickRate:1

[Events]
//Background and Video events
0,0,"BG.png",0,0
//Break Periods
//Storyboard Layer 0 (Background)
//Storyboard Layer 1 (Fail)
//Storyboard Layer 2 (Pass)
//Storyboard Layer 3 (Foreground)
//Storyboard Layer 4 (Overlay)
//Storyboard Sound Samples

[TimingPoints]
2607,324.324324324324,4,2,1,20,1,0
2607,-400,4,2,1,20,0,0
12985,-400,4,2,2,30,0,0
13147,-400,4,2,1,30,0,0
18174,-200,4,2,1,30,0,0
22715,-100,4,2,1,60,0,0
23363,-57.1428571428571,4,1,1,80,0,1
23688,-80,4,1,1,70,0,1
24661,-57.1428571428571,4,1,1,80,0,1
24985,-80,4,1,1,70,0,1
25958,-57.1428571428571,4,1,1,80,0,1
26282,-50,4,1,1,70,0,1
26606,-44.5,4,1,1,70,0,1
26931,-40,4,1,1,70,0,1
28552,-66.6666666666667,4,1,1,70,0,1
31147,-80,4,1,1,70,0,1
33742,-100,4,1,1,60,0,0
42823,-66.6666666666667,4,1,1,60,0,0
44120,-100,4,1,3,60,0,0
45012,-100,4,2,1,20,0,0
45093,-400,4,2,1,40,0,0
54498,-200,4,2,2,40,0,0
54579,-200,4,2,1,40,0,0
62282,-200,4,1,1,50,0,0
62606,-200,4,1,1,60,0,0
63579,-200,4,1,1,70,0,0
64228,-133.333333333333,4,2,1,70,0,0
64877,-40,4,1,1,70,0,0
75255,-100,4,1,1,50,0,0
80444,-100,4,1,1,60,0,0
83039,-100,4,1,1,70,0,0
85634,-50,4,1,1,40,0,0
85715,-50,4,1,1,42,0,0
85796,-50,4,1,1,44,0,0
85877,-50,4,1,1,46,0,0
85958,-50,4,1,1,48,0,0
86039,-50,4,1,1,50,0,0
86120,-50,4,1,1,52,0,0
86201,-50,4,1,1,54,0,0
86282,-50,4,1,1,56,0,0
86363,-50,4,1,1,58,0,0
86444,-50,4,1,1,60,0,0
86525,-50,4,1,1,62,0,0
86606,-50,4,1,1,64,0,0
86688,-50,4,1,1,66,0,0
86769,-50,4,1,1,68,0,0
86850,-50,4,1,1,70,0,0
86931,-200,4,1,5,80,0,1
87012,-200,4,1,1,40,0,0
87336,-200,4,1,1,20,0,0
87904,-133.333333333333,4,1,1,60,0,0
88147,-100,4,1,1,20,0,0
88228,-80,4,1,1,70,0,1
90823,-133.333333333333,4,1,1,70,0,1
90985,-57.1428571428571,4,1,6,70,0,1
91471,-133.333333333333,4,1,1,70,0,1
91634,-57.1428571428571,4,1,6,70,0,1
92120,-80,4,1,1,70,0,1
97958,-33.3333333333333,4,1,1,70,0,1
98444,-400,4,1,1,70,0,1
98931,-80,4,1,1,70,0,1
102174,-80,4,1,1,80,0,1
102498,-66.6666666666667,4,1,1,80,0,1
103634,-80,4,1,1,70,0,1
108823,-66.6666666666667,4,1,1,70,0,1
110120,-57.1428571428571,4,1,1,70,0,1
111417,-50,4,1,1,70,0,1
114012,-100,4,1,1,5,0,1
114174,-400,4,1,3,40,0,0
114215,-400,4,2,1,40,0,0
118066,370.37037037037,4,2,1,35,1,0
118066,-400,4,2,1,35,0,0
119547,379.746835443038,4,2,1,30,1,0
119547,-400,4,2,1,30,0,0
120917,413.793103448276,4,2,1,25,1,0
120917,-400,4,2,1,25,0,0
122439,491.803278688525,4,2,1,20,1,0
122439,-400,4,2,1,20,0,0

[Colours]
Combo1 : 41,214,166
Combo2 : 128,0,255
Combo3 : 128,255,255
Combo4 : 3,90,252

[HitObjects]
32,352,2607,6,0,L|128:336,3,90,2|2|2|2,0:0|0:0|0:0|0:0,0:0:0:0:
256,192,5201,5,2,0:0:0:0:
256,192,6498,1,2,0:0:0:0:
480,352,7796,6,0,L|384:336,3,90,2|2|2|2,0:0|0:0|0:0|0:0,0:0:0:0:
256,192,10390,5,2,0:0:0:0:
256,192,11687,1,2,0:0:0:0:
256,192,12336,6,0,P|240:160|248:128,1,67.5
288,32,12985,6,0,L|376:48,1,90,4|2,0:0|0:0,0:0:0:0:
480,160,14282,2,0,L|392:176,1,90,2|2,0:0|0:0,0:0:0:0:
256,352,15579,5,2,0:0:0:0:
256,352,16228,1,2,0:0:0:0:
256,352,16877,1,2,0:0:0:0:
256,352,17525,1,2,0:0:0:0:
224,32,18174,6,0,L|136:48,1,90,2|0,0:0|0:0,0:0:0:0:
32,160,18823,2,0,L|120:176,1,90,2|0,0:0|0:0,0:0:0:0:
224,32,19471,2,0,L|136:48,1,90,2|0,0:0|0:0,0:0:0:0:
32,160,20120,2,0,L|120:176,1,90,2|0,0:0|0:0,0:0:0:0:
256,352,20768,5,2,0:0:0:0:
256,352,20931,1,0,0:0:0:0:
256,352,21093,1,0,0:0:0:0:
256,352,21256,1,0,0:0:0:0:
256,352,21417,1,0,0:0:0:0:
256,352,21580,1,0,0:0:0:0:
256,352,21742,1,0,0:0:0:0:
256,352,21905,1,0,0:0:0:0:
256,352,22066,6,0,P|288:296|272:224,1,135,2|0,0:0|0:0,0:0:0:0:
224,160,22715,5,2,0:0:0:0:
220,156,22796,1,2,0:0:0:0:
216,152,22877,1,2,0:0:0:0:
212,148,22958,1,2,0:0:0:0:
208,144,23039,6,0,L|216:112,3,22.5,2|2|2|0,0:0|0:0|0:0|0:0,0:0:0:0:
144,192,23201,2,0,L|152:224,3,22.5,2|2|2|0,0:0|0:0|0:0|0:0,0:0:0:0:
80,144,23363,6,0,P|32:96|64:16,1,157.500001502037,12|8,0:0|0:0,0:0:0:0:
71,224,23606,1,0,0:0:0:0:
71,224,23688,6,0,L|55:280,1,56.25,2|0,0:0|0:0,0:0:0:0:
152,296,23850,2,0,L|136:352,1,56.25,8|8,0:0|0:0,0:0:0:0:
288,224,24012,6,0,L|272:169,1,56.25,8|0,0:0|0:0,0:0:0:0:
369,152,24174,1,8,0:0:0:0:
361,124,24255,1,0,0:0:0:0:
353,97,24336,5,2,0:0:0:0:
400,66,24417,1,8,0:0:0:0:
455,76,24498,1,8,0:0:0:0:
486,122,24579,1,8,0:0:0:0:
476,177,24661,6,0,B|444:225|444:225|476:321,1,157.500001502037,12|8,0:0|0:0,0:0:0:0:
325,188,24904,1,0,0:0:0:0:
325,188,24985,6,0,P|300:174|272:170,1,56.25,2|0,0:0|0:0,0:0:0:0:
187,123,25147,2,0,P|162:137|145:159,1,56.25,0|8,0:0|0:0,0:0:0:0:
84,318,25309,6,0,P|108:303|125:281,1,56.25,8|0,0:0|0:0,0:0:0:0:
209,231,25471,1,8,0:0:0:0:
208,203,25552,1,0,0:0:0:0:
198,177,25633,5,2,0:0:0:0:
250,194,25715,1,8,0:0:0:0:
302,178,25796,1,8,0:0:0:0:
334,134,25877,1,8,0:0:0:0:
333,78,25958,6,0,P|275:43|253:108,1,157.500001502037,12|8,0:0|0:0,0:0:0:0:
400,192,26174,2,0,L|407:140,1,52.500000500679
347,63,26282,6,0,P|271:31|234:104,1,180,2|0,0:0|0:0,0:0:0:0:
432,176,26498,2,0,L|440:116,1,60
359,46,26606,6,0,P|270:14|212:89,1,202.247191011236,0|8,0:0|0:0,0:0:0:0:
464,160,26823,2,0,L|472:93,1,67.4157303370786
370,28,26931,6,0,P|323:0|268:0,1,112.5,2|0,0:0|0:0,0:0:0:0:
188,72,27093,2,0,P|160:119|159:175,1,112.5,8|8,0:0|0:0,0:0:0:0:
480,352,27255,5,12,0:0:0:0:
491,307,27336,1,0,0:0:0:0:
480,263,27417,1,0,0:0:0:0:
448,230,27498,1,8,0:0:0:0:
403,217,27579,1,2,0:0:0:0:
359,229,27661,1,0,0:0:0:0:
325,260,27742,5,2,0:0:0:0:
302,328,27823,1,2,0:0:0:0:
243,369,27904,1,8,0:0:0:0:
171,368,27985,1,2,0:0:0:0:
113,324,28066,1,8,0:0:0:0:
91,255,28147,1,8,0:0:0:0:
115,186,28228,6,0,P|152:176|192:192,2,75,2|0|0,0:0|0:0|0:0,0:0:0:0:
52,52,28390,1,2,0:0:0:0:
68,68,28471,1,2,0:0:0:0:
84,84,28552,6,0,L|100:12,1,67.5000025749208,12|0,0:0|0:0,0:0:0:0:
244,148,28715,2,0,L|260:76,1,67.5000025749208,8|0,0:0|0:0,0:0:0:0:
404,84,28877,2,0,L|420:12,1,67.5000025749208,2|0,0:0|0:0,0:0:0:0:
100,100,29039,6,0,L|116:28,1,67.5000025749208,8|0,0:0|0:0,0:0:0:0:
260,164,29202,2,0,L|276:92,1,67.5000025749208,8|0,0:0|0:0,0:0:0:0:
420,100,29364,2,0,L|436:28,1,67.5000025749208,8|0,0:0|0:0,0:0:0:0:
116,116,29525,6,0,L|132:44,1,67.5000025749208,2|8,0:0|0:0,0:0:0:0:
276,180,29688,2,0,L|295:93,2,45.0000017166138,8|0|0,0:0|0:0|0:0,0:0:0:0:
388,68,29850,6,0,L|404:-4,1,67.5000025749208,12|0,0:0|0:0,0:0:0:0:
386,233,30012,2,0,L|440:282,1,67.5000025749208,8|0,0:0|0:0,0:0:0:0:
244,148,30174,2,0,L|173:170,1,67.5000025749208,2|0,0:0|0:0,0:0:0:0:
434,150,30336,6,0,L|504:128,1,67.5000025749208,8|8,0:0|0:0,0:0:0:0:
290,231,30498,2,0,L|275:303,1,67.5000025749208,8|8,0:0|0:0,0:0:0:0:
293,66,30660,2,0,L|238:15,1,67.5000025749208,8|0,0:0|0:0,0:0:0:0:
386,233,30823,5,2,0:0:0:0:
398,244,30904,1,8,0:0:0:0:
410,255,30985,1,8,0:0:0:0:
423,267,31066,1,8,0:0:0:0:
435,278,31147,5,12,0:0:0:0:
400,315,31228,1,0,0:0:0:0:
349,323,31309,1,8,0:0:0:0:
303,300,31390,1,0,0:0:0:0:
279,254,31471,2,0,P|271:222|279:182,1,56.25,2|8,0:0|0:0,0:0:0:0:
463,272,31634,5,8,0:0:0:0:
416,322,31715,1,8,0:0:0:0:
347,333,31796,1,8,0:0:0:0:
285,302,31877,1,8,0:0:0:0:
253,240,31958,2,0,P|269:198|310:161,1,56.25,8|8,0:0|0:0,0:0:0:0:
491,266,32120,5,2,0:0:0:0:
432,329,32201,1,2,0:0:0:0:
345,343,32282,1,2,0:0:0:0:
267,304,32363,1,2,0:0:0:0:
225,225,32444,5,8,0:0:0:0:
214,220,32525,1,2,0:0:0:0:
200,214,32606,1,8,0:0:0:0:
185,212,32688,1,8,0:0:0:0:
170,211,32769,1,2,0:0:0:0:
156,213,32850,1,8,0:0:0:0:
142,216,32931,1,8,0:0:0:0:
129,224,33013,1,2,0:0:0:0:
116,231,33093,5,2,0:0:0:0:
83,207,33173,1,2,0:0:0:0:
64,166,33255,1,8,0:0:0:0:
68,117,33336,1,8,0:0:0:0:
99,72,33417,5,2,0:0:0:0:
151,46,33498,1,2,0:0:0:0:
215,53,33579,1,2,0:0:0:0:
273,94,33660,1,2,0:0:0:0:
307,163,33742,5,12,0:0:0:0:
433,209,33905,1,8,0:0:0:0:
411,75,34067,1,2,0:0:0:0:
384,149,34229,5,0,0:0:0:0:
384,149,34310,1,0,0:0:0:0:
384,149,34391,1,0,0:0:0:0:
384,149,34472,1,0,0:0:0:0:
433,209,34553,6,0,P|450:214|481:208,1,45,8|0,0:0|0:0,0:0:0:0:
411,75,34716,2,0,P|405:57|385:32,1,45,2|0,0:0|0:0,0:0:0:0:
307,163,34878,2,0,P|293:174|282:204,1,45
328,294,35040,5,8,0:0:0:0:
384,149,35202,1,8,0:0:0:0:
231,174,35364,1,2,0:0:0:0:
314,204,35526,5,0,0:0:0:0:
314,204,35607,1,8,0:0:0:0:
314,204,35689,1,0,0:0:0:0:
314,204,35770,1,0,0:0:0:0:
384,149,35851,6,0,P|396:136|406:106,1,45,8|0,0:0|0:0,0:0:0:0:
231,174,36013,2,0,P|213:168|182:173,1,45,2|0,0:0|0:0,0:0:0:0:
328,294,36175,2,0,P|331:310|352:335,1,45,0|8,0:0|0:0,0:0:0:0:
483,269,36336,5,12,0:0:0:0:
314,204,36499,1,8,0:0:0:0:
343,383,36660,1,2,0:0:0:0:
379,285,36823,5,8,0:0:0:0:
379,285,36904,1,8,0:0:0:0:
379,285,36985,1,8,0:0:0:0:
379,285,37066,1,8,0:0:0:0:
483,269,37147,6,0,P|474:254|448:235,1,45,8|0,0:0|0:0,0:0:0:0:
314,204,37309,2,0,P|305:218|302:250,1,45,2|0,0:0|0:0,0:0:0:0:
343,383,37471,2,0,P|360:383|389:369,1,45
454,90,37634,5,8,0:0:0:0:
247,122,37796,1,8,0:0:0:0:
379,285,37958,1,2,0:0:0:0:
360,160,38120,5,8,0:0:0:0:
354,133,38201,1,2,0:0:0:0:
349,102,38282,1,8,0:0:0:0:
344,71,38363,1,2,0:0:0:0:
339,40,38444,5,8,0:0:0:0:
315,60,38525,1,2,0:0:0:0:
291,80,38606,2,0,L|243:72,1,45,2|0,0:0|0:0,0:0:0:0:
136,152,38769,1,2,0:0:0:0:
160,172,38850,1,2,0:0:0:0:
184,192,38931,5,12,0:0:0:0:
312,136,39093,1,8,0:0:0:0:
296,274,39255,1,2,0:0:0:0:
264,201,39417,5,0,0:0:0:0:
264,201,39498,1,0,0:0:0:0:
264,201,39579,1,0,0:0:0:0:
264,201,39661,1,0,0:0:0:0:
184,192,39742,6,0,L|116:184,1,45,8|0,0:0|0:0,0:0:0:0:
312,136,39904,2,0,L|351:81,1,45,2|0,0:0|0:0,0:0:0:0:
296,274,40066,2,0,L|323:335,1,45,8|0,0:0|0:0,0:0:0:0:
168,330,40228,5,8,0:0:0:0:
264,201,40390,1,8,0:0:0:0:
327,348,40552,1,2,0:0:0:0:
253,293,40715,5,0,0:0:0:0:
253,293,40796,1,8,0:0:0:0:
253,293,40877,1,0,0:0:0:0:
253,293,40958,1,0,0:0:0:0:
168,330,41039,6,0,L|105:357,1,45,8|0,0:0|0:0,0:0:0:0:
264,201,41201,2,0,L|272:133,1,45,2|8,0:0|0:0,0:0:0:0:
327,348,41363,2,0,L|381:388,1,45,8|8,0:0|0:0,0:0:0:0:
422,219,41525,6,0,P|430:197|432:175,1,45,12|0,0:0|0:0,0:0:0:0:
427,239,41688,2,0,P|415:258|398:273,1,45,8|0,0:0|0:0,0:0:0:0:
368,256,41850,6,0,P|385:241|397:222,1,45,2|0,0:0|0:0,0:0:0:0:
463,193,42013,2,0,P|461:215|454:237,1,45,2|0,0:0|0:0,0:0:0:0:
301,260,42174,6,0,P|323:255|343:246,1,45,12|8,0:0|0:0,0:0:0:0:
470,135,42337,2,0,P|479:155|484:178,1,45,2|0,0:0|0:0,0:0:0:0:
240,229,42498,6,0,P|261:236|283:238,1,45,2|8,0:0|0:0,0:0:0:0:
446,82,42661,2,0,P|465:94|480:112,1,45,2|0,0:0|0:0,0:0:0:0:
202,171,42823,5,12,0:0:0:0:
235,200,42904,1,8,0:0:0:0:
278,197,42985,2,0,P|304:180|320:148,1,67.5000025749208,8|0,0:0|0:0,0:0:0:0:
224,32,43147,5,2,0:0:0:0:
211,74,43228,1,2,0:0:0:0:
176,103,43309,1,2,0:0:0:0:
130,105,43390,1,2,0:0:0:0:
91,79,43471,2,0,P|74:51|80:16,1,67.5000025749208,8|0,0:0|0:0,0:0:0:0:
32,224,43634,5,2,0:0:0:0:
96,252,43715,1,2,0:0:0:0:
131,313,43796,5,2,0:0:0:0:
139,244,43877,1,2,0:0:0:0:
186,192,43958,1,2,0:0:0:0:
254,178,44039,1,2,0:0:0:0:
320,208,44120,6,0,B|336:256|384:256|400:304|400:304|400:160|496:224|544:48|432:0|364:32,1,495
400,104,45093,5,2,0:0:0:0:
400,104,45255,1,2,0:0:0:0:
400,104,45417,2,0,L|448:96,3,45,2|2|2|2,0:0|0:0|0:0|0:0,0:0:0:0:
112,104,47688,5,2,0:0:0:0:
112,104,47850,1,2,0:0:0:0:
112,104,48012,2,0,L|64:96,3,45,2|2|2|2,0:0|0:0|0:0|0:0,0:0:0:0:
256,320,50282,5,2,0:0:0:0:
256,320,50444,1,2,0:0:0:0:
256,320,50606,2,0,L|256:372,3,45,2|2|2|2,0:0|0:0|0:0|0:0,0:0:0:0:
256,64,52715,5,2,0:0:0:0:
256,64,52877,1,2,0:0:0:0:
256,64,53039,1,2,0:0:0:0:
320,128,53201,6,0,L|352:160,1,45,2|2,0:0|0:0,0:0:0:0:
192,128,53850,2,0,L|160:160,1,45,2|2,0:0|0:0,0:0:0:0:
256,352,54498,5,4,0:0:0:0:
256,352,55147,1,0,0:0:0:0:
320,288,55471,6,0,P|328:264|328:240,1,45,2|2,0:0|0:0,0:0:0:0:
256,352,55796,6,0,L|208:344,1,45,2|0,0:0|0:0,0:0:0:0:
128,288,56120,2,0,L|172:280,1,45,2|0,0:0|0:0,0:0:0:0:
328,244,56444,6,0,L|280:236,1,45,2|0,0:0|0:0,0:0:0:0:
200,180,56768,2,0,L|244:172,1,45,2|0,0:0|0:0,0:0:0:0:
256,32,57093,5,0,0:0:0:0:
256,32,57742,1,0,0:0:0:0:
320,96,58066,6,0,P|328:120|328:144,1,45,2|2,0:0|0:0,0:0:0:0:
256,32,58391,6,0,L|208:40,1,45,2|0,0:0|0:0,0:0:0:0:
128,96,58715,2,0,L|172:103,1,45,2|0,0:0|0:0,0:0:0:0:
328,140,59039,6,0,L|280:148,1,45,2|0,0:0|0:0,0:0:0:0:
200,204,59363,2,0,L|244:211,1,45,2|0,0:0|0:0,0:0:0:0:
256,352,59688,5,0,0:0:0:0:
256,352,60012,1,0,0:0:0:0:
256,352,60336,1,0,0:0:0:0:
320,288,60661,6,0,P|328:264|328:240,1,45,2|2,0:0|0:0,0:0:0:0:
256,352,60985,5,2,0:0:0:0:
128,288,61147,1,2,0:0:0:0:
256,352,61309,1,2,0:0:0:0:
128,288,61471,1,2,0:0:0:0:
256,352,61634,5,2,0:0:0:0:
128,288,61796,1,2,0:0:0:0:
149,146,61958,1,2,0:0:0:0:
290,122,62120,1,2,0:0:0:0:
356,249,62282,5,8,0:0:0:0:
282,166,62444,2,0,L|290:122,1,45,8|8,0:0|0:0,0:0:0:0:
328,244,62769,5,8,0:0:0:0:
216,136,62931,2,0,L|223:91,1,45,8|8,0:0|0:0,0:0:0:0:
300,239,63255,5,8,0:0:0:0:
149,105,63417,1,8,0:0:0:0:
152,82,63498,1,8,0:0:0:0:
156,60,63579,6,0,L|161:27,1,22.5,8|8,0:0|0:0,0:0:0:0:
224,92,63742,2,0,L|229:59,1,22.5,8|8,0:0|0:0,0:0:0:0:
283,166,63904,6,0,L|288:198,1,22.5,8|8,0:0|0:0,0:0:0:0:
351,134,64067,2,0,L|356:166,1,22.5,8|8,0:0|0:0,0:0:0:0:
403,63,64228,6,0,L|435:68,11,22.5,2|2|2|2|2|2|2|2|2|2|2|2,0:0|0:0|0:0|0:0|0:0|0:0|0:0|0:0|0:0|0:0|0:0|0:0,0:0:0:0:
451,207,64877,6,0,B|323:95|403:63|403:63|467:127|323:175|336:256|387:303,1,450,12|0,0:0|0:0,0:0:0:0:
392,304,65363,2,0,L|504:296,1,112.5,12|0,0:0|0:0,0:0:0:0:
224,352,65688,6,0,L|232:312,17,37.5,2|2|2|2|2|2|2|2|2|2|2|2|2|2|2|2|2|2,0:2|0:2|0:2|0:2|0:2|0:2|0:2|0:2|0:2|0:2|0:2|0:2|0:2|0:2|0:2|0:2|0:2|0:2,0:0:0:0:
288,264,66174,6,0,B|272:216|200:184|156:216|128:264|88:216|104:184|104:184|160:176|208:296|96:360,1,450,12|0,0:0|0:0,0:0:0:0:
104,352,66661,2,0,P|56:328|56:268,1,112.5,12|0,0:0|0:0,0:0:0:0:
304,144,66985,6,0,P|320:136|352:136,17,37.5,2|2|2|2|2|2|2|2|2|2|2|2|2|2|2|2|2|2,0:2|0:2|0:2|0:2|0:2|0:2|0:2|0:2|0:2|0:2|0:2|0:2|0:2|0:2|0:2|0:2|0:2|0:2,0:0:0:0:
393,183,67471,6,0,B|417:239|417:239|432:140|489:119|489:119|497:47|441:15|441:15|361:55|425:135,1,450,12|0,0:0|0:0,0:0:0:0:
416,104,67958,2,0,P|460:135|512:119,1,112.5,12|0,0:0|0:0,0:0:0:0:
256,208,68282,6,0,L|264:248,17,37.5,2|2|2|2|2|2|2|2|2|2|2|2|2|2|2|2|2|2,0:2|0:2|0:2|0:2|0:2|0:2|0:2|0:2|0:2|0:2|0:2|0:2|0:2|0:2|0:2|0:2|0:2|0:2,0:0:0:0:
280,320,68769,6,0,P|328:296|400:312,1,112.5,12|0,0:0|0:0,0:0:0:0:
424,200,68931,2,0,P|468:229|490:299,1,112.5
256,208,69093,6,0,P|211:178|189:108,1,112.5
80,143,69255,2,0,P|83:89|133:35,1,112.5
172,285,69417,5,8,0:0:0:0:
158,338,69498,1,8,0:0:0:0:
110,365,69579,1,8,0:0:0:0:
57,351,69661,1,8,0:0:0:0:
30,303,69742,5,8,0:0:0:0:
44,250,69823,1,8,0:0:0:0:
92,223,69904,1,8,0:0:0:0:
145,237,69986,1,8,0:0:0:0:
101,294,70066,6,0,B|136:224|69:182|69:182|133:166|149:118|149:118|284:196|216:308,1,450,12|0,0:0|0:0,0:0:0:0:
216,304,70552,2,0,P|280:304|312:336,1,112.5,12|0,0:0|0:0,0:0:0:0:
480,120,70877,6,0,L|440:128,17,37.5,2|2|2|2|2|2|2|2|2|2|2|2|2|2|2|2|2|2,0:2|0:2|0:2|0:2|0:2|0:2|0:2|0:2|0:2|0:2|0:2|0:2|0:2|0:2|0:2|0:2|0:2|0:2,0:0:0:0:
392,72,71363,6,0,B|400:16|328:0|328:0|280:64|320:112|320:112|352:152|320:208|320:208|240:208|248:128,1,450,12|0,0:0|0:0,0:0:0:0:
239,127,71850,2,0,L|127:135,1,112.5,8|0,0:0|0:0,0:0:0:0:
24,360,72147,6,0,P|16:344|16:324,18,37.5,2|2|2|2|2|2|2|2|2|2|2|2|2|2|2|2|2|2|0,0:2|0:2|0:2|0:2|0:2|0:2|0:2|0:2|0:2|0:2|0:2|0:2|0:2|0:2|0:2|0:2|0:2|0:2|0:0,0:0:0:0:
96,320,72661,6,0,B|160:288|144:224|128:192|128:192|192:208|240:176|240:112|240:112|320:132|280:212|240:192,1,450,12|0,0:0|0:0,0:0:0:0:
228,188,73147,2,0,P|188:156|204:92,1,112.5,12|0,0:0|0:0,0:0:0:0:
436,308,73471,6,0,L|476:300,17,37.5,2|2|2|2|2|2|2|2|2|2|2|2|2|2|2|2|2|2,0:2|0:2|0:2|0:2|0:2|0:2|0:2|0:2|0:2|0:2|0:2|0:2|0:2|0:2|0:2|0:2|0:2|0:2,0:0:0:0:
480,224,73958,6,0,L|496:112,1,112.5,12|0,0:0|0:0,0:0:0:0:
368,176,74120,2,0,L|384:64,1,112.5
144,272,74282,6,0,L|160:384,1,112.5
256,224,74444,2,0,L|272:336,1,112.5
32,224,74606,5,8,0:0:0:0:
39,168,74687,1,8,0:0:0:0:
46,112,74769,1,8,0:0:0:0:
53,56,74850,1,8,0:0:0:0:
60,0,74932,5,8,0:0:0:0:
104,34,75012,1,8,0:0:0:0:
148,68,75093,1,8,0:0:0:0:
192,102,75174,1,8,0:0:0:0:
237,135,75255,6,0,P|261:103|253:55,1,90,12|0,0:0|0:0,0:0:0:0:
272,28,75498,2,0,L|320:20,1,45,0|8,0:0|0:0,0:0:0:0:
432,96,75661,1,0,0:0:0:0:
432,96,75742,1,0,0:0:0:0:
432,96,75823,1,0,0:0:0:0:
414,68,75904,6,0,L|398:164,1,90,8|0,0:0|0:0,0:0:0:0:
381,184,76147,2,8,P|357:176|325:176,1,45,0|8,0:0|0:0,0:0:0:0:
208,224,76309,1,0,0:0:0:0:
208,224,76390,1,0,0:0:0:0:
208,224,76471,1,0,0:0:0:0:
234,204,76552,6,0,P|250:164|242:116,1,90,8|0,0:0|0:0,0:0:0:0:
225,90,76796,2,0,L|177:98,1,45,0|8,0:0|0:0,0:0:0:0:
104,196,76958,1,0,0:0:0:0:
104,196,77039,1,0,0:0:0:0:
104,196,77120,1,0,0:0:0:0:
98,164,77201,6,0,L|83:75,1,90,8|0,0:0|0:0,0:0:0:0:
101,47,77444,2,0,P|125:39|149:39,1,45,0|8,0:0|0:0,0:0:0:0:
287,128,77606,1,0,0:0:0:0:
287,128,77688,2,0,P|264:126|243:119,1,45,2|0,0:0|0:0,0:0:0:0:
217,50,77850,6,0,L|313:34,1,90,12|0,0:0|0:0,0:0:0:0:
392,192,78174,2,0,L|488:176,1,90,2|0,0:0|0:0,0:0:0:0:
496,208,78417,1,0,0:0:0:0:
496,208,78498,6,0,P|512:248|504:296,1,90,8|0,0:0|0:0,0:0:0:0:
432,352,78823,1,8,0:0:0:0:
296,232,78985,1,2,0:0:0:0:
432,352,79147,6,0,L|336:344,1,90,8|0,0:0|0:0,0:0:0:0:
296,232,79471,1,2,0:0:0:0:
342,344,79634,1,2,0:0:0:0:
334,352,79715,1,2,0:0:0:0:
326,360,79796,6,0,L|318:312,2,45,2|8|8,0:0|0:0|0:0,0:0:0:0:
224,336,80039,1,2,0:0:0:0:
216,344,80120,6,0,L|208:296,1,45,8|0,0:0|0:0,0:0:0:0:
106,328,80282,2,0,L|98:280,1,45,2|0,0:0|0:0,0:0:0:0:
32,32,80444,5,12,0:0:0:0:
34,36,80525,1,0,0:0:0:0:
36,40,80606,1,8,0:0:0:0:
38,44,80688,1,0,0:0:0:0:
40,48,80769,1,2,0:0:0:0:
42,52,80850,1,0,0:0:0:0:
44,56,80931,1,8,0:0:0:0:
46,60,81012,1,0,0:0:0:0:
120,40,81093,5,8,0:0:0:0:
122,44,81174,1,0,0:0:0:0:
124,48,81255,1,8,0:0:0:0:
126,52,81337,1,0,0:0:0:0:
128,56,81418,1,8,0:0:0:0:
130,60,81499,1,0,0:0:0:0:
132,64,81580,1,2,0:0:0:0:
134,68,81661,1,0,0:0:0:0:
208,48,81742,5,8,0:0:0:0:
212,56,81823,1,0,0:0:0:0:
216,64,81904,1,8,0:0:0:0:
220,72,81985,1,0,0:0:0:0:
224,80,82066,1,2,0:0:0:0:
228,88,82147,1,0,0:0:0:0:
232,96,82228,1,8,0:0:0:0:
236,104,82309,1,0,0:0:0:0:
310,84,82390,5,2,0:0:0:0:
318,100,82472,1,0,0:0:0:0:
326,116,82552,1,8,0:0:0:0:
400,96,82634,5,2,0:0:0:0:
408,112,82716,1,8,0:0:0:0:
416,128,82796,1,0,0:0:0:0:
490,108,82877,5,2,0:0:0:0:
498,124,82958,1,0,0:0:0:0:
506,140,83039,6,0,L|498:188,1,45,12|0,0:0|0:0,0:0:0:0:
486,255,83201,2,0,L|478:303,1,45,8|0,0:0|0:0,0:0:0:0:
360,384,83363,6,0,L|352:336,1,45,2|0,0:0|0:0,0:0:0:0:
332,224,83525,2,0,L|340:269,1,45,8|0,0:0|0:0,0:0:0:0:
214,140,83688,6,0,L|206:188,1,45,8|0,0:0|0:0,0:0:0:0:
194,255,83850,2,0,L|186:303,1,45,8|0,0:0|0:0,0:0:0:0:
68,384,84012,6,0,L|60:336,1,45,2|0,0:0|0:0,0:0:0:0:
40,224,84174,2,0,L|48:269,1,45,8|0,0:0|0:0,0:0:0:0:
353,340,84336,5,12,0:0:0:0:
382,368,84417,1,8,0:0:0:0:
424,377,84498,1,12,0:0:0:0:
467,367,84579,1,8,0:0:0:0:
499,334,84660,5,2,0:0:0:0:
510,290,84742,1,8,0:0:0:0:
499,247,84823,1,8,0:0:0:0:
466,216,84904,1,8,0:0:0:0:
422,205,84985,5,12,0:0:0:0:
354,235,85066,1,8,0:0:0:0:
280,215,85147,1,8,0:0:0:0:
237,151,85228,1,8,0:0:0:0:
245,76,85309,5,2,0:0:0:0:
299,23,85390,1,8,0:0:0:0:
374,17,85471,1,8,0:0:0:0:
439,63,85552,1,8,0:0:0:0:
455,135,85634,6,0,P|438:150|417:159,1,45,2|2,0:0|0:0,0:0:0:0:
443,173,85715,6,0,P|421:178|398:176,1,45,2|2,0:0|0:0,0:0:0:0:
415,199,85796,6,0,P|393:192|374:180,1,45,2|2,0:0|0:0,0:0:0:0:
378,206,85877,6,0,P|362:190|353:169,1,45,2|2,0:0|0:0,0:0:0:0:
341,192,85958,6,0,P|335:170|337:147,1,45,2|2,0:0|0:0,0:0:0:0:
304,200,86039,6,0,P|288:184|279:163,1,45,2|2,0:0|0:0,0:0:0:0:
274,224,86120,6,0,P|252:217|234:204,1,45,2|2,0:0|0:0,0:0:0:0:
261,258,86201,6,0,P|239:263|216:261,1,45,2|2,0:0|0:0,0:0:0:0:
267,298,86282,6,0,P|250:313|230:322,1,45,2|2,0:0|0:0,0:0:0:0:
290,327,86363,6,0,P|282:348|269:366,1,45,2|2,0:0|0:0,0:0:0:0:
324,338,86444,6,0,P|328:359|326:382,1,45,2|2,0:0|0:0,0:0:0:0:
361,334,86525,6,0,P|375:350|384:371,1,45,2|2,0:0|0:0,0:0:0:0:
390,311,86606,6,0,P|411:318|429:331,1,45,2|2,0:0|0:0,0:0:0:0:
430,303,86688,6,0,P|444:319|453:340,1,45,2|2,0:0|0:0,0:0:0:0:
465,315,86769,6,0,P|469:336|467:359,1,45,2|2,0:0|0:0,0:0:0:0:
490,345,86850,6,0,P|482:366|469:384,1,45,2|2,0:0|0:0,0:0:0:0:
390,311,86931,6,0,L|278:303,1,112.5,4|0,0:0|0:0,0:0:0:0:
75,230,87417,6,0,L|186:222,1,112.5,2|0,2:2|0:0,0:0:0:0:
127,177,87904,6,0,L|135:278,1,101.250003862381,0|0,2:2|0:0,0:0:0:0:
123,350,88228,6,0,B|101:366|101:366|93:339,1,56.25,12|0,0:0|0:0,0:0:0:0:
301,253,88390,2,0,B|322:236|322:236|330:263,1,56.25,8|0,0:0|0:0,0:0:0:0:
135,278,88552,2,0,B|193:285|193:285|225:317|225:317|289:325,1,168.75,2|0,0:0|0:0,0:0:0:0:
404,269,88877,5,0,0:0:0:0:
364,98,89039,1,8,0:0:0:0:
480,352,89201,2,0,B|512:360|512:360|489:283,1,112.5,2|0,0:0|0:0,0:0:0:0:
459,202,89444,1,0,0:0:0:0:
451,210,89525,6,0,P|435:194|427:154,1,56.25,12|0,0:0|0:0,0:0:0:0:
480,32,89688,2,0,P|474:53|443:80,1,56.25,8|0,0:0|0:0,0:0:0:0:
340,183,89850,2,0,L|172:167,1,168.75,2|8,0:0|0:0,0:0:0:0:
144,164,90174,6,0,B|152:196|152:196|144:218,1,56.25
21,303,90336,1,8,0:0:0:0:
256,352,90498,2,0,B|200:344|200:344|168:304|168:304|104:296,1,168.75,2|8,0:0|0:0,0:0:0:0:
126,380,90823,6,0,L|190:372,1,50.6250019311906,12|0,0:0|0:0,0:0:0:0:
244,268,90985,6,0,P|260:236|252:196,1,78.7500007510185,10|0,0:0|0:0,0:0:0:0:
113,124,91147,2,0,P|132:153|171:166,1,78.7500007510185,6|0,0:0|0:0,0:0:0:0:
304,83,91309,2,0,P|268:85|237:112,1,78.7500007510185,2|0,0:0|0:0,0:0:0:0:
323,297,91471,6,0,L|387:305,1,50.6250019311906,8|0,0:0|0:0,0:0:0:0:
464,240,91634,6,0,P|424:224|384:232,1,78.7500007510185,10|0,0:0|0:0,0:0:0:0:
184,331,91796,2,0,P|215:307|231:272,1,78.7500007510185,6|0,0:0|0:0,0:0:0:0:
245,43,91958,2,0,P|249:81|272:112,1,78.7500007510185,2|0,0:0|0:0,0:0:0:0:
323,297,92120,5,12,0:0:0:0:
364,136,92282,1,8,0:0:0:0:
372,127,92363,1,8,0:0:0:0:
380,118,92444,5,2,0:0:0:0:
205,181,92606,1,8,0:0:0:0:
181,176,92688,1,2,0:0:0:0:
157,181,92769,5,8,0:0:0:0:
196,210,92850,1,2,0:0:0:0:
244,210,92931,1,8,0:0:0:0:
283,181,93012,1,8,0:0:0:0:
298,136,93093,5,2,0:0:0:0:
358,98,93174,1,8,0:0:0:0:
428,107,93255,1,2,0:0:0:0:
475,159,93336,1,2,0:0:0:0:
479,229,93417,6,0,P|479:253|464:288,1,56.25,12|0,0:0|0:0,0:0:0:0:
331,373,93579,2,0,P|320:347|320:320,1,56.25,8|0,0:0|0:0,0:0:0:0:
396,236,93742,2,0,B|348:252|348:252|228:228,1,168.75,2|0,0:0|0:0,0:0:0:0:
108,254,94066,5,0,0:0:0:0:
316,141,94228,1,8,0:0:0:0:
225,381,94390,2,0,B|189:365|189:365|174:332|174:332|185:296,1,112.5,2|0,0:0|0:0,0:0:0:0:
153,185,94633,1,0,0:0:0:0:
144,176,94715,6,0,B|176:64|176:64|204:128,1,168.75,12|0,0:0|0:0,0:0:0:0:
232,229,95039,1,2,0:0:0:0:
422,110,95201,1,0,0:0:0:0:
422,110,95282,2,0,B|382:118|382:118|358:134|358:134|310:142,1,112.5,8|0,0:0|0:0,0:0:0:0:
247,159,95525,1,8,0:0:0:0:
332,323,95688,5,2,0:0:0:0:
84,245,95850,1,0,0:0:0:0:
84,245,95931,1,8,0:0:0:0:
84,245,96012,6,0,P|112:237|144:241,1,56.25,12|0,0:0|0:0,0:0:0:0:
319,285,96174,2,0,P|291:293|259:289,1,56.25,8|0,0:0|0:0,0:0:0:0:
197,187,96336,2,0,P|175:267|208:344,1,168.75,2|8,0:0|0:0,0:0:0:0:
328,376,96661,5,0,0:0:0:0:
384,141,96823,1,8,0:0:0:0:
510,322,96985,2,0,B|454:338|454:338|402:322,1,112.5,2|2,0:0|0:0,0:0:0:0:
319,285,97228,1,8,0:0:0:0:
330,290,97309,5,12,0:0:0:0:
362,260,97390,1,8,0:0:0:0:
383,217,97471,1,2,0:0:0:0:
375,171,97553,1,2,0:0:0:0:
348,133,97634,5,2,0:0:0:0:
305,116,97715,1,2,0:0:0:0:
260,122,97796,1,2,0:0:0:0:
222,149,97878,1,2,0:0:0:0:
204,192,97959,5,2,0:0:0:0:
134,234,98039,1,2,0:0:0:0:
54,214,98120,1,2,0:0:0:0:
12,144,98201,1,2,0:0:0:0:
32,64,98282,6,0,B|54:59|87:24|87:24|67:68|71:90,1,135.000005149842,2|0,0:0|0:0,0:0:0:0:
243,186,98444,6,0,L|266:183,1,22.5,12|0,0:0|0:0,0:0:0:0:
265,183,98931,6,0,P|281:159|281:111,1,56.25,2|0,0:0|0:0,0:0:0:0:
352,80,99093,2,0,P|339:54|297:30,1,56.25
196,204,99255,6,0,P|208:229|250:253,1,56.25,8|2,0:0|0:0,0:0:0:0:
241,330,99417,2,0,P|269:331|311:307,1,56.25,8|0,0:0|0:0,0:0:0:0:
212,133,99579,6,0,P|190:131|158:149,2,37.5,2|0|0,0:0|0:0|0:0,0:0:0:0:
98,104,99742,2,0,P|82:128|82:176,1,56.25
265,183,99904,5,8,0:0:0:0:
319,174,99985,1,0,0:0:0:0:
363,205,100066,1,8,0:0:0:0:
372,259,100147,1,0,0:0:0:0:
341,303,100228,5,2,0:0:0:0:
287,312,100309,1,0,0:0:0:0:
243,281,100390,1,8,0:0:0:0:
234,227,100471,1,2,0:0:0:0:
303,243,100552,5,8,0:0:0:0:
303,243,100634,1,2,0:0:0:0:
303,243,100715,2,0,L|319:337,1,56.25,8|0,0:0|0:0,0:0:0:0:
464,352,100877,2,0,L|474:296,1,56.25,2|0,0:0|0:0,0:0:0:0:
496,176,101039,1,2,0:0:0:0:
512,192,101120,1,2,0:0:0:0:
480,272,101201,5,14,0:0:0:0:
416,240,101282,1,0,0:0:0:0:
383,176,101363,1,2,0:0:0:0:
393,105,101444,1,2,0:0:0:0:
444,54,101525,1,8,0:0:0:0:
444,54,101606,1,0,0:0:0:0:
444,54,101688,5,2,0:0:0:0:
434,126,101769,1,0,0:0:0:0:
383,176,101850,1,2,0:0:0:0:
311,188,101931,1,2,0:0:0:0:
248,155,102012,1,8,0:0:0:0:
248,155,102093,1,0,0:0:0:0:
248,155,102174,5,2,0:0:0:0:
319,145,102255,1,0,0:0:0:0:
383,176,102336,1,2,0:0:0:0:
416,240,102417,1,2,0:0:0:0:
404,310,102498,6,0,P|392:344|368:368,1,67.5000025749208,2|0,0:0|0:0,0:0:0:0:
248,155,102661,2,0,P|237:123|215:99,1,67.5000025749208,2|0,0:0|0:0,0:0:0:0:
92,309,102823,6,0,P|87:326|79:340,1,33.7500012874604,2|0,0:0|0:0,0:0:0:0:
116,320,102904,2,0,P|111:336|103:350,1,33.7500012874604,2|0,0:0|0:0,0:0:0:0:
139,330,102985,2,0,P|134:346|126:360,1,33.7500012874604,2|0,0:0|0:0,0:0:0:0:
162,340,103066,2,0,P|157:356|149:370,1,33.7500012874604,2|0,0:0|0:0,0:0:0:0:
224,288,103147,6,0,P|219:271|211:257,1,33.7500012874604,8|0,0:0|0:0,0:0:0:0:
247,277,103228,2,0,P|242:260|234:246,1,33.7500012874604
270,267,103309,2,0,P|265:250|257:236,1,33.7500012874604,8|0,0:0|0:0,0:0:0:0:
293,257,103390,2,0,P|288:240|280:226,1,33.7500012874604
355,309,103471,5,8,0:0:0:0:
380,320,103552,1,8,0:0:0:0:
442,268,103634,6,0,B|466:204|466:204|450:100,1,168.75,12|0,0:0|0:0,0:0:0:0:
432,0,103958,1,8,0:0:0:0:
415,111,104120,6,0,L|432:0,1,112.5,2|0,0:0|0:0,0:0:0:0:
466,204,104363,1,0,0:0:0:0:
466,204,104444,2,0,P|436:200|400:212,1,56.25,8|0,0:0|0:0,0:0:0:0:
355,309,104606,1,8,0:0:0:0:
256,160,104769,1,2,0:0:0:0:
32,352,104931,6,0,B|100:344|100:344|132:360|132:360|196:352,1,168.75,12|0,0:0|0:0,0:0:0:0:
300,340,105255,1,8,0:0:0:0:
196,326,105417,6,0,P|250:315|300:340,1,112.5,2|0,0:0|0:0,0:0:0:0:
100,344,105661,1,0,0:0:0:0:
100,344,105742,2,0,L|92:288,1,56.25,8|2,0:0|0:0,0:0:0:0:
208,178,105904,1,8,0:0:0:0:
216,168,105985,1,0,0:0:0:0:
224,160,106066,2,0,L|216:216,1,56.25,2|0,0:0|0:0,0:0:0:0:
32,32,106228,6,0,B|64:64|64:64|128:32|224:64,1,168.75,12|0,0:0|0:0,0:0:0:0:
288,32,106552,1,8,0:0:0:0:
176,24,106715,6,0,L|288:32,1,112.5,2|8,0:0|0:0,0:0:0:0:
81,116,106958,1,8,0:0:0:0:
81,116,107039,2,0,P|66:92|64:64,1,56.25,8|0,0:0|0:0,0:0:0:0:
185,53,107201,1,8,0:0:0:0:
288,192,107363,1,8,0:0:0:0:
480,32,107525,5,12,0:0:0:0:
478,28,107606,1,0,0:0:0:0:
476,24,107688,1,8,0:0:0:0:
474,20,107769,1,0,0:0:0:0:
472,16,107850,5,8,0:0:0:0:
432,0,107931,1,8,0:0:0:0:
390,10,108012,1,2,0:0:0:0:
362,43,108093,1,0,0:0:0:0:
358,86,108174,5,8,0:0:0:0:
395,148,108255,1,2,0:0:0:0:
377,218,108336,1,8,0:0:0:0:
315,255,108417,1,2,0:0:0:0:
245,237,108498,5,8,0:0:0:0:
204,167,108579,1,0,0:0:0:0:
126,146,108661,1,2,0:0:0:0:
56,187,108742,1,0,0:0:0:0:
36,265,108823,6,0,B|81:290|81:290|128:140,1,202.500007724762,12|0,0:0|0:0,0:0:0:0:
171,44,109147,1,8,0:0:0:0:
177,65,109228,1,0,0:0:0:0:
184,88,109309,6,0,P|196:76|204:56,1,33.7500012874604,2|0,0:0|0:0,0:0:0:0:
217,119,109390,2,0,P|221:102|218:81,1,33.7500012874604,8|0,0:0|0:0,0:0:0:0:
261,129,109471,2,0,P|256:112|243:95,1,33.7500012874604
304,115,109552,2,0,P|292:103|272:95,1,33.7500012874604,8|0,0:0|0:0,0:0:0:0:
335,82,109634,2,0,P|318:77|297:80,1,33.7500012874604,8|0,0:0|0:0,0:0:0:0:
378,68,109715,2,0,P|366:55|346:48,1,33.7500012874604,8|0,0:0|0:0,0:0:0:0:
422,77,109796,2,0,P|417:60|404:43,1,33.7500012874604,2|0,0:0|0:0,0:0:0:0:
455,107,109877,2,0,P|459:90|456:69,1,33.7500012874604
469,149,109958,2,0,P|481:137|489:117,1,33.7500012874604,2|0,0:0|0:0,0:0:0:0:
460,192,110039,2,0,P|476:187|493:174,1,33.7500012874604,8|0,0:0|0:0,0:0:0:0:
382,154,110120,5,12,0:0:0:0:
380,162,110201,1,4,0:0:0:0:
378,170,110282,1,12,0:0:0:0:
376,178,110363,1,4,0:0:0:0:
374,186,110444,6,0,P|374:218|382:242,1,52.500000500679,2|0,0:0|0:0,0:0:0:0:
304,256,110552,6,0,P|334:265|359:265,1,52.500000500679,0|2,0:0|0:0,0:0:0:0:
348,344,110661,6,0,P|366:318|374:293,1,52.500000500679
445,328,110769,6,0,P|426:302|405:287,1,52.500000500679,8|0,0:0|0:0,0:0:0:0:
461,231,110877,5,0,0:0:0:0:
461,231,110931,6,0,P|421:240|388:264,1,78.7500007510185,2|0,0:0|0:0,0:0:0:0:
320,116,111093,2,0,P|298:150|291:190,1,78.7500007510185,8|0,0:0|0:0,0:0:0:0:
138,134,111255,2,0,P|147:173|171:206,1,78.7500007510185,2|0,0:0|0:0,0:0:0:0:
22,275,111417,6,0,B|80:256|128:288|128:288|160:240|212:224|212:224|192:192|156:208,1,270,14|0,0:0|0:0,0:0:0:0:
192,384,111742,6,0,P|216:360|208:304,1,90,12|0,0:0|0:0,0:0:0:0:
378,377,111904,6,0,P|363:336|322:323,1,90,10|0,0:0|0:0,0:0:0:0:
466,211,112066,6,0,P|422:204|390:232,1,90,12|0,0:0|0:0,0:0:0:0:
365,52,112228,6,0,P|337:85|346:128,1,90,10|0,0:0|0:0,0:0:0:0:
169,203,112390,1,0,0:0:0:0:
93,226,112471,6,0,P|136:232|168:204,1,90,10|0,0:0|0:0,0:0:0:0:
378,377,112634,1,0,0:0:0:0:
322,323,112715,6,0,B|224:176|264:88|364:52|364:52|436:128|384:272|298:267|197:249|169:203|169:203|144:392|-44:356|-52:96|33:-12|129:1|129:1|196:28|195:95|158:132|158:132|84:120|116:64,1,1530,12|0,0:0|0:0,0:0:0:0:
111,74,114174,6,0,L|143:70,1,22.5,4|2,0:0|0:0,0:0:0:0:
201,111,114498,2,0,L|224:109,1,22.5,2|2,0:0|0:0,0:0:0:0:
201,111,115471,6,0,L|224:109,1,22.5,2|2,0:0|0:0,0:0:0:0:
291,148,115796,2,0,L|313:145,1,22.5,2|2,0:0|0:0,0:0:0:0:
291,148,116769,6,0,L|313:145,1,22.5,2|2,0:0|0:0,0:0:0:0:
380,184,117094,2,0,L|402:181,1,22.5,2|2,0:0|0:0,0:0:0:0:
380,184,118066,6,0,L|472:172,1,90,2|2,0:0|0:0,0:0:0:0:
469,172,119547,6,0,L|471:194,1,22.5,2|2,0:0|0:0,0:0:0:0:
433,261,119926,2,0,L|435:283,1,22.5,2|2,0:0|0:0,0:0:0:0:
43,172,120917,6,0,L|41:194,1,22.5,2|2,0:0|0:0,0:0:0:0:
79,261,121330,2,0,L|76:292,1,22.5,2|2,0:0|0:0,0:0:0:0:
288,352,122439,6,0,L|290:329,1,22.5,2|2,0:0|0:0,0:0:0:0:
192,256,122930,6,0,L|189:233,1,22.5,2|2,0:0|0:0,0:0:0:0:
320,160,123607,6,0,L|324:120,1,39.375,2|2,0:0|0:0,0:0:0:0:
256,32,124590,5,2,0:0:0:0:
