osu file format v14

[General]
AudioFilename: -+.mp3
AudioLeadIn: 0
PreviewTime:86931
Countdown: 0
SampleSet: Normal
StackLeniency: 0.7
Mode: 0
LetterboxInBreaks: 0
WidescreenStoryboard: 1
EpilepsyWarning: 1

[Editor]
Bookmarks: 118247
DistanceSpacing: 0.9
BeatDivisor: 4
GridSize: 4
TimelineZoom: 2.2

[Metadata]
Title:-+
TitleUnicode:-+
Artist:daisan
ArtistUnicode:daisan
Creator:Starfy
Version:Chaoz's Extra
Source:BOF2013
Tags:minus plus konzertsaal - THE BMS OF FIGHTERS 2013 Dirt Art Color Teller xellox piano StarForYou Kyle Y IamKwaN happy623 -N_a_n_a_k_o- Nanako Kencho Chaoslitz [ Drop ] choikapo Regou Rizia Kawaiwkyik Nakano Itsuki StarrStyx Prophecy aabc271 Nardoxyribonucleic Skylish ll-oscar autofanboy alienflybot hokin1995 pwhk hong kong hk muse dash electronic instrumental
BeatmapID:874858
BeatmapSetID:389617

[Difficulty]
HPDrainRate:7
CircleSize:4
OverallDifficulty:8
ApproachRate:9.5
SliderMultiplier:1.85
SliderTickRate:1

[Events]
//Background and Video events
0,0,"BG.png",0,0
//Break Periods
//Storyboard Layer 0 (Background)
//Storyboard Layer 1 (Fail)
//Storyboard Layer 2 (Pass)
//Storyboard Layer 3 (Foreground)
//Storyboard Layer 4 (Overlay)
//Storyboard Sound Samples

[TimingPoints]
2607,324.324324324324,4,1,6,20,1,0
2607,-200,4,1,6,20,0,0
12985,-200,4,3,20,50,0,0
13066,-200,4,1,6,50,0,0
22715,-100,4,1,6,60,0,0
23039,-100,4,1,6,70,0,0
23363,-100,4,1,6,85,0,0
44120,-200,4,3,20,40,0,0
44201,-200,4,2,1,40,0,0
54498,-200,4,3,20,50,0,0
54579,-200,4,2,1,50,0,0
62282,-133.333333333333,4,1,6,50,0,0
62606,-100,4,1,6,55,0,0
63579,-133.333333333333,4,2,1,60,0,0
64228,-100,4,1,6,70,0,0
64877,-83.3333333333333,4,1,6,70,0,0
75255,-100,4,1,6,60,0,0
85634,-133.333333333333,4,1,6,85,0,1
86850,-133.333333333333,4,1,6,85,0,0
86931,-200,4,1,5,85,0,0
87093,-200,4,1,6,85,0,0
88228,-83.3333333333333,4,1,6,85,0,1
98444,-133.333333333333,4,1,6,85,0,1
98931,-83.3333333333333,4,1,6,85,0,1
101201,-66.6666666666667,4,1,6,85,0,1
103147,-83.3333333333333,4,1,6,85,0,1
103471,-83.3333333333333,4,1,6,85,0,1
112715,-83.3333333333333,4,1,6,85,0,0
114174,-200,4,1,6,85,0,0
118066,370.37037037037,4,1,6,35,1,0
119547,379.746835443038,4,1,6,30,1,0
119547,-200,4,1,6,30,0,0
120917,413.793103448276,4,1,6,25,1,0
120917,-200,4,1,6,25,0,0
122439,491.803278688525,4,1,6,20,1,0
122439,-200,4,1,6,20,0,0

[Colours]
Combo1 : 41,214,166
Combo2 : 128,0,255
Combo3 : 128,255,255
Combo4 : 3,90,252

[HitObjects]
75,282,2607,6,0,B|165:298|163:246|256:259,1,185
460,128,3904,2,0,P|395:67|308:83,1,185
81,157,5201,6,0,B|62:253|142:285|142:285|175:279|175:279|194:290|221:291|221:291|263:325|228:388|191:373|175:357,1,370,2|2,0:0|0:0,0:0:0:0:
217,212,7796,6,0,B|202:153|202:153|230:93|230:93|214:36,1,185
317,181,9093,2,0,P|406:197|492:161,1,185
111,160,10390,6,0,B|171:175|216:141|216:141|241:151|241:151|276:91|340:101|340:101|366:123|405:120|422:112|422:112|430:98|435:79,1,370,2|2,0:0|0:0,0:0:0:0:
317,181,12985,6,0,P|311:274|306:365,1,185,2|0,0:0|0:0,0:0:0:0:
230,128,14282,2,0,B|144:144|141:100|45:117,1,185
154,330,15579,6,0,B|173:308|179:277|184:231|150:192|100:176|46:174|11:232|9:244|9:244|14:251|65:266|91:221,1,370,2|2,0:0|0:0,0:0:0:0:
93,218,17525,1,0,0:0:0:0:
186,55,18174,6,0,P|233:51|279:46,1,92.5
247,156,18823,2,0,P|201:152|154:149,1,92.5
328,199,19471,2,0,P|374:196|420:192,1,92.5
250,250,20120,2,0,P|247:296|245:342,1,92.5
338,223,20769,6,0,B|385:144|321:81|321:81|328:51|330:31|330:31|373:76|395:121|394:158,1,346.875,2|0,0:0|0:0,0:0:0:0:
393,167,22066,2,0,P|349:145|262:203,1,161.875,2|0,0:0|0:0,0:0:0:0:
338,223,22715,5,2,0:0:0:0:
354,185,22796,1,0,0:0:0:0:
355,143,22877,1,2,0:0:0:0:
340,105,22958,1,2,0:0:0:0:
311,75,23039,2,0,P|285:78|265:80,1,46.25,2|0,0:0|0:0,0:0:0:0:
420,72,23201,2,0,P|422:49|425:26,1,46.25,2|0,0:0|0:0,0:0:0:0:
466,166,23363,5,12,0:0:0:0:
456,210,23444,1,0,0:0:0:0:
422,240,23525,1,8,0:0:0:0:
377,245,23606,1,0,0:0:0:0:
338,223,23688,1,6,0:0:0:0:
298,199,23769,1,0,0:0:0:0:
253,187,23850,1,2,0:0:0:0:
207,189,23931,1,2,0:0:0:0:
164,205,24012,5,2,0:0:0:0:
161,228,24093,1,0,0:0:0:0:
159,251,24174,1,8,0:0:0:0:
157,274,24255,1,0,0:0:0:0:
145,304,24336,5,6,0:0:0:0:
94,277,24417,1,0,0:0:0:0:
67,227,24498,1,0,0:0:0:0:
74,170,24579,1,0,0:0:0:0:
111,127,24661,6,0,P|110:103|108:82,1,46.25,8|0,0:0|0:0,0:0:0:0:
253,187,24823,2,0,P|255:210|256:233,1,46.25,8|0,0:0|0:0,0:0:0:0:
220,67,24985,1,6,0:0:0:0:
265,79,25066,1,0,0:0:0:0:
311,79,25147,1,2,0:0:0:0:
355,66,25228,1,2,0:0:0:0:
394,41,25309,5,2,0:0:0:0:
397,63,25390,1,0,0:0:0:0:
399,86,25471,1,8,0:0:0:0:
402,109,25552,1,0,0:0:0:0:
416,140,25634,5,6,0:0:0:0:
363,162,25715,1,0,0:0:0:0:
330,209,25796,1,0,0:0:0:0:
328,266,25877,1,0,0:0:0:0:
356,315,25958,5,8,0:0:0:0:
486,230,26120,2,0,L|455:225,2,30.8333333333333
511,236,26282,2,0,L|411:243,1,92.5,6|0,0:0|0:0,0:0:0:0:
362,284,26498,2,0,L|354:321,1,30.8333333333333
353,338,26606,2,0,P|306:340|260:342,1,92.5,2|8,0:0|0:0,0:0:0:0:
194,313,26823,2,0,L|186:259,2,30.8333333333333,0|0|6,0:0|0:0|0:0,0:0:0:0:
179,347,27012,1,0,0:0:0:0:
136,335,27093,1,0,0:0:0:0:
107,300,27174,1,0,0:0:0:0:
104,253,27255,5,10,0:0:0:0:
135,220,27336,1,0,0:0:0:0:
153,178,27417,1,8,0:0:0:0:
155,132,27498,1,8,0:0:0:0:
125,96,27579,1,4,0:0:0:0:
167,113,27661,1,0,0:0:0:0:
213,109,27742,1,10,0:0:0:0:
252,85,27823,1,2,0:0:0:0:
276,46,27904,5,10,0:0:0:0:
299,43,27985,1,10,0:0:0:0:
322,41,28066,1,2,0:0:0:0:
345,39,28147,1,10,0:0:0:0:
376,46,28228,5,14,0:0:0:0:
431,57,28309,1,2,0:0:0:0:
474,95,28390,1,8,0:0:0:0:
490,150,28471,1,2,0:0:0:0:
475,205,28552,6,0,P|470:239|468:254,1,46.25,8|0,0:0|0:0,0:0:0:0:
381,136,28715,2,0,P|347:128|333:125,1,46.25,10|0,0:0|0:0,0:0:0:0:
240,255,28877,1,6,0:0:0:0:
281,274,28958,1,0,0:0:0:0:
327,274,29039,1,0,0:0:0:0:
367,252,29120,1,0,0:0:0:0:
394,215,29201,6,0,P|396:180|398:163,1,46.25,2|0,0:0|0:0,0:0:0:0:
392,331,29363,2,0,P|416:333|438:336,1,46.25,10|0,0:0|0:0,0:0:0:0:
304,187,29525,1,4,0:0:0:0:
278,148,29606,1,0,0:0:0:0:
239,124,29687,1,0,0:0:0:0:
194,116,29768,1,0,0:0:0:0:
149,127,29850,6,0,P|119:132|95:134,1,46.25,8|0,0:0|0:0,0:0:0:0:
259,120,30012,2,0,P|270:90|280:69,1,46.25,10|0,0:0|0:0,0:0:0:0:
211,218,30174,2,0,P|230:242|244:262,1,46.25,6|0,0:0|0:0,0:0:0:0:
68,171,30336,1,0,0:0:0:0:
44,169,30417,1,0,0:0:0:0:
20,167,30498,5,2,0:0:0:0:
0,207,30579,1,0,0:0:0:0:
2,252,30661,1,10,0:0:0:0:
27,290,30742,1,0,0:0:0:0:
68,310,30823,5,12,0:0:0:0:
114,275,30904,1,0,0:0:0:0:
169,256,30985,1,2,0:0:0:0:
226,256,31066,1,0,0:0:0:0:
281,274,31147,5,10,0:0:0:0:
282,297,31228,1,0,0:0:0:0:
284,320,31309,1,8,0:0:0:0:
285,343,31390,1,0,0:0:0:0:
287,367,31471,2,0,P|327:358|337:357,1,46.25,4|0,0:0|0:0,0:0:0:0:
401,268,31634,2,0,P|411:291|417:312,1,46.25,10|0,0:0|0:0,0:0:0:0:
304,187,31796,5,2,0:0:0:0:
280,185,31877,1,0,0:0:0:0:
257,182,31958,1,8,0:0:0:0:
234,179,32039,1,0,0:0:0:0:
211,176,32120,2,0,P|205:141|203:122,1,46.25,4|0,0:0|0:0,0:0:0:0:
104,44,32282,2,0,P|118:26|135:10,1,46.25,8|0,0:0|0:0,0:0:0:0:
47,127,32444,5,8,0:0:0:0:
93,130,32525,1,8,0:0:0:0:
132,154,32606,1,8,0:0:0:0:
156,194,32687,1,8,0:0:0:0:
160,239,32768,1,6,0:0:0:0:
135,201,32850,1,0,0:0:0:0:
132,154,32931,1,8,0:0:0:0:
152,114,33012,1,0,0:0:0:0:
189,87,33093,5,6,0:0:0:0:
245,99,33174,1,2,0:0:0:0:
301,89,33255,1,10,0:0:0:0:
350,59,33336,1,0,0:0:0:0:
385,13,33417,5,6,0:0:0:0:
387,36,33498,1,6,0:0:0:0:
389,59,33579,1,6,0:0:0:0:
391,82,33660,1,6,0:0:0:0:
391,119,33742,5,12,0:0:0:0:
252,5,33904,1,0,0:0:0:0:
294,191,34066,1,4,0:0:0:0:
441,57,34228,1,0,0:0:0:0:
285,210,34390,2,0,P|245:212|190:217,1,92.5,0|8,0:0|0:0,0:0:0:0:
372,309,34715,2,0,P|411:311|466:316,1,92.5,4|2,0:0|0:0,0:0:0:0:
274,236,35039,5,8,0:0:0:0:
158,355,35201,1,8,0:0:0:0:
104,197,35363,1,4,0:0:0:0:
274,236,35525,1,0,0:0:0:0:
285,210,35606,2,0,L|274:119,1,92.5,8|0,0:0|0:0,0:0:0:0:
274,118,35850,1,8,0:0:0:0:
180,263,36012,1,4,0:0:0:0:
356,342,36174,1,2,0:0:0:0:
392,338,36255,1,0,0:0:0:0:
429,334,36336,5,8,0:0:0:0:
274,236,36498,1,0,0:0:0:0:
392,338,36660,1,4,0:0:0:0:
493,221,36822,1,0,0:0:0:0:
467,214,36904,2,0,L|370:228,1,92.5,8|0,0:0|0:0,0:0:0:0:
375,227,37147,1,8,0:0:0:0:
430,126,37309,1,4,0:0:0:0:
429,334,37471,1,2,0:0:0:0:
393,338,37552,1,0,0:0:0:0:
356,342,37634,6,0,L|261:331,1,92.5,8|0,0:0|0:0,0:0:0:0:
264,331,37877,1,8,0:0:0:0:
264,331,37958,1,4,0:0:0:0:
87,355,38120,1,14,0:0:0:0:
84,331,38201,1,6,0:0:0:0:
80,308,38282,5,8,0:0:0:0:
126,313,38363,1,4,0:0:0:0:
172,319,38444,1,8,0:0:0:0:
218,325,38525,1,8,0:0:0:0:
264,331,38606,1,6,0:0:0:0:
138,218,38769,1,4,0:0:0:0:
184,223,38850,1,4,0:0:0:0:
230,229,38931,5,12,0:0:0:0:
310,118,39093,1,0,0:0:0:0:
421,282,39255,2,0,P|429:328|435:374,1,92.5,4|0,0:0|0:0,0:0:0:0:
322,232,39579,1,0,0:0:0:0:
475,142,39742,1,8,0:0:0:0:
276,134,39904,2,0,P|279:87|286:42,1,92.5,4|2,0:0|0:0,0:0:0:0:
399,191,40228,5,8,0:0:0:0:
230,229,40390,1,8,0:0:0:0:
368,59,40552,1,4,0:0:0:0:
184,33,40714,1,0,0:0:0:0:
177,69,40796,2,0,P|170:114|165:164,1,92.5,8|0,0:0|0:0,0:0:0:0:
165,160,41039,1,8,0:0:0:0:
277,36,41201,1,4,0:0:0:0:
345,230,41363,1,6,0:0:0:0:
366,238,41444,1,4,0:0:0:0:
393,242,41525,5,8,0:0:0:0:
419,205,41606,1,0,0:0:0:0:
412,161,41687,1,8,0:0:0:0:
374,136,41768,1,0,0:0:0:0:
330,146,41850,1,4,0:0:0:0:
309,187,41931,1,0,0:0:0:0:
271,211,42012,1,12,0:0:0:0:
225,212,42093,1,0,0:0:0:0:
186,190,42174,6,0,P|163:184|140:181,1,46.25,6|0,0:0|0:0,0:0:0:0:
244,300,42336,2,0,P|266:296|289:293,1,46.25,6|0,0:0|0:0,0:0:0:0:
130,266,42498,2,0,P|107:260|84:257,1,46.25,6|0,0:0|0:0,0:0:0:0:
290,377,42660,2,0,P|312:373|335:370,1,46.25,6|0,0:0|0:0,0:0:0:0:
496,323,42823,5,4,0:0:0:0:
502,277,42904,1,4,0:0:0:0:
509,231,42985,1,4,0:0:0:0:
309,187,43147,1,4,0:0:0:0:
315,232,43228,1,4,0:0:0:0:
322,278,43309,1,4,0:0:0:0:
329,324,43390,1,4,0:0:0:0:
335,370,43471,6,0,P|341:341|348:315,1,46.25,6|0,0:0|0:0,0:0:0:0:
373,137,43634,1,4,0:0:0:0:
332,107,43715,1,4,0:0:0:0:
284,106,43796,5,4,0:0:0:0:
229,145,43877,1,4,0:0:0:0:
217,211,43958,1,6,0:0:0:0:
256,266,44039,1,4,0:0:0:0:
322,278,44120,6,0,P|391:223|374:138,1,185,2|0,0:0|0:0,0:0:0:0:
210,63,45093,2,0,P|186:63|163:61,1,46.25
103,146,45417,2,0,P|57:141|10:139,1,92.5,0|2,0:0|0:0,0:0:0:0:
165,225,46066,2,0,P|170:270|176:316,1,92.5
229,145,46715,6,0,P|359:101|495:121,1,277.5
495,121,47850,1,0,0:0:0:0:
430,63,48012,2,0,L|439:4,1,46.25
399,143,48336,2,0,L|413:200,1,46.25,2|0,0:0|0:0,0:0:0:0:
336,70,48661,2,0,L|339:10,1,46.25
310,152,48985,2,0,L|319:210,1,46.25,2|0,0:0|0:0,0:0:0:0:
336,70,49309,6,0,P|267:155|110:144,1,277.5
110,144,50444,1,0,0:0:0:0:
182,69,50606,2,0,P|204:73|227:77,1,46.25
310,152,50931,2,0,L|319:210,1,46.25,2|0,0:0|0:0,0:0:0:0:
246,307,51255,2,0,P|224:312|200:314,1,46.25
325,278,51579,2,0,P|346:283|370:285,1,46.25,2|0,0:0|0:0,0:0:0:0:
241,215,51904,6,0,L|47:232,1,185
56,231,52715,1,0,0:0:0:0:
141,264,52877,2,0,P|148:296|152:320,1,46.25
163,176,53201,2,0,P|165:141|166:114,1,46.25,2|0,0:0|0:0,0:0:0:0:
278,137,53525,2,0,P|297:154|317:178,1,46.25,2|0,0:0|0:0,0:0:0:0:
422,135,53850,2,0,P|427:109|438:80,1,46.25
347,13,54174,2,0,P|322:20|291:26,1,46.25,2|0,0:0|0:0,0:0:0:0:
349,98,54498,6,0,B|407:133|387:199|387:199|396:214|398:226|398:226|392:238|381:258|387:299|406:315|425:325|443:328,1,277.5,2|0,0:0|0:0,0:0:0:0:
460,261,55634,1,0,0:0:0:0:
443,328,55796,2,0,P|469:331|495:321,1,46.25
485,192,56120,2,0,P|462:185|440:189,1,46.25,2|0,0:0|0:0,0:0:0:0:
350,260,56444,2,0,P|353:298|354:311,1,46.25
315,170,56769,2,0,P|292:163|269:160,1,46.25,2|0,0:0|0:0,0:0:0:0:
188,198,57093,6,0,B|213:271|213:271|247:74,1,277.5
184,31,58228,1,0,0:0:0:0:
247,74,58390,2,0,L|303:68,1,46.25
158,114,58715,2,0,L|102:108,1,46.25,2|0,0:0|0:0,0:0:0:0:
269,160,59039,2,0,P|292:163|315:170,1,46.25
396,94,59363,2,0,P|421:93|442:90,1,46.25,2|0,0:0|0:0,0:0:0:0:
431,194,59688,6,0,P|331:266|269:159,1,277.5
348,184,60823,1,0,0:0:0:0:
269,159,60985,2,0,P|245:161|223:164,1,46.25
320,88,61309,2,0,P|317:64|314:42,1,46.25,2|0,0:0|0:0,0:0:0:0:
211,85,61634,2,0,P|187:87|165:90,1,46.25,2|0,0:0|0:0,0:0:0:0:
139,200,61958,2,0,P|152:218|166:237,1,46.25,2|0,0:0|0:0,0:0:0:0:
304,259,62282,6,0,P|336:270|371:270,1,69.3750026464463
288,278,62606,6,0,P|332:291|378:292,1,92.5
233,338,62931,5,0,0:0:0:0:
275,357,63012,1,0,0:0:0:0:
319,368,63093,1,0,0:0:0:0:
365,371,63174,1,0,0:0:0:0:
411,365,63255,1,0,0:0:0:0:
348,186,63417,1,0,0:0:0:0:
463,297,63579,6,0,L|470:249,3,34.6875013232232
453,230,63904,2,0,L|460:182,3,34.6875013232232
404,117,64228,6,0,L|349:104,5,30.8333333333333,2|0|0|0|0|0,0:0|0:0|0:0|0:0|0:0|0:0,0:0:0:0:
290,124,64552,6,0,L|259:131,5,30.8333333333333,2|0|0|0|0|0,0:0|0:0|0:0|0:0|0:0|0:0,0:0:0:0:
290,124,64877,6,0,B|292:189|292:189|232:238|163:173|156:113|203:57|252:57,1,332.999989837647,10|10,0:0|0:0,0:0:0:0:
331,57,65688,6,0,L|342:27,5,18.4999994354248
374,88,65850,6,0,L|380:121,11,18.4999994354248,2|0|0|0|0|0|0|0|0|0|0|0,0:0|0:0|0:0|0:0|0:0|0:0|0:0|0:0|0:0|0:0|0:0|0:0,0:0:0:0:
348,186,66174,6,0,B|396:302|396:302|245:286|245:286|285:247,1,332.999989837647,10|10,0:0|0:0,0:0:0:0:
348,186,66985,6,0,L|382:189,5,18.4999994354248,2|0|0|0|0|0,0:0|0:0|0:0|0:0|0:0|0:0,0:0:0:0:
309,160,67147,6,0,L|283:162,11,18.4999994354248,0|0|0|0|0|0|0|0|0|0|0|2,0:0|0:0|0:0|0:0|0:0|0:0|0:0|0:0|0:0|0:0|0:0|0:0,0:0:0:0:
215,206,67471,6,0,B|201:234|166:232|166:232|135:223|99:242|99:242|81:213|63:203|26:202|15:224|1:253|9:270|32:299|68:307|99:257,1,332.999989837647,10|10,0:0|0:0,0:0:0:0:
116,187,68282,6,0,L|119:161,5,18.4999994354248,2|0|0|0|0|0,0:0|0:0|0:0|0:0|0:0|0:0,0:0:0:0:
151,115,68444,6,0,L|149:89,11,18.4999994354248,0|0|0|0|0|0|2|0|0|0|0|0,0:0|0:0|0:0|0:0|0:0|0:0|0:0|0:0|0:0|0:0|0:0|0:0,0:0:0:0:
221,55,68769,6,0,L|225:118,1,55.4999983062745,2|0,0:0|0:0,0:0:0:0:
241,299,68931,2,0,L|237:243,1,55.4999983062745
305,104,69093,2,0,L|309:167,1,55.4999983062745
325,348,69255,2,0,L|321:292,1,55.4999983062745
443,192,69417,5,2,0:0:0:0:
488,218,69498,1,0,0:0:0:0:
487,271,69579,1,0,0:0:0:0:
440,296,69660,1,0,0:0:0:0:
396,266,69741,5,0,0:0:0:0:
393,238,69823,1,0,0:0:0:0:
391,210,69904,1,0,0:0:0:0:
389,182,69985,1,0,0:0:0:0:
387,154,70066,6,0,P|520:215|437:335,1,332.999989837647,10|10,0:0|0:0,0:0:0:0:
389,265,70877,6,0,L|361:261,5,18.4999994354248
321,232,71039,6,0,L|292:233,11,18.4999994354248,2|0|0|0|0|0|0|0|0|0|0|0,0:0|0:0|0:0|0:0|0:0|0:0|0:0|0:0|0:0|0:0|0:0|0:0,0:0:0:0:
233,280,71363,6,0,B|211:241|214:182|276:153|276:153|299:102|260:70|232:75|205:102|205:102|222:124|228:145,1,332.999989837647,10|10,0:0|0:0,0:0:0:0:
185,209,72174,6,0,L|159:214,5,18.4999994354248,2|0|0|0|0|0,0:0|0:0|0:0|0:0|0:0|0:0,0:0:0:0:
114,197,72336,6,0,L|87:194,11,18.4999994354248,0|0|0|0|0|0|0|0|0|0|0|2,0:0|0:0|0:0|0:0|0:0|0:0|0:0|0:0|0:0|0:0|0:0|0:0,0:0:0:0:
73,271,72661,6,0,B|165:278|165:278|211:216|211:216|191:130|191:130|109:122,1,332.999989837647,10|10,0:0|0:0,0:0:0:0:
43,128,73471,6,0,L|38:102,5,18.4999994354248
61,57,73633,6,0,L|87:46,11,18.4999994354248,2|0|0|0|0|0|0|0|0|0|0|2,0:0|0:0|0:0|0:0|0:0|0:0|0:0|0:0|0:0|0:0|0:0|0:0,0:0:0:0:
164,48,73958,5,2,0:0:0:0:
219,52,74039,1,0,0:0:0:0:
274,56,74120,1,0,0:0:0:0:
330,60,74201,1,0,0:0:0:0:
385,65,74282,5,0,0:0:0:0:
341,68,74363,1,0,0:0:0:0:
296,72,74444,1,0,0:0:0:0:
252,76,74525,1,0,0:0:0:0:
208,80,74606,1,2,0:0:0:0:
179,127,74687,1,0,0:0:0:0:
184,181,74768,1,0,0:0:0:0:
220,222,74849,1,0,0:0:0:0:
274,233,74931,5,2,0:0:0:0:
304,188,75012,1,0,0:0:0:0:
353,163,75093,1,0,0:0:0:0:
408,166,75174,1,2,0:0:0:0:
455,195,75255,6,0,L|458:241|461:287,1,92.5,8|0,0:0|0:0,0:0:0:0:
374,244,75498,1,0,0:0:0:0:
376,266,75579,2,0,P|379:311|382:358,1,92.5,8|0,0:0|0:0,0:0:0:0:
300,331,75823,1,0,0:0:0:0:
278,322,75904,2,0,P|231:323|185:328,1,92.5,8|0,0:0|0:0,0:0:0:0:
149,337,76147,1,0,0:0:0:0:
113,340,76228,1,8,0:0:0:0:
79,327,76309,1,0,0:0:0:0:
55,299,76390,1,0,0:0:0:0:
46,263,76471,1,0,0:0:0:0:
54,228,76552,6,0,L|59:182|64:136,1,92.5,8|0,0:0|0:0,0:0:0:0:
151,149,76796,1,0,0:0:0:0:
149,127,76877,2,0,P|146:81|142:34,1,92.5,8|0,0:0|0:0,0:0:0:0:
233,86,77120,1,0,0:0:0:0:
253,93,77201,2,0,P|299:96|342:79,1,92.5,8|0,0:0|0:0,0:0:0:0:
359,64,77444,1,0,0:0:0:0:
374,47,77525,1,8,0:0:0:0:
493,216,77688,1,4,0:0:0:0:
311,147,77850,6,0,P|316:199|320:244,1,92.5,8|0,0:0|0:0,0:0:0:0:
359,64,78174,1,4,0:0:0:0:
374,47,78255,1,0,0:0:0:0:
386,36,78336,2,0,L|438:27,1,46.25
425,115,78498,2,0,P|418:161|413:209,1,92.5,8|0,0:0|0:0,0:0:0:0:
291,23,78823,1,8,0:0:0:0:
220,222,78985,1,4,0:0:0:0:
120,89,79147,6,0,P|165:83|211:77,1,92.5,8|0,0:0|0:0,0:0:0:0:
327,164,79471,1,4,0:0:0:0:
509,189,79634,2,0,L|501:123,1,46.25,4|8,0:0|0:0,0:0:0:0:
459,291,79796,2,0,P|389:294|320:303,2,138.75,4|4|4,0:0|0:0|0:0,0:0:0:0:
420,144,80444,5,10,0:0:0:0:
398,103,80525,1,0,0:0:0:0:
360,77,80606,1,0,0:0:0:0:
315,72,80687,1,0,0:0:0:0:
272,88,80769,1,4,0:0:0:0:
250,128,80850,1,0,0:0:0:0:
211,152,80931,1,0,0:0:0:0:
165,155,81012,1,0,0:0:0:0:
124,135,81093,5,8,0:0:0:0:
101,138,81174,1,0,0:0:0:0:
78,141,81255,1,8,0:0:0:0:
55,145,81336,1,0,0:0:0:0:
33,148,81417,2,0,L|21:193,1,46.25,8|0,0:0|0:0,0:0:0:0:
69,61,81579,2,0,L|51:14,1,46.25,4|0,0:0|0:0,0:0:0:0:
95,220,81742,5,10,0:0:0:0:
87,253,81823,1,0,0:0:0:0:
80,287,81904,1,0,0:0:0:0:
73,321,81985,1,0,0:0:0:0:
66,355,82066,5,4,0:0:0:0:
102,326,82147,1,0,0:0:0:0:
144,309,82228,1,0,0:0:0:0:
190,305,82309,1,0,0:0:0:0:
235,316,82390,1,6,0:0:0:0:
279,329,82471,1,0,0:0:0:0:
325,323,82552,1,0,0:0:0:0:
364,300,82633,1,4,0:0:0:0:
391,262,82714,1,0,0:0:0:0:
384,217,82796,1,0,0:0:0:0:
392,172,82877,1,4,0:0:0:0:
416,132,82958,1,0,0:0:0:0:
451,103,83039,6,0,P|456:132|461:168,1,46.25,10|0,0:0|0:0,0:0:0:0:
343,82,83201,2,0,P|331:44|325:29,1,46.25,8|0,0:0|0:0,0:0:0:0:
305,199,83363,2,0,L|299:235|296:253,1,46.25,4|0,0:0|0:0,0:0:0:0:
466,233,83525,2,0,P|488:236|511:240,1,46.25,8|0,0:0|0:0,0:0:0:0:
310,155,83688,1,8,0:0:0:0:
278,187,83769,1,8,0:0:0:0:
236,206,83850,1,0,0:0:0:0:
190,208,83931,1,8,0:0:0:0:
146,195,84012,5,4,0:0:0:0:
97,166,84093,1,0,0:0:0:0:
42,179,84174,1,0,0:0:0:0:
10,225,84255,1,0,0:0:0:0:
18,281,84336,5,10,0:0:0:0:
41,287,84417,1,0,0:0:0:0:
63,293,84498,1,8,0:0:0:0:
85,300,84579,1,0,0:0:0:0:
107,306,84661,5,4,0:0:0:0:
164,301,84742,1,8,0:0:0:0:
222,296,84823,1,8,0:0:0:0:
279,291,84904,1,8,0:0:0:0:
324,302,84985,5,6,0:0:0:0:
330,244,85066,1,0,0:0:0:0:
335,187,85147,1,0,0:0:0:0:
340,129,85228,1,4,0:0:0:0:
345,73,85309,5,0,0:0:0:0:
288,66,85390,1,0,0:0:0:0:
239,96,85471,1,4,0:0:0:0:
219,149,85552,1,0,0:0:0:0:
235,205,85634,6,0,B|267:223|310:224|357:200|357:200|415:209|454:242|454:242|406:242|373:269|373:269|380:301|376:326|374:339|354:364|335:371|311:369|285:358|283:304|300:300|322:295|337:306,1,520.312519848348,2|0,0:0|0:0,0:0:0:0:
348,319,86931,6,0,L|505:334,2,138.75,4|0|0,0:0|0:0|0:0,0:0:0:0:
122,229,88228,6,0,P|126:197|129:174,1,55.4999983062745,8|0,0:0|0:0,0:0:0:0:
222,296,88390,2,0,P|226:326|228:351,1,55.4999983062745,8|0,0:0|0:0,0:0:0:0:
292,197,88552,1,4,0:0:0:0:
335,187,88633,1,0,0:0:0:0:
379,190,88714,1,0,0:0:0:0:
420,206,88795,1,0,0:0:0:0:
456,232,88877,2,0,P|461:172|466:108,1,110.999996612549,0|8,0:0|0:0,0:0:0:0:
360,282,89201,1,4,0:0:0:0:
280,120,89363,1,0,0:0:0:0:
261,112,89444,1,0,0:0:0:0:
242,105,89525,6,0,P|237:77|232:50,1,55.4999983062745,8|0,0:0|0:0,0:0:0:0:
153,187,89688,1,8,0:0:0:0:
136,210,89769,1,0,0:0:0:0:
122,229,89850,2,0,P|127:257|132:284,1,55.4999983062745,4|0,0:0|0:0,0:0:0:0:
250,246,90012,1,0,0:0:0:0:
266,205,90093,1,8,0:0:0:0:
262,161,90174,1,0,0:0:0:0:
238,124,90255,1,0,0:0:0:0:
200,103,90336,2,0,L|190:43,1,55.4999983062745,8|0,0:0|0:0,0:0:0:0:
42,195,90498,6,0,L|152:186,1,110.999996612549,4|0,0:0|0:0,0:0:0:0:
227,225,90742,1,0,0:0:0:0:
250,246,90823,1,8,0:0:0:0:
294,34,90985,1,2,0:0:0:0:
349,202,91147,1,6,0:0:0:0:
171,93,91309,1,0,0:0:0:0:
171,93,91390,1,0,0:0:0:0:
408,140,91552,1,0,0:0:0:0:
408,140,91633,1,8,0:0:0:0:
294,34,91796,6,0,P|290:90|285:147,1,110.999996612549,6|0,0:0|0:0,0:0:0:0:
349,202,92039,1,0,0:0:0:0:
349,202,92120,2,0,L|359:312,1,110.999996612549,8|0,0:0|0:0,0:0:0:0:
430,171,92363,1,0,0:0:0:0:
430,171,92444,2,0,L|440:60,1,110.999996612549,4|8,0:0|0:0,0:0:0:0:
403,34,92688,1,8,0:0:0:0:
386,76,92769,1,4,0:0:0:0:
356,107,92850,1,0,0:0:0:0:
315,124,92931,1,8,0:0:0:0:
271,124,93012,1,8,0:0:0:0:
231,107,93093,5,4,0:0:0:0:
201,67,93174,1,0,0:0:0:0:
157,43,93255,1,8,0:0:0:0:
108,39,93336,1,0,0:0:0:0:
65,51,93417,6,0,P|37:53|9:54,1,55.4999983062745,8|0,0:0|0:0,0:0:0:0:
125,156,93579,2,0,P|129:196|131:225,1,55.4999983062745
231,107,93742,1,4,0:0:0:0:
261,75,93823,1,0,0:0:0:0:
302,58,93904,1,0,0:0:0:0:
346,58,93985,1,0,0:0:0:0:
386,76,94066,2,0,P|442:70|497:65,1,110.999996612549,0|8,0:0|0:0,0:0:0:0:
349,202,94390,2,0,P|343:257|338:312,1,110.999996612549,4|0,0:0|0:0,0:0:0:0:
430,171,94634,1,0,0:0:0:0:
456,164,94715,6,0,P|495:159|519:156,1,55.4999983062745,8|0,0:0|0:0,0:0:0:0:
432,283,94877,2,0,P|437:322|440:346,1,55.4999983062745,8|0,0:0|0:0,0:0:0:0:
295,258,95039,1,4,0:0:0:0:
253,242,95120,1,0,0:0:0:0:
209,246,95201,1,0,0:0:0:0:
171,267,95282,1,8,0:0:0:0:
145,303,95363,2,0,P|98:296|33:287,1,110.999996612549,0|8,0:0|0:0,0:0:0:0:
125,156,95688,1,4,0:0:0:0:
233,327,95850,1,0,0:0:0:0:
235,343,95931,1,0,0:0:0:0:
236,359,96012,6,0,P|281:353|305:351,1,55.4999983062745,8|0,0:0|0:0,0:0:0:0:
253,242,96174,2,0,P|248:214|246:186,1,55.4999983062745,8|0,0:0|0:0,0:0:0:0:
393,301,96336,1,4,0:0:0:0:
432,283,96417,1,0,0:0:0:0:
461,250,96498,1,0,0:0:0:0:
469,207,96579,1,8,0:0:0:0:
456,164,96660,1,0,0:0:0:0:
295,258,96823,1,8,0:0:0:0:
125,156,96985,2,0,L|114:33,1,110.999996612549,4|8,0:0|0:0,0:0:0:0:
210,89,97228,1,8,0:0:0:0:
234,100,97309,6,0,P|291:94|346:87,1,110.999996612549,4|4,0:0|0:0,0:0:0:0:
374,52,97552,1,4,0:0:0:0:
426,65,97633,1,4,0:0:0:0:
458,110,97714,1,4,0:0:0:0:
456,164,97795,1,8,0:0:0:0:
419,203,97876,1,4,0:0:0:0:
366,208,97957,1,4,0:0:0:0:
180,165,98120,1,4,0:0:0:0:
125,156,98201,1,4,0:0:0:0:
70,150,98282,1,4,0:0:0:0:
220,265,98444,6,0,P|271:246|239:311,1,173.437506616116,6|0,0:0|0:0,0:0:0:0:
220,265,98931,6,0,L|235:78,1,166.499994918823,6|0,0:0|0:0,0:0:0:0:
238,54,99255,1,8,0:0:0:0:
271,83,99336,1,4,0:0:0:0:
312,99,99417,1,0,0:0:0:0:
356,101,99498,1,12,0:0:0:0:
391,129,99579,1,12,0:0:0:0:
401,171,99660,1,0,0:0:0:0:
385,212,99741,1,8,0:0:0:0:
349,236,99822,1,0,0:0:0:0:
305,234,99904,6,0,P|306:206|309:178,1,55.4999983062745,8|0,0:0|0:0,0:0:0:0:
363,323,100066,2,0,P|364:350|366:378,1,55.4999983062745,8|0,0:0|0:0,0:0:0:0:
220,285,100228,1,4,0:0:0:0:
207,281,100309,1,0,0:0:0:0:
190,284,100390,1,8,0:0:0:0:
177,280,100471,1,8,0:0:0:0:
139,293,100552,5,4,0:0:0:0:
98,275,100634,1,4,0:0:0:0:
69,242,100714,1,8,0:0:0:0:
56,199,100795,1,8,0:0:0:0:
63,156,100876,1,4,0:0:0:0:
86,119,100957,1,0,0:0:0:0:
124,95,101038,1,4,0:0:0:0:
167,89,101119,1,4,0:0:0:0:
209,102,101201,6,0,P|360:165|478:47,1,346.875013232232,6|0,0:0|0:0,0:0:0:0:
388,3,101688,6,0,P|325:153|443:271,1,346.875013232232,6|0,0:0|0:0,0:0:0:0:
512,232,102174,6,0,P|395:201|377:323,1,277.500010585785,10|0,0:0|0:0,0:3:0:0:
440,270,102579,5,2,0:0:0:0:
419,271,102661,1,2,0:0:0:0:
398,272,102742,1,2,0:0:0:0:
377,274,102823,1,2,0:0:0:0:
362,288,102904,1,2,0:0:0:0:
341,289,102985,1,2,0:0:0:0:
320,290,103066,1,2,0:0:0:0:
299,292,103147,2,0,L|291:230,1,55.4999983062745,4|0,0:0|0:0,0:0:0:0:
150,327,103309,6,0,L|122:321,3,27.7499991531372,8|0|0|0,0:0|0:0|0:0|0:0,0:0:0:0:
222,289,103471,6,0,L|214:227,1,55.4999983062745,8|0,0:0|0:0,0:0:0:0:
183,67,103634,6,0,B|130:142|130:142|150:327,1,277.499991531372,8|0,0:0|0:0,0:0:0:0:
216,368,104120,1,4,0:0:0:0:
245,335,104201,1,0,0:0:0:0:
286,318,104282,1,0,0:0:0:0:
330,319,104363,1,0,0:0:0:0:
369,339,104444,2,0,P|396:333|425:331,1,55.4999983062745
328,215,104606,2,0,P|291:204|256:199,1,55.4999983062745,8|0,0:0|0:0,0:0:0:0:
407,126,104769,2,0,P|434:120|463:118,1,55.4999983062745,4|0,0:0|0:0,0:0:0:0:
258,92,104931,6,0,B|242:136|189:165|148:139|130:127|130:127|122:154|122:154|69:149|32:196,1,277.499991531372,8|0,0:0|0:0,0:0:0:0:
15,264,105417,1,4,0:0:0:0:
36,302,105498,1,0,0:0:0:0:
75,322,105579,1,0,0:0:0:0:
118,316,105660,1,0,0:0:0:0:
152,288,105742,1,8,0:0:0:0:
171,299,105823,2,0,P|189:320|206:343,1,55.4999983062745,4|0,0:0|0:0,0:0:0:0:
264,205,105985,1,8,0:0:0:0:
268,226,106066,2,0,P|275:252|281:280,1,55.4999983062745,4|0,0:0|0:0,0:0:0:0:
403,233,106228,6,0,B|447:195|447:195|322:151|322:151|342:180,1,221.999993225098,8|0,0:0|0:0,0:0:0:0:
407,126,106634,1,0,0:0:0:0:
384,88,106715,1,4,0:0:0:0:
346,66,106796,1,0,0:0:0:0:
302,65,106877,1,0,0:0:0:0:
263,85,106958,1,0,0:0:0:0:
239,122,107039,1,8,0:0:0:0:
199,139,107120,1,0,0:0:0:0:
156,131,107201,1,8,0:0:0:0:
125,100,107282,1,0,0:0:0:0:
115,57,107363,1,12,0:0:0:0:
132,17,107444,1,0,0:0:0:0:
180,28,107525,6,0,L|191:260,1,221.999993225098,8|0,0:0|0:0,0:0:0:0:
151,313,107931,1,0,0:0:0:0:
193,300,108012,1,4,0:0:0:0:
237,299,108093,1,0,0:0:0:0:
280,310,108174,1,0,0:0:0:0:
318,332,108255,1,0,0:0:0:0:
349,364,108336,1,4,0:0:0:0:
392,371,108417,1,4,0:0:0:0:
429,350,108498,1,8,0:0:0:0:
445,309,108579,1,8,0:0:0:0:
433,267,108660,1,4,0:0:0:0:
397,243,108741,1,0,0:0:0:0:
349,258,108823,6,0,P|311:159|383:83,1,221.999993225098,2|0,0:0|0:0,0:0:0:0:
454,103,109228,1,0,0:0:0:0:
411,115,109309,1,4,0:0:0:0:
367,113,109390,1,0,0:0:0:0:
325,98,109471,1,2,0:0:0:0:
291,70,109552,1,2,0:0:0:0:
267,33,109634,1,10,0:0:0:0:
252,75,109715,1,2,0:0:0:0:
224,109,109796,1,8,0:0:0:0:
186,131,109877,1,0,0:0:0:0:
148,153,109958,1,14,0:0:0:0:
128,193,110039,1,2,0:0:0:0:
144,240,110120,6,0,P|122:140|21:147,1,221.999993225098,10|2,0:0|0:0,0:0:0:0:
1,219,110525,1,2,0:0:0:0:
1,246,110606,1,2,0:0:0:0:
2,274,110687,1,2,0:0:0:0:
3,302,110768,1,2,0:0:0:0:
4,329,110849,1,2,0:0:0:0:
1,358,110931,5,6,0:0:0:0:
29,323,111012,1,0,0:0:0:0:
66,299,111093,1,0,0:0:0:0:
109,289,111174,1,0,0:0:0:0:
153,294,111255,1,14,0:0:0:0:
193,313,111336,1,0,0:0:0:0:
231,339,111417,6,0,P|275:282|253:173,1,166.499994918823,4|0,0:0|0:0,0:0:0:0:
282,108,111742,2,0,P|270:78|262:51,1,55.4999983062745,4|0,0:0|0:0,0:0:0:0:
315,257,111904,2,0,P|347:261|374:268,1,55.4999983062745,4|0,0:0|0:0,0:0:0:0:
170,210,112066,2,0,P|150:236|131:256,1,55.4999983062745,4|0,0:0|0:0,0:0:0:0:
159,44,112228,5,4,0:0:0:0:
431,181,112472,1,4,0:0:0:0:
177,349,112715,1,12,0:0:0:0:
256,192,112796,12,0,114012,0:0:0:0:
214,48,114174,6,0,B|196:106|225:165|267:180|267:180|240:198|240:198|315:212|330:297|308:353,1,370,2|2,0:0|0:0,0:0:0:0:
220,327,116769,5,2,0:0:0:0:
114,284,118066,1,2,0:0:0:0:
104,242,118806,1,2,0:0:0:0:
226,229,119547,6,0,P|227:149|303:175,1,185,2|0,0:0|0:0,0:0:0:0:
303,175,120917,6,0,P|227:149|225:228,1,185,2|0,0:0|0:0,0:0:0:0:
115,152,122439,6,0,B|81:151|41:107|71:38|146:39|166:102|166:102|214:58|272:67|272:67|323:78|361:54,1,404.6875,2|0,0:0|0:0,0:0:0:0:
