osu file format v14

[General]
AudioFilename: -+.mp3
AudioLeadIn: 0
PreviewTime:86931
Countdown: 0
SampleSet: Normal
StackLeniency: 0.7
Mode: 0
LetterboxInBreaks: 0
WidescreenStoryboard: 1
EpilepsyWarning: 1

[Editor]
Bookmarks: 29198,77198
DistanceSpacing: 1
BeatDivisor: 4
GridSize: 4
TimelineZoom: 1.9

[Metadata]
Title:-+
TitleUnicode:-+
Artist:daisan
ArtistUnicode:daisan
Creator:Starfy
Version:Beginner
Source:BOF2013
Tags:minus plus konzertsaal - THE BMS OF FIGHTERS 2013 Dirt Art Color Teller xellox piano StarForYou Kyle Y IamKwaN happy623 -N_a_n_a_k_o- Nanako Kencho Chaoslitz [ Drop ] choikapo Regou Rizia Kawaiwkyik Nakano Itsuki StarrStyx Prophecy aabc271 Nardoxyribonucleic Skylish ll-oscar autofanboy alienflybot hokin1995 pwhk hong kong hk muse dash electronic instrumental
BeatmapID:891150
BeatmapSetID:389617

[Difficulty]
HPDrainRate:3
CircleSize:3
OverallDifficulty:3
ApproachRate:3
SliderMultiplier:0.799999999999999
SliderTickRate:1

[Events]
//Background and Video events
0,0,"BG.png",0,0
//Break Periods
2,44320,53058
//Storyboard Layer 0 (Background)
//Storyboard Layer 1 (Fail)
//Storyboard Layer 2 (Pass)
//Storyboard Layer 3 (Foreground)
//Storyboard Layer 4 (Overlay)
//Storyboard Sound Samples

[TimingPoints]
2607,324.324324324324,4,2,1,20,1,0
12985,-100,4,2,2,30,0,0
13147,-100,4,2,1,30,0,0
23363,-100,4,1,1,80,0,1
23688,-100,4,1,1,70,0,1
33742,-100,4,1,1,60,0,0
44120,-100,4,1,3,60,0,0
54498,-100,4,2,2,40,0,0
54579,-100,4,2,1,40,0,0
62282,-100,4,1,1,50,0,0
62606,-100,4,1,1,60,0,0
63579,-100,4,1,1,70,0,0
75255,-100,4,1,1,50,0,0
80444,-100,4,1,1,60,0,0
83039,-100,4,1,1,70,0,0
86931,-100,4,1,5,80,0,1
88228,-100,4,1,1,70,0,1
102174,-100,4,1,1,80,0,1
103634,-100,4,1,1,70,0,1
114174,-100,4,1,3,40,0,0
118066,370.37037037037,4,2,1,35,1,0
119547,379.746835443038,4,2,1,30,1,0
120917,413.793103448276,4,2,1,25,1,0
122439,491.803278688525,4,2,1,20,1,0

[Colours]
Combo1 : 41,214,166
Combo2 : 128,0,255
Combo3 : 128,255,255
Combo4 : 3,90,252

[HitObjects]
123,342,12985,6,0,P|142:266|116:192,1,160,6|0,0:0|0:0,0:0:0:0:
256,116,14282,2,0,L|416:124,1,160,2|0,0:0|0:0,0:0:0:0:
496,264,15579,2,0,P|472:288|232:208,1,320,2|2,0:0|0:0,0:0:0:0:
192,68,17525,1,0,0:0:0:0:
36,112,18174,6,0,L|39:191,1,79.9999999999999,6|0,0:0|0:0,0:0:0:0:
116,220,18823,2,0,L|112:299,1,79.9999999999999,6|0,0:0|0:0,0:0:0:0:
176,348,19471,2,0,P|208:352|268:344,1,79.9999999999999,6|0,0:0|0:0,0:0:0:0:
316,296,20120,2,0,P|355:291|395:295,1,79.9999999999999,6|0,0:0|0:0,0:0:0:0:
464,336,20769,2,0,B|496:278|456:212|384:212|384:212|320:176|248:220,1,320,4|2,0:0|0:0,0:0:0:0:
252,218,23363,6,0,P|196:234|88:214,1,160,12|0,0:0|0:0,0:0:0:0:
52,152,24336,1,2,0:0:0:0:
60,72,24661,2,0,L|224:76,1,160,8|0,0:0|0:0,0:0:0:0:
296,100,25634,1,2,0:0:0:0:
368,132,25958,6,0,P|396:136|448:132,1,79.9999999999999,12|2,0:0|0:0,0:0:0:0:
484,204,26606,2,0,L|480:292,1,79.9999999999999,0|2,0:0|0:0,0:0:0:0:
412,324,27255,2,0,B|372:304|372:304|332:316|332:316|260:280|180:316,1,240,8|2,0:0|0:0,0:0:0:0:
104,328,28552,6,0,P|84:324|48:276,1,79.9999999999999,12|2,0:0|0:0,0:0:0:0:
32,200,29201,2,0,L|36:108,1,79.9999999999999,0|2,0:0|0:0,0:0:0:0:
100,72,29850,2,0,P|140:64|192:80,1,79.9999999999999,8|2,0:0|0:0,0:0:0:0:
256,92,30498,2,0,P|294:100|333:91,1,79.9999999999999,0|2,0:0|0:0,0:0:0:0:
408,60,31147,6,0,B|448:36|448:36|492:124|460:232,1,240,12|2,0:0|0:0,0:0:0:0:
420,292,32444,2,0,P|328:256|184:292,1,240,8|2,0:0|0:0,0:0:0:0:
120,316,33742,5,12,0:0:0:0:
52,272,34066,2,0,P|44:240|68:112,1,160,2|2,0:0|0:0,0:0:0:0:
116,56,35039,1,8,0:0:0:0:
144,131,35363,2,0,B|224:144|224:144|316:128,1,160,2|2,0:0|0:0,0:0:0:0:
376,100,36336,5,12,0:0:0:0:
440,48,36661,2,0,P|456:112|382:183,1,160,2|2,0:0|0:0,0:0:0:0:
328,213,37634,1,8,0:0:0:0:
257,248,37958,2,0,P|181:236|93:252,1,160,2|2,0:0|0:0,0:0:0:0:
35,203,38931,5,12,0:0:0:0:
64,128,39255,2,0,L|232:132,1,160,2|2,0:0|0:0,0:0:0:0:
280,188,40228,1,8,0:0:0:0:
300,112,40552,2,0,B|376:80|376:128|464:104,1,160,2|2,0:0|0:0,0:0:0:0:
488,180,41525,6,0,L|484:264,1,79.9999999999999,12|2,0:0|0:0,0:0:0:0:
404,268,42174,2,0,L|408:188,1,79.9999999999999,2|2,0:0|0:0,0:0:0:0:
336,152,42823,2,0,P|300:136|180:152,2,160,2|2|4,0:0|0:0|0:0,0:0:0:0:
64,279,54498,6,0,P|143:271|221:285,1,160,6|4,0:0|0:0,0:0:0:0:
308,148,55796,2,0,P|386:162|465:153,1,160,6|6,0:0|0:0,0:0:0:0:
336,60,57093,6,0,P|256:51|178:65,1,160,4|4,0:0|0:0,0:0:0:0:
48,160,58390,2,0,P|126:174|205:165,1,160,6|6,0:0|0:0,0:0:0:0:
296,32,59688,6,0,P|336:56|304:288,1,320,4|4,0:0|0:0,0:0:0:0:
232,260,61309,2,0,L|148:256,2,79.9999999999999,6|6|6,0:0|0:0|0:0,0:0:0:0:
249,338,62282,6,0,P|121:338|72:243,1,240,8|8,0:0|0:0,0:0:0:0:
116,183,63579,2,0,P|244:183|293:278,1,240,8|2,0:0|2:2,0:0:0:0:
336,336,64877,6,0,L|472:328,1,120,8|8,0:0|0:0,0:0:0:0:
283,229,66174,2,0,L|419:221,1,120,8|8,0:0|0:0,0:0:0:0:
230,122,67471,6,0,L|94:130,1,120,8|8,0:0|0:0,0:0:0:0:
104,328,68769,2,0,P|181:309|257:329,1,160,8|8,0:0|0:0,0:0:0:0:
416,312,70066,6,0,L|408:192,1,120,8|8,0:0|0:0,0:0:0:0:
256,64,71363,2,0,L|263:183,1,120,8|8,0:0|0:0,0:0:0:0:
110,311,72661,2,0,L|118:192,1,120,8|8,0:0|0:0,0:0:0:0:
320,192,73958,2,0,P|356:216|468:192,1,160,8|8,0:0|0:0,0:0:0:0:
492,120,74931,1,8,0:0:0:0:
444,56,75255,6,0,L|356:60,1,79.9999999999999,8|8,0:0|0:0,0:0:0:0:
288,88,75904,2,0,P|248:92|200:84,1,79.9999999999999,8|8,0:0|0:0,0:0:0:0:
132,72,76552,2,0,P|108:132|132:232,1,160,8|8,0:0|0:0,0:0:0:0:
176,288,77525,1,8,0:0:0:0:
208,264,77688,6,0,P|264:252|336:272,1,120,2|2,0:0|0:0,0:0:0:0:
384,320,78498,2,0,P|412:324|472:320,1,79.9999999999999,8|8,0:0|0:0,0:0:0:0:
484,288,78985,2,0,L|476:160,1,120,2|2,0:0|0:0,0:0:0:0:
464,88,79796,2,0,P|416:80|328:92,1,120,2|2,0:0|0:0,0:0:0:0:
308,104,80444,6,0,P|276:108|224:100,1,79.9999999999999,8|2,0:0|0:0,0:0:0:0:
160,140,81093,2,0,L|164:220,1,79.9999999999999,8|0,0:0|0:0,0:0:0:0:
236,252,81742,2,0,L|232:332,1,79.9999999999999,8|2,0:0|0:0,0:0:0:0:
312,344,82390,1,0,0:0:0:0:
471,354,83039,6,0,L|463:258,1,79.9999999999999,8|2,0:0|0:0,0:0:0:0:
404,220,83688,2,0,P|400:192|408:136,1,79.9999999999999,0|2,0:0|0:0,0:0:0:0:
472,92,84336,2,0,P|436:104|316:88,2,160,8|2|2,0:0|0:0|0:0,0:0:0:0:
256,192,85796,12,4,86931,0:0:0:0:
432,116,88228,6,0,P|447:152|445:192,1,79.9999999999999,12|2,0:0|0:0,0:0:0:0:
420,268,88877,1,0,0:0:0:0:
342,285,89201,1,2,0:0:0:0:
288,225,89525,2,0,P|244:217|208:225,1,79.9999999999999,8|2,0:0|0:0,0:0:0:0:
164,160,90174,2,0,P|124:167|85:159,1,79.9999999999999,0|2,0:0|0:0,0:0:0:0:
44,88,90823,5,12,0:0:0:0:
124,84,91147,2,0,L|128:252,1,160,2|2,0:0|0:0,0:0:0:0:
76,304,92120,1,8,0:0:0:0:
156,320,92444,2,0,P|220:308|328:328,1,160,2|2,0:0|0:0,0:0:0:0:
392,336,93417,6,0,P|400:308|380:244,1,79.9999999999999,12|2,0:0|0:0,0:0:0:0:
328,208,94066,1,0,0:0:0:0:
319,128,94390,1,2,0:0:0:0:
369,65,94715,2,0,P|412:60|456:68,1,79.9999999999999,8|2,0:0|0:0,0:0:0:0:
488,136,95363,2,0,L|484:216,1,79.9999999999999,0|2,0:0|0:0,0:0:0:0:
484,296,96012,5,12,0:0:0:0:
416,256,96336,2,0,B|384:248|360:232|360:232|260:256,1,160,2|2,0:0|0:0,0:0:0:0:
192,288,97309,2,0,P|140:264|40:288,1,160,8|8,0:0|0:0,0:0:0:0:
72,168,98444,1,12,0:0:0:0:
176,108,98931,6,0,P|228:132|328:108,1,160,2|2,0:0|0:0,0:0:0:0:
404,88,99904,1,8,0:0:0:0:
477,130,100228,1,2,0:0:0:0:
498,211,100552,2,0,L|492:304,1,79.9999999999999,0|2,0:0|0:0,0:0:0:0:
428,340,101201,5,8,0:0:0:0:
332,268,101688,1,8,0:0:0:0:
221,314,102174,2,0,P|152:291|150:140,1,240,2|8,0:0|0:0,0:0:0:0:
260,104,103634,6,0,P|320:100|380:108,1,120,12|2,0:0|0:0,0:0:0:0:
452,140,104444,1,8,0:0:0:0:
488,212,104769,1,2,0:0:0:0:
460,240,104931,2,0,P|400:244|340:236,1,120,8|2,0:0|0:0,0:0:0:0:
276,188,105742,1,8,0:0:0:0:
212,236,106066,2,0,L|164:240,1,40,2|8,0:0|0:0,0:0:0:0:
52,244,106715,5,2,0:0:0:0:
28,168,107039,2,0,P|24:136|36:88,1,79.9999999999999,8|2,0:0|0:0,0:0:0:0:
52,52,107525,2,0,L|184:60,1,120,8|2,0:0|0:0,0:0:0:0:
236,108,108336,1,8,0:0:0:0:
312,80,108661,1,2,0:0:0:0:
348,100,108823,2,0,L|468:104,1,120,8|2,0:0|0:0,0:0:0:0:
476,184,109634,6,0,P|480:228|476:272,1,79.9999999999999,8|2,0:0|0:0,0:0:0:0:
480,304,110120,2,0,B|424:292|424:292|352:296,1,120,8|2,0:0|0:0,0:0:0:0:
284,280,110931,2,0,P|244:272|156:284,1,120,2|8,0:0|0:0,0:0:0:0:
92,316,111742,6,0,L|96:368,2,40,2|2|2,0:0|0:0|0:0,0:0:0:0:
68,284,112228,2,0,P|60:248|76:168,1,120,2|2,0:0|0:0,0:0:0:0:
256,192,112877,12,0,114174,0:0:0:0:
