osu file format v14

[General]
AudioFilename: -+.mp3
AudioLeadIn: 0
PreviewTime:86931
Countdown: 0
SampleSet: Normal
StackLeniency: 0.7
Mode: 0
LetterboxInBreaks: 0
WidescreenStoryboard: 1
EpilepsyWarning: 1

[Editor]
DistanceSpacing: 2
BeatDivisor: 6
GridSize: 4
TimelineZoom: 8

[Metadata]
Title:-+
TitleUnicode:-+
Artist:daisan
ArtistUnicode:daisan
Creator:Starfy
Version:Another
Source:BOF2013
Tags:minus plus konzertsaal - THE BMS OF FIGHTERS 2013 Dirt Art Color Teller xellox piano StarForYou Kyle Y IamKwaN happy623 -N_a_n_a_k_o- Nanako Kencho Chaoslitz [ Drop ] choikapo Regou Rizia Kawaiwkyik Nakano Itsuki StarrStyx Prophecy aabc271 Nardoxyribonucleic Skylish ll-oscar autofanboy alienflybot hokin1995 pwhk hong kong hk muse dash electronic instrumental
BeatmapID:850992
BeatmapSetID:389617

[Difficulty]
HPDrainRate:6
CircleSize:4
OverallDifficulty:7
ApproachRate:9
SliderMultiplier:1.7
SliderTickRate:1

[Events]
//Background and Video events
0,0,"BG.png",0,0
//Break Periods
//Storyboard Layer 0 (Background)
//Storyboard Layer 1 (Fail)
//Storyboard Layer 2 (Pass)
//Storyboard Layer 3 (Foreground)
//Storyboard Layer 4 (Overlay)
//Storyboard Sound Samples

[TimingPoints]
2607,324.324324324324,4,2,1,20,1,0
2607,-400,4,2,1,20,0,0
12985,-400,4,2,2,30,0,0
13147,-400,4,2,1,30,0,0
18174,-200,4,2,1,30,0,0
23363,-80,4,1,1,80,0,1
23688,-100,4,1,1,70,0,1
31147,-100,4,1,1,70,0,1
33742,-100,4,1,1,60,0,0
44120,-400,4,1,3,60,0,0
45093,-400,4,2,1,40,0,0
54498,-200,4,2,2,40,0,0
54579,-200,4,2,1,40,0,0
62282,-200,4,1,1,50,0,0
62606,-200,4,1,1,60,0,0
63579,-200,4,1,1,70,0,0
64228,-133.333333333333,4,1,1,70,0,0
64877,-100,4,1,1,70,0,0
65688,-100,4,1,6,70,0,0
66174,-100,4,1,1,70,0,0
66985,-100,4,1,6,70,0,0
67471,-100,4,1,1,70,0,0
68282,-100,4,1,6,70,0,0
68769,-100,4,1,1,70,0,0
70877,-100,4,1,6,70,0,0
71363,-100,4,1,1,70,0,0
72174,-100,4,1,6,70,0,0
72661,-100,4,1,1,70,0,0
73471,-100,4,1,6,70,0,0
73958,-100,4,1,1,70,0,0
75255,-100,4,1,1,50,0,0
80444,-100,4,1,1,60,0,0
83039,-100,4,1,1,70,0,0
85634,-100,4,1,1,40,0,0
85715,-100,4,1,1,42,0,0
85796,-100,4,1,1,44,0,0
85877,-100,4,1,1,46,0,0
85958,-100,4,1,1,48,0,0
86039,-100,4,1,1,50,0,0
86120,-100,4,1,1,52,0,0
86201,-100,4,1,1,54,0,0
86282,-100,4,1,1,56,0,0
86363,-100,4,1,1,58,0,0
86444,-100,4,1,1,60,0,0
86525,-100,4,1,1,62,0,0
86606,-100,4,1,1,64,0,0
86688,-100,4,1,1,66,0,0
86769,-100,4,1,1,68,0,0
86850,-100,4,1,1,70,0,0
86931,-200,4,1,5,80,0,1
87012,-200,4,1,1,40,0,0
87336,-200,4,1,1,20,0,0
87417,-200,4,1,1,50,0,0
87823,-200,4,1,1,20,0,0
87904,-200,4,1,1,60,0,0
88147,-200,4,1,1,20,0,0
88228,-100,4,1,1,70,0,1
90985,-100,4,1,6,70,0,1
91147,-100,4,1,1,70,0,1
91309,-100,4,1,6,70,0,1
91471,-100,4,1,1,70,0,1
91634,-100,4,1,6,70,0,1
91796,-100,4,1,1,70,0,1
91958,-100,4,1,6,70,0,1
92120,-100,4,1,1,70,0,1
98444,-133.333333333333,4,1,1,70,0,1
98606,-133.333333333333,4,1,1,70,0,1
98850,-133.333333333333,4,1,1,20,0,1
98931,-100,4,1,1,70,0,1
102174,-100,4,1,1,80,0,1
103634,-100,4,1,1,70,0,1
114012,-100,4,1,1,5,0,1
114174,-400,4,1,3,40,0,0
114215,-400,4,2,1,40,0,0
118066,370.37037037037,4,2,1,35,1,0
118066,-400,4,2,1,35,0,0
119547,379.746835443038,4,2,1,30,1,0
119547,-400,4,2,1,30,0,0
120917,413.793103448276,4,2,1,25,1,0
120917,-400,4,2,1,25,0,0
122439,491.803278688525,4,2,1,20,1,0
122439,-400,4,2,1,20,0,0

[Colours]
Combo1 : 41,214,166
Combo2 : 128,0,255
Combo3 : 128,255,255
Combo4 : 3,90,252

[HitObjects]
428,276,2607,6,0,P|432:240|428:192,1,85,2|0,0:0|0:0,0:0:0:0:
380,112,3904,2,0,P|350:90|307:69,1,85,2|0,0:0|0:0,0:0:0:0:
212,80,5201,2,0,P|172:92|44:80,1,170,2|2,0:0|0:0,0:0:0:0:
46,80,7796,6,0,L|47:167,1,85,2|0,0:0|0:0,0:0:0:0:
128,208,9093,2,0,L|129:295,1,85,2|0,0:0|0:0,0:0:0:0:
204,344,10390,2,0,B|280:324|280:324|372:348,1,170,2|2,0:0|0:0,0:0:0:0:
368,347,12985,6,0,P|404:352|456:344,1,85,6|0,0:0|0:0,0:0:0:0:
452,252,14282,2,0,P|416:247|364:255,1,85,2|0,0:0|0:0,0:0:0:0:
288,300,15579,2,0,P|272:248|296:136,1,170,2|2,0:0|0:0,0:0:0:0:
295,137,17525,1,0,0:0:0:0:
295,137,18174,6,0,B|256:144|256:144|208:136,1,85,6|0,0:0|0:0,0:0:0:0:
128,96,18823,2,0,B|135:135|135:135|127:183,1,85,6|0,0:0|0:0,0:0:0:0:
212,220,19471,2,0,B|204:264|204:264|211:303,1,85,6|0,0:0|0:0,0:0:0:0:
128,263,20120,2,0,B|83:255|83:255|44:262,1,85,6|0,0:0|0:0,0:0:0:0:
80,348,20769,6,0,L|128:344,1,42.5,4|4,0:0|0:0,0:0:0:0:
192,356,21093,2,0,L|240:352,1,42.5,4|4,0:0|0:0,0:0:0:0:
288,304,21417,2,0,L|336:300,1,42.5,4|4,0:0|0:0,0:0:0:0:
400,312,21741,2,0,L|448:308,1,42.5,4|4,0:0|0:0,0:0:0:0:
480,228,22066,6,0,L|476:96,1,127.5,2|0,0:0|0:0,0:0:0:0:
400,52,22715,1,2,0:0:0:0:
380,60,22796,1,2,0:0:0:0:
360,68,22877,1,2,0:0:0:0:
340,76,22958,1,2,0:0:0:0:
320,84,23039,2,0,L|307:82,7,10.625,2|0|2|0|2|0|2|0,0:0|0:0|0:0|0:0|0:0|0:0|0:0|0:0,0:0:0:0:
280,80,23363,6,0,B|220:72|220:72|100:88,1,159.375,12|0,0:0|0:0,0:0:0:0:
52,108,23688,6,0,L|56:160,3,42.5,2|0|0|0,0:0|0:0|0:0|0:0,0:0:0:0:
124,188,24012,2,0,L|128:240,1,42.5
68,280,24174,2,0,L|72:332,1,42.5,8|0,0:0|0:0,0:0:0:0:
148,340,24336,2,0,L|152:392,3,42.5,2|0|0|0,0:0|0:0|0:0|0:0,0:0:0:0:
151,382,24661,6,0,L|268:376,1,85,8|8,0:0|0:0,0:0:0:0:
336,372,24985,1,2,0:0:0:0:
352,328,25066,1,0,0:0:0:0:
347,281,25147,1,0,0:0:0:0:
323,240,25228,1,8,0:0:0:0:
284,214,25309,2,0,L|216:216,3,42.5,0|0|8|0,0:0|0:0|0:0|0:0,0:0:0:0:
196,156,25634,2,0,L|128:158,1,42.5,2|0,0:0|0:0,0:0:0:0:
104,212,25796,2,0,L|36:214,1,42.5,0|8,0:0|0:0,0:0:0:0:
20,148,25958,6,0,L|24:56,1,85,12|8,0:0|0:0,0:0:0:0:
80,24,26174,2,0,L|128:28,2,28.3333333333333,0|0|2,0:0|0:0|0:0,0:0:0:0:
196,156,26498,2,0,L|232:124,2,28.3333333333333
371,167,26769,2,0,L|375:118,3,28.3333333333333,8|0|0|2,0:0|0:0|0:0|0:0,0:0:0:0:
502,51,27093,1,2,0:2:0:0:
502,51,27174,1,2,0:2:0:0:
502,51,27255,6,0,L|497:107,1,42.5,8|0,0:0|0:0,0:0:0:0:
504,184,27417,2,0,L|499:240,1,42.5,0|8,0:0|0:0,0:0:0:0:
488,316,27579,1,2,0:0:0:0:
488,316,27661,1,0,0:0:0:0:
488,316,27742,1,2,0:0:0:0:
488,316,27823,1,2,0:0:0:0:
488,316,27904,6,0,P|460:324|440:320,1,42.5,2|2,0:0|0:0,0:0:0:0:
378,295,28066,2,0,P|356:293|337:301,1,42.5,2|2,0:0|0:0,0:0:0:0:
268,329,28228,1,2,0:0:0:0:
268,329,28309,1,0,0:0:0:0:
268,329,28390,1,2,0:0:0:0:
268,329,28471,1,0,0:0:0:0:
268,329,28552,6,0,L|201:323,3,42.5,12|0|8|0,0:0|0:0|0:0|0:0,0:0:0:0:
180,320,28877,1,2,0:0:0:0:
146,290,28958,1,0,0:0:0:0:
135,245,29039,1,0,0:0:0:0:
151,202,29120,1,0,0:0:0:0:
190,177,29201,1,0,0:0:0:0:
235,186,29282,1,0,0:0:0:0:
277,167,29363,1,8,0:0:0:0:
303,129,29444,1,0,0:0:0:0:
306,83,29525,1,2,0:0:0:0:
279,45,29606,1,0,0:0:0:0:
236,27,29688,2,0,L|192:32,2,28.3333333333333
325,40,29850,6,0,L|386:47,3,42.5,8|0|8|0,0:0|0:0|0:0|0:0,0:0:0:0:
412,60,30174,1,2,0:0:0:0:
444,96,30255,1,0,0:0:0:0:
453,143,30336,1,0,0:0:0:0:
437,188,30417,1,8,0:0:0:0:
401,220,30498,2,0,L|412:276,1,42.5
336,256,30661,2,0,L|327:312,1,42.5,8|0,0:0|0:0,0:0:0:0:
262,267,30823,2,0,L|234:316,1,42.5,2|0,0:0|0:0,0:0:0:0:
189,252,30985,2,0,L|146:289,1,42.5,8|8,0:0|0:0,0:0:0:0:
125,213,31147,6,0,L|71:233,3,42.5,12|0|8|0,0:0|0:0|0:0|0:0,0:0:0:0:
76,144,31471,2,0,L|19:134,3,42.5,2|0|0|0,0:0|0:0|0:0|0:0,0:0:0:0:
68,59,31796,1,0,0:0:0:0:
108,72,31877,1,0,0:0:0:0:
150,67,31958,1,8,0:0:0:0:
185,44,32039,1,0,0:0:0:0:
208,9,32120,2,0,L|212:64,1,42.5,2|0,0:0|0:0,0:0:0:0:
256,108,32282,2,0,L|252:163,1,42.5,2|2,0:0|0:0,0:0:0:0:
248,228,32444,5,8,0:0:0:0:
224,252,32525,1,2,0:0:0:0:
193,266,32606,1,8,0:0:0:0:
159,268,32688,1,2,0:0:0:0:
126,259,32769,1,2,0:0:0:0:
98,238,32850,1,8,0:0:0:0:
79,210,32931,1,2,0:0:0:0:
71,175,33012,1,8,0:0:0:0:
74,142,33093,5,2,0:0:0:0:
93,99,33174,1,2,0:0:0:0:
130,71,33255,1,2,0:0:0:0:
176,65,33336,1,2,0:0:0:0:
219,83,33417,1,2,0:0:0:0:
247,120,33498,1,2,0:0:0:0:
289,138,33579,1,2,0:0:0:0:
335,132,33661,1,2,0:0:0:0:
371,104,33742,6,0,P|412:96|464:112,1,85,12|8,0:0|0:0,0:0:0:0:
328,204,34066,2,0,P|286:211|245:202,1,85,2|0,0:0|0:0,0:0:0:0:
413,275,34390,6,0,P|454:267|506:283,1,85,0|8,0:0|0:0,0:0:0:0:
370,375,34714,2,0,P|328:382|287:373,1,85,2|0,0:0|0:0,0:0:0:0:
413,190,35039,6,0,L|412:308,1,85,8|8,0:0|0:0,0:0:0:0:
335,132,35363,2,0,L|336:14,1,85,2|0,0:0|0:0,0:0:0:0:
272,192,35688,2,0,L|271:310,1,85,0|8,0:0|0:0,0:0:0:0:
194,138,36012,2,0,L|195:20,1,85,2|0,0:0|0:0,0:0:0:0:
128,192,36336,6,0,P|76:200|40:188,1,85,12|8,0:0|0:0,0:0:0:0:
194,138,36661,2,0,P|246:130|282:142,1,85,2|0,0:0|0:0,0:0:0:0:
271,276,36985,2,0,P|219:284|183:272,1,85,0|8,0:0|0:0,0:0:0:0:
337,222,37310,2,0,P|389:214|425:226,1,85,2|0,0:0|0:0,0:0:0:0:
453,106,37634,6,0,L|449:6,1,85,8|8,0:0|0:0,0:0:0:0:
419,223,37958,2,0,L|423:323,1,85,2|0,0:0|0:0,0:0:0:0:
334,135,38282,1,2,0:0:0:0:
324,120,38363,1,2,0:0:0:0:
314,105,38444,2,0,L|316:56,1,42.5,2|2,0:0|0:0,0:0:0:0:
228,32,38606,2,0,L|240:72,1,42.5,2|0,0:0|0:0,0:0:0:0:
148,120,38769,2,0,L|164:80,1,42.5,2|0,0:0|0:0,0:0:0:0:
108,32,38931,6,0,P|64:36|12:24,1,85,12|8,0:0|0:0,0:0:0:0:
45,190,39255,2,0,L|49:290,1,85,2|0,0:0|0:0,0:0:0:0:
192,280,39579,1,0,0:0:0:0:
276,139,39742,1,8,0:0:0:0:
192,280,39904,1,2,0:0:0:0:
276,139,40066,1,0,0:0:0:0:
192,280,40228,6,0,P|184:328|200:376,1,85,8|8,0:0|0:0,0:0:0:0:
275,221,40552,2,0,P|284:180|276:139,1,85,2|0,0:0|0:0,0:0:0:0:
45,190,40877,1,0,0:0:0:0:
163,80,41039,1,8,0:0:0:0:
45,190,41201,1,2,0:0:0:0:
163,80,41363,1,0,0:0:0:0:
317,127,41525,5,12,0:0:0:0:
344,148,41606,1,0,0:0:0:0:
376,158,41688,1,8,0:0:0:0:
410,156,41769,1,0,0:0:0:0:
441,143,41850,2,0,P|448:116|448:92,3,42.5,2|0|2|0,0:0|0:0|0:0|0:0,0:0:0:0:
433,61,42174,1,2,0:0:0:0:
397,38,42255,1,0,0:0:0:0:
354,40,42336,1,2,0:0:0:0:
321,67,42417,1,0,0:0:0:0:
310,108,42498,1,2,0:0:0:0:
277,134,42579,1,0,0:0:0:0:
235,135,42661,1,2,0:0:0:0:
200,111,42742,1,0,0:0:0:0:
186,72,42823,6,0,L|188:21,2,42.5,2|2|2,0:0|0:0|0:0,0:0:0:0:
128,192,43147,1,2,0:0:0:0:
128,192,43228,1,2,0:0:0:0:
128,192,43309,2,0,L|129:234,1,42.5,2|2,0:0|0:0,0:0:0:0:
136,308,43471,6,0,P|184:300|232:316,1,85,2|2,0:0|0:0,0:0:0:0:
256,308,43715,1,2,0:0:0:0:
292,296,43796,1,2,0:0:0:0:
322,273,43877,1,2,0:0:0:0:
344,242,43958,1,2,0:0:0:0:
354,205,44039,1,2,0:0:0:0:
352,166,44120,5,4,0:0:0:0:
85,355,45093,2,0,L|112:352,1,21.25,2|2,0:0|0:0,0:0:0:0:
176,324,45417,6,0,L|220:328,1,42.5,2|0,0:0|0:0,0:0:0:0:
364,360,46066,2,0,L|406:355,1,42.5,2|0,0:0|0:0,0:0:0:0:
480,224,46715,6,0,L|476:136,1,85
476,139,47688,1,2,0:0:0:0:
476,139,47850,1,2,0:0:0:0:
476,139,48012,6,0,P|448:144|428:144,1,42.5,2|0,0:0|0:0,0:0:0:0:
288,112,48661,2,0,P|261:102|243:92,1,42.5,2|0,0:0|0:0,0:0:0:0:
116,32,49309,6,0,L|32:36,1,85
31,36,50282,1,2,0:0:0:0:
31,36,50444,1,2,0:0:0:0:
31,36,50606,6,0,L|32:88,1,42.5,2|0,0:0|0:0,0:0:0:0:
128,192,51255,2,0,L|129:244,1,42.5,2|0,0:0|0:0,0:0:0:0:
44,356,51904,6,0,P|80:352|136:360,1,85
204,368,52715,1,2,0:0:0:0:
204,368,52877,1,2,0:0:0:0:
204,368,53039,1,2,0:0:0:0:
204,368,53201,6,0,L|248:364,1,42.5,2|0,0:0|0:0,0:0:0:0:
388,316,53850,2,0,L|406:275,1,42.5,2|0,0:0|0:0,0:0:0:0:
435,131,54498,6,0,P|410:96|308:144,1,170,6|4,0:0|0:0,0:0:0:0:
309,134,55471,1,2,0:0:0:0:
309,134,55634,1,2,0:0:0:0:
309,134,55796,6,0,P|268:140|216:128,1,85,6|0,0:0|0:0,0:0:0:0:
96,24,56444,2,0,P|70:56|54:107,1,85,6|0,0:0|0:0,0:0:0:0:
92,264,57093,6,0,B|160:248|160:248|264:260,1,170,4|4,0:0|0:0,0:0:0:0:
259,259,58066,1,2,0:0:0:0:
259,259,58228,1,2,0:0:0:0:
259,259,58390,6,0,P|276:300|272:344,1,85,6|0,0:0|0:0,0:0:0:0:
352,188,59039,2,0,P|349:145|366:107,1,85,6|0,0:0|0:0,0:0:0:0:
428,268,59688,5,4,0:0:0:0:
428,268,60012,1,4,0:0:0:0:
273,339,60336,1,4,0:0:0:0:
273,339,60661,1,6,0:0:0:0:
134,240,60985,2,0,P|120:208|124:148,1,85,4|6,0:0|0:0,0:0:0:0:
228,292,61634,2,0,P|230:334|214:373,1,85,6|6,0:0|0:0,0:0:0:0:
60,304,62282,5,8,0:0:0:0:
44,220,62444,2,0,L|48:160,1,42.5,0|8,0:0|0:0,0:0:0:0:
116,128,62769,2,0,L|120:68,1,42.5,12|8,0:0|0:0,0:0:0:0:
120,44,63012,1,0,0:0:0:0:
120,44,63093,2,0,P|156:44|176:48,1,42.5,8|8,0:0|0:0,0:0:0:0:
236,84,63417,1,8,0:0:0:0:
236,84,63498,1,0,0:0:0:0:
236,84,63579,6,0,L|272:80,3,21.25,8|0|8|0,0:0|0:0|0:0|0:0,0:0:0:0:
328,48,63904,2,0,L|349:50,3,21.25,8|8|8|8,0:0|0:0|0:0|0:0,0:0:0:0:
420,84,64228,6,0,L|449:79,11,21.2500008106232,2|2|2|2|2|2|2|2|2|0|0|0,2:2|2:2|2:2|2:2|2:2|2:2|2:0|2:0|2:0|0:0|0:0|0:0,0:0:0:0:
460,76,64877,6,0,P|432:160|480:232,1,170,8|0,0:0|0:0,0:0:0:0:
448,316,65363,2,0,B|404:296|404:296|272:312,1,170,8|2,0:0|0:0,0:0:0:0:
252,312,65715,2,0,L|232:308,16,14.1666666666667,0|2|0|2|0|2|0|2|0|2|0|2|0|2|0|2|0,0:0|0:0|0:0|0:0|0:0|0:0|0:0|0:0|0:0|0:0|0:0|0:0|0:0|0:0|0:0|0:0|0:0,0:0:0:0:
224,308,66174,6,0,B|176:312|176:312|148:292|148:292|108:312|60:288,1,170,8|0,0:0|0:0,0:0:0:0:
16,208,66661,2,0,B|24:164|24:164|16:104|16:104|32:40,1,170,8|2,0:0|0:0,0:0:0:0:
60,40,67012,2,0,L|80:36,16,14.1666666666667,0|2|0|2|0|2|0|2|0|2|0|2|0|2|0|2|0,0:0|0:0|0:0|0:0|0:0|0:0|0:0|0:0|0:0|0:0|0:0|0:0|0:0|0:0|0:0|0:0|0:0,0:0:0:0:
88,36,67471,6,0,P|144:52|256:32,1,170,8|0,0:0|0:0,0:0:0:0:
304,112,67958,2,0,P|323:193|306:276,1,170,8|2,0:0|0:0,0:0:0:0:
300,304,68309,2,0,L|304:328,16,14.1666666666667,0|2|0|2|0|2|0|2|0|2|0|2|0|2|0|2|0,0:0|0:0|0:0|0:0|0:0|0:0|0:0|0:0|0:0|0:0|0:0|0:0|0:0|0:0|0:0|0:0|0:0,0:0:0:0:
308,332,68769,6,0,L|260:328,1,42.5,8|2,0:0|0:2,0:0:0:0:
184,308,68931,2,0,L|163:264,1,42.5,2|2,0:2|0:2,0:0:0:0:
142,188,69093,2,0,L|169:148,1,42.5,2|2,0:2|0:2,0:0:0:0:
224,92,69255,2,0,L|272:96,1,42.5,2|2,0:2|0:2,0:0:0:0:
348,115,69417,6,0,P|364:136|368:158,1,42.5,8|2,0:0|0:2,0:0:0:0:
368,236,69579,2,0,P|357:260|340:275,1,42.5,2|2,0:2|0:2,0:0:0:0:
272,312,69742,2,0,P|245:315|224:308,1,42.5,2|2,0:2|0:2,0:0:0:0:
157,268,69904,2,0,P|140:246|136:224,1,42.5,2|2,0:2|0:2,0:0:0:0:
139,147,70067,6,0,P|208:124|304:152,1,170,8|0,0:0|0:0,0:0:0:0:
348,228,70552,2,0,B|420:268|420:268|504:228,1,170,8|2,0:0|0:0,0:0:0:0:
500,200,70904,2,0,L|496:176,16,14.1666666666667,0|2|0|2|0|2|0|2|0|2|0|2|0|2|0|2|0,0:0|0:0|0:0|0:0|0:0|0:0|0:0|0:0|0:0|0:0|0:0|0:0|0:0|0:0|0:0|0:0|0:0,0:0:0:0:
496,172,71363,6,0,B|484:124|496:64|496:64|444:104,1,170,8|0,0:0|0:0,0:0:0:0:
376,40,71850,2,0,P|320:56|204:32,1,170,8|2,0:0|0:0,0:0:0:0:
184,32,72201,2,0,L|160:36,16,14.1666666666667,0|2|0|2|0|2|0|2|0|2|0|2|0|2|0|2|0,0:0|0:0|0:0|0:0|0:0|0:0|0:0|0:0|0:0|0:0|0:0|0:0|0:0|0:0|0:0|0:0|0:0,0:0:0:0:
156,36,72661,6,0,B|144:96|144:96|160:148|160:148|144:208,1,170,8|0,0:0|0:0,0:0:0:0:
196,280,73147,2,0,B|272:252|272:312|364:272,1,170,8|2,0:0|0:0,0:0:0:0:
368,244,73498,2,0,L|364:220,16,14.1666666666667,0|2|0|2|0|2|0|2|0|2|0|2|0|2|0|2|0,0:0|0:0|0:0|0:0|0:0|0:0|0:0|0:0|0:0|0:0|0:0|0:0|0:0|0:0|0:0|0:0|0:0,0:0:0:0:
364,216,73958,6,0,L|368:164,1,42.5,8|2,0:0|0:2,0:0:0:0:
296,168,74120,2,0,L|300:116,1,42.5,2|2,0:2|0:2,0:0:0:0:
220,204,74282,2,0,L|224:152,1,42.5,2|2,0:2|0:2,0:0:0:0:
152,156,74444,2,0,L|156:104,1,42.5,2|2,0:2|0:2,0:0:0:0:
76,192,74606,6,0,L|80:140,1,42.5,8|8,0:0|0:0,0:0:0:0:
144,228,74769,2,0,L|140:280,1,42.5,8|8,0:0|0:0,0:0:0:0:
64,304,74931,2,0,L|68:252,1,42.5,8|8,0:0|0:0,0:0:0:0:
132,340,75094,2,0,L|128:392,1,42.5,8|8,0:0|0:0,0:0:0:0:
200,312,75255,6,0,L|312:304,1,85,8|0,0:0|0:0,0:0:0:0:
396,192,75579,2,0,P|400:140|376:80,1,85,8|0,0:0|0:0,0:0:0:0:
380,88,75823,1,0,0:0:0:0:
380,88,75904,2,0,L|284:92,1,85,8|0,0:0|0:0,0:0:0:0:
155,113,76228,2,0,P|107:121|59:105,1,85,8|0,0:0|0:0,0:0:0:0:
256,13,76552,5,8,0:0:0:0:
234,154,76715,1,0,0:0:0:0:
168,26,76877,1,8,0:0:0:0:
295,91,77040,1,0,0:0:0:0:
155,113,77201,2,0,P|104:92|76:48,1,85,8|0,0:0|0:0,0:0:0:0:
257,204,77525,2,0,L|249:304,1,85,8|2,0:0|0:0,0:0:0:0:
241,372,77850,5,8,0:0:0:0:
300,137,78012,2,0,L|292:237,1,85,0|2,0:0|0:0,0:0:0:0:
284,305,78336,1,0,0:0:0:0:
343,70,78498,2,0,L|335:170,1,85,8|0,0:0|0:0,0:0:0:0:
333,322,78823,2,0,L|326:237,1,85,8|2,0:0|0:0,0:0:0:0:
380,4,79147,6,0,L|372:104,1,85,8|0,0:0|0:0,0:0:0:0:
368,169,79471,1,2,0:0:0:0:
284,305,79634,1,2,0:0:0:0:
284,305,79715,1,2,0:0:0:0:
284,305,79796,2,0,L|172:297,1,85,2|0,0:0|0:0,0:0:0:0:
184,228,80039,2,0,L|99:234,1,85,2|0,0:0|0:0,0:0:0:0:
40,192,80282,2,0,P|28:168|24:144,1,42.5,2|0,0:0|0:0,0:0:0:0:
24,68,80444,5,8,0:0:0:0:
36,56,80525,1,0,0:0:0:0:
48,44,80606,1,0,0:0:0:0:
60,32,80688,1,0,0:0:0:0:
72,16,80769,2,0,L|64:72,3,42.5,2|0|0|0,0:0|0:0|0:0|0:0,0:0:0:0:
128,108,81093,1,8,0:0:0:0:
152,124,81174,1,0,0:0:0:0:
180,130,81255,1,0,0:0:0:0:
208,126,81336,1,0,0:0:0:0:
233,113,81417,1,0,0:0:0:0:
253,93,81498,1,0,0:0:0:0:
278,81,81579,1,2,0:0:0:0:
305,78,81661,1,0,0:0:0:0:
332,84,81742,6,0,P|352:86|380:96,3,42.5,8|0|0|0,0:0|0:0|0:0|0:0,0:0:0:0:
449,182,82066,2,0,P|428:185|408:192,3,42.5,2|0|0|0,0:0|0:0|0:0|0:0,0:0:0:0:
326,237,82390,2,0,P|318:289|330:349,1,85,2|0,0:0|0:0,0:0:0:0:
240,380,82634,2,0,P|248:328|236:268,1,85,2|0,0:0|0:0,0:0:0:0:
200,236,82877,2,0,L|144:240,1,42.5,2|0,0:0|0:0,0:0:0:0:
84,240,83039,5,8,0:0:0:0:
56,208,83120,1,0,0:0:0:0:
47,166,83201,1,0,0:0:0:0:
60,125,83282,1,0,0:0:0:0:
92,96,83363,2,0,L|84:48,3,42.5,2|0|0|0,0:0|0:0|0:0|0:0,0:0:0:0:
180,130,83688,6,0,L|173:171,3,42.5
180,212,84012,1,2,0:0:0:0:
201,248,84093,1,0,0:0:0:0:
232,274,84174,1,0,0:0:0:0:
270,287,84255,1,0,0:0:0:0:
310,287,84336,6,0,L|368:284,1,42.5,8|0,0:0|0:0,0:0:0:0:
448,240,84498,2,0,L|390:237,1,42.5
296,208,84661,2,0,L|354:205,1,42.5,2|0,0:0|0:0,0:0:0:0:
434,161,84823,2,0,L|376:158,1,42.5,2|2,0:0|0:0,0:0:0:0:
340,96,84985,6,0,P|292:104|240:84,1,85,2|2,0:0|0:0,0:0:0:0:
204,44,85228,2,0,L|104:48,1,85,2|2,0:0|0:0,0:0:0:0:
56,88,85471,2,0,L|60:144,1,42.5,2|2,0:0|0:0,0:0:0:0:
100,192,85634,6,0,L|98:219,47,14.1666666666667,2|2|2|2|2|2|2|2|2|2|2|2|2|2|2|2|2|2|2|2|2|2|2|2|2|2|2|2|2|2|2|2|2|2|2|2|2|2|2|2|2|2|2|2|2|2|2|2,0:0|0:0|0:0|0:0|0:0|0:0|0:0|0:0|0:0|0:0|0:0|0:0|0:0|0:0|0:0|0:0|0:0|0:0|0:0|0:0|0:0|0:0|0:0|0:0|0:0|0:0|0:0|0:0|0:0|0:0|0:0|0:0|0:0|0:0|0:0|0:0|0:0|0:0|0:0|0:0|0:0|0:0|0:0|0:0|0:0|0:0|0:0|0:0,0:0:0:0:
96,220,86931,6,0,B|148:240|184:204|184:204|208:224|208:224|248:208|280:220|280:220|304:212|336:224,1,255,4|0,0:0|2:2,0:0:0:0:
333,223,88228,6,0,P|341:283|333:311,1,85,12|8,0:0|0:0,0:0:0:0:
224,144,88552,2,0,P|216:102|226:61,1,85,2|0,0:0|0:0,0:0:0:0:
240,28,88796,1,0,0:0:0:0:
240,28,88877,2,0,L|348:32,1,85,0|8,0:0|0:0,0:0:0:0:
456,36,89201,1,2,0:0:0:0:
347,110,89363,1,0,0:0:0:0:
347,110,89444,1,0,0:0:0:0:
347,110,89525,5,8,0:0:0:0:
478,114,89688,1,8,0:0:0:0:
374,33,89850,1,2,0:0:0:0:
410,159,90013,1,0,0:0:0:0:
408,152,90093,1,0,0:0:0:0:
406,145,90174,2,0,L|402:241,1,85,0|8,0:0|0:0,0:0:0:0:
310,287,90498,2,0,P|268:294|226:286,1,85,2|0,0:0|0:0,0:0:0:0:
196,267,90742,1,0,0:0:0:0:
196,267,90823,5,12,0:0:0:0:
128,152,90985,1,2,0:0:0:0:
250,205,91147,1,2,0:0:0:0:
119,234,91309,1,2,0:0:0:0:
119,234,91390,1,0,0:0:0:0:
119,234,91471,2,0,P|68:232|16:236,1,85,8|2,0:0|0:0,0:0:0:0:
207,134,91796,1,2,0:0:0:0:
330,187,91958,1,2,0:0:0:0:
330,187,92039,1,0,0:0:0:0:
330,187,92120,6,0,P|372:189|414:187,1,85,8|0,0:0|0:0,0:0:0:0:
478,114,92444,1,2,0:0:0:0:
472,256,92606,1,8,0:0:0:0:
464,252,92688,1,2,0:0:0:0:
456,248,92769,2,0,L|464:300,1,42.5,0|8,0:0|0:0,0:0:0:0:
384,336,92931,2,0,L|392:294,1,42.5,8|8,0:0|0:0,0:0:0:0:
316,240,93093,2,0,L|324:292,1,42.5,2|0,0:0|0:0,0:0:0:0:
244,328,93255,2,0,L|252:286,1,42.5,2|2,0:0|0:0,0:0:0:0:
204,232,93417,6,0,L|88:228,1,85,12|8,0:0|0:0,0:0:0:0:
28,192,93742,1,2,0:0:0:0:
92,72,93904,1,0,0:0:0:0:
92,72,93985,1,0,0:0:0:0:
92,72,94066,2,0,L|96:188,1,85,0|8,0:0|0:0,0:0:0:0:
22,360,94390,2,0,L|25:276,1,85,2|0,0:0|0:0,0:0:0:0:
36,240,94634,1,0,0:0:0:0:
36,240,94715,6,0,P|84:244|120:240,1,85,8|8,0:0|0:0,0:0:0:0:
251,286,95039,2,0,P|293:281|335:286,1,85,2|0,0:0|0:0,0:0:0:0:
368,302,95282,1,0,0:0:0:0:
368,302,95363,2,0,P|410:306|452:302,1,85,0|8,0:0|0:0,0:0:0:0:
504,148,95688,1,2,0:0:0:0:
507,233,95850,1,0,0:0:0:0:
507,233,95931,1,0,0:0:0:0:
507,233,96012,6,0,L|504:148,1,85,12|8,0:0|0:0,0:0:0:0:
374,33,96336,2,0,L|371:117,1,85,2|0,0:0|0:0,0:0:0:0:
364,144,96579,1,0,0:0:0:0:
364,144,96661,2,0,P|328:152|264:136,1,85,0|8,0:0|0:0,0:0:0:0:
220,64,96985,1,2,0:0:0:0:
184,196,97147,1,2,0:0:0:0:
184,196,97228,1,2,0:0:0:0:
184,196,97309,2,0,L|188:308,1,85,8|2,0:0|0:0,0:0:0:0:
180,304,97552,1,2,0:0:0:0:
173,328,97634,5,2,0:0:0:0:
136,362,97715,1,2,0:0:0:0:
86,372,97796,1,2,0:0:0:0:
38,356,97877,1,2,0:0:0:0:
4,318,97958,2,0,L|8:260,1,42.5,8|8,0:0|0:0,0:0:0:0:
69,234,98120,2,0,L|72:192,1,42.5,8|8,0:0|0:0,0:0:0:0:
16,144,98282,2,0,L|20:86,1,42.5,8|0,0:0|0:0,0:0:0:0:
81,60,98444,6,0,L|166:65,1,63.7500024318696,12|0,0:0|0:0,0:0:0:0:
144,64,98931,5,2,0:0:0:0:
168,88,99012,1,0,0:0:0:0:
199,99,99093,1,0,0:0:0:0:
232,96,99174,1,0,0:0:0:0:
261,79,99255,2,0,L|264:136,3,42.5
324,192,99579,2,0,L|327:249,3,42.5,2|0|0|0,0:0|0:0|0:0|0:0,0:0:0:0:
387,305,99904,5,8,0:0:0:0:
356,304,99985,1,0,0:0:0:0:
326,313,100066,1,0,0:0:0:0:
301,332,100147,1,0,0:0:0:0:
284,358,100228,2,0,L|220:352,3,42.5,2|0|0|2,0:0|0:0|0:0|0:0,0:0:0:0:
180,284,100552,2,0,L|116:278,3,42.5,0|2|0|0,0:0|0:0|0:0|0:0,0:0:0:0:
76,210,100877,5,2,0:0:0:0:
60,184,100958,1,0,0:0:0:0:
56,153,101039,1,2,0:0:0:0:
65,124,101120,1,0,0:0:0:0:
86,101,101201,6,0,P|112:116|136:116,1,42.5,8|0,0:0|0:0,0:0:0:0:
196,127,101363,2,0,P|195:96|183:76,1,42.5
163,18,101525,2,0,P|136:34|125:54,1,42.5,2|0,0:0|0:0,0:0:0:0:
119,210,101688,6,0,P|145:225|169:225,1,42.5,8|0,0:0|0:0,0:0:0:0:
229,236,101850,2,0,P|228:205|216:185,1,42.5
196,127,102012,2,0,P|169:143|158:163,1,42.5,2|0,0:0|0:0,0:0:0:0:
152,319,102174,6,0,L|167:358,3,42.5,8|0|0|0,0:0|0:0|0:0|0:0,0:0:0:0:
256,320,102498,5,0,0:0:0:0:
291,344,102579,1,0,0:0:0:0:
333,347,102661,1,8,0:0:0:0:
371,328,102742,1,0,0:0:0:0:
394,293,102823,2,0,L|399:266,1,21.25,2|0,0:0|0:0,0:0:0:0:
396,251,102904,2,0,L|386:225,1,21.25,2|0,0:0|0:0,0:0:0:0:
376,213,102985,2,0,L|354:195,1,21.25,2|0,0:0|0:0,0:0:0:0:
340,190,103066,2,0,L|312:185,1,21.25,2|0,0:0|0:0,0:0:0:0:
297,188,103147,6,0,L|273:173,1,21.25,8|0,0:0|0:0,0:0:0:0:
260,164,103228,2,0,L|245:140,1,21.25
239,124,103309,2,0,L|238:96,1,21.25,8|0,0:0|0:0,0:0:0:0:
241,79,103390,2,0,L|254:54,1,21.25
265,41,103471,2,0,L|288:26,1,21.25
304,20,103552,2,0,L|331:19,1,21.25
349,22,103634,6,0,L|440:28,1,85,12|0,0:0|0:0,0:0:0:0:
312,101,103958,1,0,0:0:0:0:
454,114,104120,1,2,0:0:0:0:
476,150,104201,1,0,0:0:0:0:
484,191,104282,1,0,0:0:0:0:
477,232,104363,1,0,0:0:0:0:
457,269,104444,2,0,P|449:300|457:332,1,42.5,8|0,0:0|0:0,0:0:0:0:
383,384,104606,2,0,L|380:335,1,42.5
316,264,104769,2,0,L|313:313,1,42.5,2|0,0:0|0:0,0:0:0:0:
230,354,104931,6,0,P|182:345|126:346,1,85,8|0,0:0|0:0,0:0:0:0:
8,370,105255,1,0,0:0:0:0:
105,269,105417,1,2,0:0:0:0:
146,258,105498,1,0,0:0:0:0:
177,229,105579,1,0,0:0:0:0:
190,188,105661,1,0,0:0:0:0:
182,144,105742,2,0,P|158:136|134:136,1,42.5,8|0,0:0|0:0,0:0:0:0:
146,50,105904,2,0,L|144:8,1,42.5
231,21,106066,2,0,L|234:64,1,42.5,2|0,0:0|0:0,0:0:0:0:
256,140,106228,6,0,L|360:132,1,85,8|0,0:0|0:0,0:0:0:0:
472,184,106552,1,0,0:0:0:0:
364,273,106715,1,2,0:0:0:0:
321,269,106796,1,0,0:0:0:0:
279,266,106877,1,0,0:0:0:0:
236,262,106958,1,0,0:0:0:0:
194,259,107039,2,0,P|181:285|175:314,1,42.5,8|0,0:0|0:0,0:0:0:0:
164,192,107201,2,0,L|168:135,1,42.5
82,213,107363,2,0,P|53:207|23:208,1,42.5,2|0,0:0|0:0,0:0:0:0:
14,310,107525,6,0,P|55:311|95:291,1,85,8|0,0:0|0:0,0:0:0:0:
144,160,107850,1,0,0:0:0:0:
154,333,108012,1,2,0:0:0:0:
178,298,108093,1,0,0:0:0:0:
213,275,108174,1,0,0:0:0:0:
254,267,108255,1,0,0:0:0:0:
295,277,108336,2,0,P|304:299|307:324,1,42.5,8|0,0:0|0:0,0:0:0:0:
355,235,108498,2,0,P|353:213|357:192,1,42.5
422,266,108661,2,0,L|479:270,1,42.5,2|0,0:0|0:0,0:0:0:0:
444,165,108823,6,0,L|438:80,1,85,8|0,0:0|0:0,0:0:0:0:
357,193,109147,1,0,0:0:0:0:
310,30,109309,1,2,0:0:0:0:
275,54,109390,1,0,0:0:0:0:
233,64,109471,1,0,0:0:0:0:
190,59,109552,1,0,0:0:0:0:
151,39,109634,2,0,P|135:27|128:7,1,42.5,8|0,0:0|0:0,0:0:0:0:
25,61,109796,2,0,L|81:59,1,42.5
152,124,109958,2,0,L|109:122,1,42.5,2|0,0:0|0:0,0:0:0:0:
30,193,110120,6,0,P|22:241|29:291,1,85,8|0,0:0|0:0,0:0:0:0:
138,374,110444,2,0,L|139:359,17,14.1666666666667,0|0|0|0|0|0|2|0|0|0|0|0|8|0|0|0|0|0,0:0|0:0|0:0|0:0|0:0|0:0|0:0|0:0|0:0|0:0|0:0|0:0|0:0|0:0|0:0|0:0|0:0|0:0,0:0:0:0:
139,345,110931,6,0,P|156:352|186:354,1,42.5,2|0,0:0|0:0,0:0:0:0:
203,251,111093,2,0,P|188:262|171:287,1,42.5,8|0,0:0|0:0,0:0:0:0:
253,354,111255,2,0,P|250:335|237:308,1,42.5,2|0,0:0|0:0,0:0:0:0:
276,249,111417,6,0,P|343:244|366:151,1,170,8|2,0:0|0:0,0:0:0:0:
415,275,111904,2,0,P|403:331|408:369,1,85,2|2,0:0|0:0,0:0:0:0:
479,229,112228,1,2,0:0:0:0:
302,183,112390,1,0,0:0:0:0:
302,183,112471,1,2,0:0:0:0:
476,324,112715,5,2,0:0:0:0:
256,192,112796,12,0,114012,0:0:0:0:
459,192,114174,6,0,P|417:196|376:192,1,85
328,256,115471,2,0,P|285:251|243:255,1,85,2|0,0:0|0:0,0:0:0:0:
225,178,116769,2,0,P|182:182|141:177,1,85,2|0,0:0|0:0,0:0:0:0:
93,241,118066,2,0,P|50:236|8:240,1,85,2|2,0:0|0:0,0:0:0:0:
8,240,119547,5,2,0:0:0:0:
244,256,120917,1,2,0:0:0:0:
459,192,122439,2,0,P|479:156|384:88,1,188.59375,2|0,0:0|0:0,0:0:0:0:
