osu file format v14

[General]
AudioFilename: -+.mp3
AudioLeadIn: 0
PreviewTime:86931
Countdown: 0
SampleSet: Soft
StackLeniency: 0.7
Mode: 2
LetterboxInBreaks: 0
WidescreenStoryboard: 1
EpilepsyWarning: 1

[Editor]
Bookmarks: 63577,64063,64874,65361,66171,66658,67469,67793,68117,68442,68604,68766,69252,70063,70550,71361,71847,72658,72982,73306,73631,73793,73955
DistanceSpacing: 1
BeatDivisor: 4
GridSize: 4
TimelineZoom: 2.4

[Metadata]
Title:-+
TitleUnicode:-+
Artist:daisan
ArtistUnicode:daisan
Creator:Starfy
Version:AFB's Rain
Source:BOF2013
Tags:minus plus konzertsaal - THE BMS OF FIGHTERS 2013 Dirt Art Color Teller xellox piano StarForYou Kyle Y IamKwaN happy623 -N_a_n_a_k_o- Nanako Kencho Chaoslitz [ Drop ] choikapo Regou Rizia Kawaiwkyik Nakano Itsuki StarrStyx Prophecy aabc271 Nardoxyribonucleic Skylish ll-oscar autofanboy alienflybot hokin1995 pwhk hong kong hk muse dash electronic instrumental
BeatmapID:857288
BeatmapSetID:389617

[Difficulty]
HPDrainRate:6
CircleSize:3.8
OverallDifficulty:9
ApproachRate:9
SliderMultiplier:1.75
SliderTickRate:2

[Events]
//Background and Video events
0,0,"BG.png",0,0
//Break Periods
//Storyboard Layer 0 (Background)
//Storyboard Layer 1 (Fail)
//Storyboard Layer 2 (Pass)
//Storyboard Layer 3 (Foreground)
//Storyboard Layer 4 (Overlay)
//Storyboard Sound Samples

[TimingPoints]
2607,324.324324324324,4,2,1,30,1,0
2607,-166.666666666667,4,2,1,30,0,0
2931,-166.666666666667,4,2,1,25,0,0
3904,-166.666666666667,4,2,1,30,0,0
4228,-166.666666666667,4,2,1,25,0,0
5201,-166.666666666667,4,2,1,30,0,0
5525,-166.666666666667,4,2,1,25,0,0
5850,-166.666666666667,4,2,1,20,0,0
6498,-166.666666666667,4,2,1,30,0,0
8120,-166.666666666667,4,2,1,25,0,0
9093,-166.666666666667,4,2,1,30,0,0
9417,-166.666666666667,4,2,1,25,0,0
10390,-166.666666666667,4,2,1,30,0,0
11039,-166.666666666667,4,2,1,20,0,0
11688,-166.666666666667,4,2,1,30,0,0
12336,-166.666666666667,4,2,1,20,0,0
12498,-166.666666666667,4,2,1,15,0,0
12661,-166.666666666667,4,2,1,10,0,0
12985,-166.666666666667,4,1,3,30,0,0
13634,-166.666666666667,4,2,1,25,0,0
14282,-166.666666666667,4,2,1,30,0,0
14606,-166.666666666667,4,2,1,25,0,0
15579,-166.666666666667,4,2,1,30,0,0
16228,-166.666666666667,4,2,1,25,0,0
16552,-166.666666666667,4,2,1,20,0,0
16877,-166.666666666667,4,2,1,30,0,0
18823,-166.666666666667,4,2,1,25,0,0
19471,-166.666666666667,4,2,1,30,0,0
19796,-166.666666666667,4,2,1,25,0,0
20769,-125,4,2,1,30,0,0
20931,-125,4,2,1,25,0,0
21093,-125,4,2,1,30,0,0
21255,-125,4,2,1,25,0,0
21417,-125,4,2,1,30,0,0
21579,-125,4,2,1,25,0,0
21742,-125,4,2,1,30,0,0
21904,-125,4,2,1,25,0,0
22066,-125,4,2,1,30,0,0
22228,-125,4,2,1,25,0,0
22390,-125,4,2,1,20,0,0
22552,-125,4,2,1,15,0,0
22796,-125,4,2,1,20,0,0
22877,-125,4,2,1,25,0,0
22958,-125,4,2,1,30,0,0
23039,-125,4,2,1,20,0,0
23120,-125,4,2,1,15,0,0
23201,-125,4,2,1,10,0,0
23282,-125,4,2,1,30,0,0
23363,-100,4,2,0,50,0,1
23525,-100,4,2,20,50,0,1
23688,-100,4,2,20,70,0,1
23769,-100,4,2,20,50,0,1
24012,-100,4,2,20,60,0,1
24336,-100,4,2,20,70,0,1
24417,-100,4,2,20,50,0,1
24985,-100,4,2,20,70,0,1
25066,-100,4,2,20,50,0,1
25634,-100,4,2,20,70,0,1
25715,-100,4,2,20,50,0,1
25958,-100,4,2,20,70,0,1
26120,-100,4,2,1,60,0,1
26282,-100,4,2,20,70,0,1
26444,-100,4,2,1,60,0,1
26606,-100,4,2,20,50,0,1
26769,-100,4,2,1,60,0,1
26850,-100,4,2,20,50,0,1
26931,-100,4,2,20,70,0,1
27012,-100,4,2,20,50,0,1
27255,-100,4,2,1,50,0,1
27579,-100,4,2,20,70,0,1
27742,-100,4,2,1,70,0,1
27904,-100,4,2,20,50,0,1
28228,-100,4,2,20,70,0,1
28309,-100,4,2,1,70,0,1
28552,-100,4,2,20,50,0,1
28715,-100,4,2,1,60,0,1
28796,-100,4,2,20,50,0,1
28877,-100,4,2,20,70,0,1
28958,-100,4,2,20,50,0,1
29363,-100,4,2,1,60,0,1
29525,-100,4,2,20,70,0,1
29688,-100,4,2,20,50,0,1
29850,-100,4,2,20,60,0,1
30174,-100,4,2,20,70,0,1
30336,-100,4,2,20,60,0,1
30823,-100,4,2,20,70,0,1
30985,-100,4,2,20,60,0,1
31147,-100,4,2,1,60,0,1
31228,-100,4,2,20,60,0,1
31471,-100,4,2,20,70,0,1
31552,-100,4,2,20,60,0,1
31958,-100,4,2,1,70,0,1
32039,-100,4,2,20,60,0,1
32120,-100,4,2,20,70,0,1
32201,-100,4,2,20,60,0,1
32282,-100,4,2,20,70,0,1
32363,-100,4,2,20,60,0,1
32444,-100,4,2,1,70,0,1
32525,-100,4,2,1,50,0,1
32606,-100,4,2,1,70,0,1
32769,-100,4,2,20,70,0,1
32850,-100,4,2,1,50,0,1
33093,-100,4,2,1,70,0,1
33174,-100,4,2,1,50,0,1
33255,-100,4,2,1,70,0,1
33417,-100,4,2,20,70,0,1
33498,-100,4,2,1,50,0,1
33742,-100,4,2,0,50,0,0
33904,-100,4,2,1,50,0,0
34066,-100,4,2,20,70,0,0
34228,-100,4,2,1,50,0,0
34390,-100,4,2,1,70,0,0
34552,-100,4,2,1,50,0,0
34715,-100,4,2,1,70,0,0
34877,-100,4,2,1,50,0,0
35039,-100,4,2,1,70,0,0
35201,-100,4,2,1,50,0,0
35363,-100,4,2,20,70,0,0
35525,-100,4,2,1,50,0,0
35688,-100,4,2,1,70,0,0
35850,-100,4,2,1,50,0,0
36012,-100,4,2,1,70,0,0
36174,-100,4,2,1,50,0,0
36336,-100,4,2,1,70,0,0
36498,-100,4,2,1,50,0,0
36661,-100,4,2,20,70,0,0
36823,-100,4,2,1,50,0,0
36985,-100,4,2,1,70,0,0
37147,-100,4,2,1,50,0,0
37309,-100,4,2,1,70,0,0
37471,-100,4,2,1,50,0,0
37634,-100,4,2,1,70,0,0
37715,-100,4,2,1,50,0,0
37958,-100,4,2,20,70,0,0
38039,-100,4,2,1,50,0,0
38282,-100,4,2,1,70,0,0
38363,-100,4,2,1,50,0,0
38606,-100,4,2,1,70,0,0
38688,-100,4,2,1,50,0,0
38931,-100,4,2,0,50,0,0
39093,-100,4,2,1,50,0,0
39255,-100,4,2,20,70,0,0
39417,-100,4,2,1,50,0,0
39579,-100,4,2,1,70,0,0
39742,-100,4,2,1,50,0,0
39904,-100,4,2,1,70,0,0
40066,-100,4,2,1,50,0,0
40228,-100,4,2,1,70,0,0
40390,-100,4,2,1,50,0,0
40552,-100,4,2,20,70,0,0
40715,-100,4,2,1,50,0,0
40877,-100,4,2,1,70,0,0
41039,-100,4,2,1,50,0,0
41201,-100,4,2,1,70,0,0
41363,-100,4,2,1,50,0,0
41525,-100,4,2,1,70,0,0
41606,-100,4,2,1,50,0,0
41850,-100,4,2,20,70,0,0
41931,-100,4,2,1,50,0,0
42174,-100,4,2,1,70,0,0
42255,-100,4,2,1,50,0,0
42498,-100,4,2,1,70,0,0
42579,-100,4,2,1,50,0,0
42823,-100,4,2,0,70,0,0
42904,-100,4,2,1,50,0,0
43147,-100,4,2,1,70,0,0
43228,-100,4,2,1,50,0,0
43471,-100,4,2,0,70,0,0
43552,-100,4,2,1,50,0,0
43796,-100,4,2,1,70,0,0
43877,-100,4,2,1,50,0,0
44120,-125,4,2,0,70,0,0
44282,-125,4,2,1,30,0,0
45093,-125,4,2,1,70,0,0
45579,-125,4,2,1,30,0,0
45742,-125,4,2,1,70,0,0
46715,-125,4,2,1,30,0,0
47688,-125,4,2,1,70,0,0
48174,-125,4,2,1,30,0,0
48336,-125,4,2,1,70,0,0
49309,-125,4,2,1,30,0,0
50282,-125,4,2,1,70,0,0
50769,-125,4,2,1,30,0,0
50931,-125,4,2,1,70,0,0
51904,-125,4,2,1,30,0,0
52715,-125,4,2,1,70,0,0
53363,-125,4,2,1,30,0,0
53525,-125,4,2,1,70,0,0
54012,-125,4,2,1,50,0,0
54174,-125,4,2,1,70,0,0
54498,-125,4,2,2,50,0,0
54661,-125,4,2,1,30,0,0
55471,-125,4,2,1,70,0,0
55958,-125,4,2,1,30,0,0
56120,-125,4,2,1,70,0,0
57093,-125,4,2,1,30,0,0
58066,-125,4,2,1,70,0,0
58552,-125,4,2,1,30,0,0
58715,-125,4,2,1,70,0,0
59201,-125,4,2,1,30,0,0
59363,-125,4,2,1,70,0,0
59525,-125,4,2,1,30,0,0
60661,-125,4,2,1,70,0,0
61147,-125,4,2,1,30,0,0
61309,-125,4,2,1,70,0,0
61471,-125,4,2,1,30,0,0
61634,-125,4,2,1,70,0,0
61796,-125,4,2,1,30,0,0
61958,-125,4,2,1,70,0,0
62120,-125,4,2,1,30,0,0
62282,-125,4,2,1,50,0,0
62363,-125,4,2,1,30,0,0
62606,-125,4,2,1,50,0,0
62769,-125,4,2,1,30,0,0
62931,-125,4,2,1,50,0,0
63012,-125,4,2,1,30,0,0
63093,-125,4,2,1,50,0,0
63174,-125,4,2,1,30,0,0
63255,-125,4,2,1,50,0,0
63336,-125,4,2,1,30,0,0
63417,-125,4,2,1,50,0,0
63498,-125,4,2,1,30,0,0
63742,-125,4,2,1,50,0,0
63823,-125,4,2,1,30,0,0
64066,-125,4,2,1,50,0,0
64147,-125,4,2,1,30,0,0
64228,-125,4,2,1,50,0,0
64309,-125,4,2,1,30,0,0
64390,-125,4,2,1,50,0,0
64471,-125,4,2,1,30,0,0
64552,-125,4,2,1,50,0,0
64634,-125,4,2,1,30,0,0
64715,-125,4,2,1,50,0,0
64796,-125,4,2,1,30,0,0
64877,-125,4,2,0,70,0,0
65039,-125,4,2,1,30,0,0
65363,-125,4,2,0,70,0,0
65688,-125,4,2,1,30,0,0
65850,-125,4,2,1,25,0,0
66012,-125,4,2,1,20,0,0
66174,-125,4,2,0,70,0,0
66336,-125,4,2,1,30,0,0
66661,-125,4,2,0,70,0,0
66985,-125,4,2,1,30,0,0
67147,-125,4,2,1,25,0,0
67309,-125,4,2,1,20,0,0
67471,-125,4,2,0,70,0,0
67634,-125,4,2,1,30,0,0
67958,-125,4,2,0,70,0,0
68282,-125,4,2,1,30,0,0
68444,-125,4,2,1,25,0,0
68606,-125,4,2,1,20,0,0
68769,-125,4,2,0,70,0,0
68850,-125,4,2,1,30,0,0
69417,-125,4,2,0,70,0,0
69498,-125,4,2,1,30,0,0
69742,-125,4,2,1,70,0,0
69823,-125,4,2,1,30,0,0
69904,-125,4,2,1,70,0,0
69985,-125,4,2,1,30,0,0
70066,-125,4,2,0,70,0,0
70228,-125,4,2,1,30,0,0
70552,-125,4,2,0,70,0,0
70877,-125,4,2,1,30,0,0
71039,-125,4,2,1,25,0,0
71201,-125,4,2,1,20,0,0
71363,-125,4,2,0,70,0,0
71525,-125,4,2,1,30,0,0
71850,-125,4,2,0,70,0,0
72174,-125,4,2,1,30,0,0
72336,-125,4,2,1,25,0,0
72498,-125,4,2,1,20,0,0
72661,-125,4,2,0,70,0,0
72823,-125,4,2,1,30,0,0
73147,-125,4,2,0,70,0,0
73471,-125,4,2,1,30,0,0
73634,-125,4,2,1,25,0,0
73796,-125,4,2,1,20,0,0
73958,-125,4,2,0,70,0,0
74039,-125,4,2,1,30,0,0
74606,-125,4,2,0,70,0,0
74688,-125,4,2,1,30,0,0
74769,-125,4,2,1,50,0,0
75255,-100,4,2,0,70,0,0
75336,-100,4,2,1,50,0,0
75579,-100,4,2,1,70,0,0
75661,-100,4,2,1,50,0,0
75904,-100,4,2,1,70,0,0
75985,-100,4,2,1,50,0,0
76228,-100,4,2,1,70,0,0
76309,-100,4,2,1,50,0,0
76552,-100,4,2,1,70,0,0
76634,-100,4,2,1,50,0,0
76877,-100,4,2,1,70,0,0
76958,-100,4,2,1,50,0,0
77201,-100,4,2,1,70,0,0
77282,-100,4,2,1,50,0,0
77525,-100,4,2,1,70,0,0
77606,-100,4,2,1,50,0,0
77688,-100,4,2,1,70,0,0
77769,-100,4,2,1,50,0,0
77850,-100,4,2,1,70,0,0
77931,-100,4,2,1,50,0,0
78174,-100,4,2,1,70,0,0
78255,-100,4,2,1,50,0,0
78498,-100,4,2,1,70,0,0
78579,-100,4,2,1,50,0,0
78823,-100,4,2,1,70,0,0
78904,-100,4,2,1,50,0,0
78985,-100,4,2,1,70,0,0
79228,-100,4,2,1,50,0,0
79471,-100,4,2,1,70,0,0
79552,-100,4,2,1,50,0,0
79634,-100,4,2,1,70,0,0
79715,-100,4,2,1,50,0,0
79796,-100,4,2,1,70,0,0
79877,-100,4,2,1,50,0,0
80039,-100,4,2,1,70,0,0
80120,-100,4,2,1,50,0,0
80282,-100,4,2,1,70,0,0
80444,-100,4,2,0,70,0,0
80525,-100,4,2,1,50,0,0
80769,-100,4,2,1,70,0,0
80850,-100,4,2,1,50,0,0
81093,-100,4,2,1,70,0,0
81174,-100,4,2,1,50,0,0
81417,-100,4,2,1,70,0,0
81498,-100,4,2,1,50,0,0
81742,-100,4,2,1,70,0,0
81823,-100,4,2,1,50,0,0
82066,-100,4,2,1,70,0,0
82147,-100,4,2,1,50,0,0
82390,-100,4,2,1,70,0,0
82471,-100,4,2,1,50,0,0
82634,-100,4,2,1,70,0,0
82715,-100,4,2,1,50,0,0
82877,-100,4,2,1,70,0,0
82958,-100,4,2,1,50,0,0
83039,-100,4,2,0,70,0,0
83120,-100,4,2,1,50,0,0
83363,-100,4,2,1,70,0,0
83444,-100,4,2,1,50,0,0
83688,-100,4,2,1,70,0,0
83769,-100,4,2,1,50,0,0
84012,-100,4,2,1,70,0,0
84093,-100,4,2,1,50,0,0
84336,-100,4,2,0,70,0,0
84417,-100,4,2,1,50,0,0
84661,-100,4,2,1,70,0,0
84742,-100,4,2,1,50,0,0
84985,-100,4,2,1,70,0,0
85066,-100,4,2,1,50,0,0
85309,-100,4,2,1,70,0,0
85390,-100,4,2,1,50,0,0
85634,-100,4,2,1,70,0,0
85715,-100,4,2,1,50,0,0
85796,-100,4,2,1,70,0,0
85877,-100,4,2,1,50,0,0
85958,-100,4,2,1,70,0,0
86039,-100,4,2,1,50,0,0
86120,-100,4,2,1,70,0,0
86201,-100,4,2,1,50,0,0
86282,-100,4,2,1,70,0,0
86363,-100,4,2,1,50,0,0
86444,-100,4,2,1,70,0,0
86525,-100,4,2,1,50,0,0
86606,-100,4,2,1,70,0,0
86688,-100,4,2,1,50,0,0
86769,-100,4,2,1,70,0,0
86850,-100,4,2,1,50,0,0
86931,-166.666666666667,4,1,5,50,0,0
87093,-166.666666666667,4,2,0,25,0,0
87255,-166.666666666667,4,2,0,20,0,0
87417,-166.666666666667,4,2,1,50,0,0
87579,-166.666666666667,4,2,1,45,0,0
87742,-166.666666666667,4,2,1,40,0,0
87904,-166.666666666667,4,2,1,35,0,0
88228,-100,4,2,0,70,0,1
88390,-100,4,2,20,50,0,1
88552,-100,4,2,20,70,0,1
88715,-100,4,2,20,50,0,1
89201,-100,4,2,20,70,0,1
89363,-100,4,2,20,50,0,1
89850,-100,4,2,20,70,0,1
90012,-100,4,2,20,50,0,1
90498,-100,4,2,20,70,0,1
90579,-100,4,2,20,50,0,1
90985,-100,4,2,20,70,0,1
91390,-100,4,2,20,50,0,1
91634,-100,4,2,20,70,0,1
91796,-100,4,2,20,50,0,1
91958,-100,4,2,20,70,0,1
92039,-100,4,2,20,50,0,1
92444,-100,4,2,20,70,0,1
92525,-100,4,2,20,50,0,1
92769,-100,4,2,20,70,0,1
92850,-100,4,2,20,50,0,1
92931,-100,4,2,20,70,0,1
93012,-100,4,2,20,50,0,1
93093,-100,4,2,20,70,0,1
93174,-100,4,2,20,50,0,1
93255,-100,4,2,20,70,0,1
93336,-100,4,2,20,50,0,1
93417,-100,4,2,0,70,0,1
93579,-100,4,2,20,50,0,1
93742,-100,4,2,20,70,0,1
93904,-100,4,2,20,50,0,1
94390,-100,4,2,20,70,0,1
94552,-100,4,2,20,50,0,1
95039,-100,4,2,20,70,0,1
95201,-100,4,2,20,50,0,1
95688,-100,4,2,20,70,0,1
95850,-100,4,2,20,50,0,1
96336,-100,4,2,20,70,0,1
96498,-100,4,2,20,50,0,1
96985,-100,4,2,20,70,0,1
97147,-100,4,2,20,50,0,1
97634,-100,4,2,20,70,0,1
97715,-100,4,2,20,50,0,1
97958,-100,4,2,20,70,0,1
98039,-100,4,2,20,50,0,1
98120,-100,4,2,20,70,0,1
98201,-100,4,2,20,50,0,1
98282,-100,4,2,20,70,0,1
98363,-100,4,2,20,50,0,1
98444,-166.666666666667,4,2,20,70,0,1
98606,-166.666666666667,4,2,20,60,0,1
98769,-166.666666666667,4,2,20,50,0,1
98931,-100,4,2,0,70,0,1
99012,-100,4,2,20,50,0,1
99579,-100,4,2,20,70,0,1
99661,-100,4,2,20,50,0,1
100066,-100,4,2,20,70,0,1
100147,-100,4,2,20,50,0,1
100228,-100,4,2,20,70,0,1
100309,-100,4,2,20,50,0,1
100390,-100,4,2,20,70,0,1
100552,-100,4,2,20,50,0,1
100634,-100,4,2,20,70,0,1
100715,-100,4,2,20,50,0,1
100877,-100,4,2,20,70,0,1
100958,-100,4,2,20,50,0,1
101039,-100,4,2,20,70,0,1
101120,-100,4,2,20,50,0,1
101201,-100,4,2,0,70,0,1
101282,-100,4,2,20,50,0,1
101363,-100,4,2,20,70,0,1
101444,-100,4,2,20,50,0,1
101688,-100,4,2,0,70,0,1
101769,-100,4,2,20,50,0,1
101850,-100,4,2,20,70,0,1
101931,-100,4,2,20,50,0,1
102012,-100,4,2,1,70,0,1
102174,-100,4,2,0,70,0,1
102579,-100,4,2,20,70,0,1
102742,-100,4,2,20,50,0,1
102823,-100,4,2,20,70,0,1
102985,-100,4,2,20,50,0,1
103309,-100,4,2,20,70,0,1
103390,-100,4,2,20,50,0,1
103634,-100,4,2,0,70,0,1
103796,-100,4,2,20,50,0,1
104120,-100,4,2,20,70,0,1
104201,-100,4,2,20,50,0,1
104931,-100,4,2,0,70,0,1
105093,-100,4,2,20,50,0,1
105417,-100,4,2,20,70,0,1
105498,-100,4,2,20,50,0,1
106228,-100,4,2,0,70,0,1
106390,-100,4,2,20,50,0,1
106715,-100,4,2,20,70,0,1
106796,-100,4,2,20,50,0,1
107525,-100,4,2,0,70,0,1
107688,-100,4,2,20,50,0,1
108012,-100,4,2,20,70,0,1
108174,-100,4,2,1,70,0,1
108336,-100,4,2,20,70,0,1
108417,-100,4,2,20,50,0,1
108498,-100,4,2,20,70,0,1
108661,-100,4,2,1,70,0,1
108823,-100,4,2,0,70,0,1
108985,-100,4,2,20,50,0,1
109309,-100,4,2,20,70,0,1
109390,-100,4,2,20,50,0,1
109715,-100,4,2,1,70,0,1
110120,-100,4,2,0,70,0,1
110282,-100,4,2,20,50,0,1
110606,-100,4,2,20,70,0,1
110688,-100,4,2,20,50,0,1
110931,-100,4,2,0,70,0,1
111012,-100,4,2,20,50,0,1
111174,-100,4,2,0,70,0,1
111255,-100,4,2,20,50,0,1
111417,-100,4,2,0,70,0,1
111579,-100,4,2,20,50,0,1
111742,-100,4,2,20,70,0,1
111823,-100,4,2,20,50,0,1
111904,-100,4,2,20,70,0,1
112228,-100,4,2,0,70,0,1
112309,-100,4,2,20,50,0,1
112471,-100,4,2,0,70,0,1
112552,-100,4,2,20,50,0,1
112715,-100,4,2,0,70,0,1
112796,-100,4,2,20,50,0,1
113363,-100,4,2,20,45,0,1
113525,-100,4,2,20,40,0,1
113688,-100,4,2,20,35,0,1
113850,-100,4,2,20,30,0,1
114012,-100,4,2,20,25,0,0
114174,-125,4,1,3,30,0,1
114336,-125,4,2,1,30,0,1
114498,-125,4,2,1,25,0,0
115471,-125,4,2,1,30,0,0
115796,-125,4,2,1,25,0,0
116769,-125,4,2,1,30,0,0
117093,-125,4,2,1,25,0,0
118066,370.37037037037,4,2,1,30,1,0
118066,-142.857142857143,4,2,1,30,0,0
118436,-142.857142857143,4,2,1,25,0,0
118806,-142.857142857143,4,2,1,30,0,0
119547,379.746835443038,4,2,1,30,1,0
120917,413.793103448276,4,2,1,25,1,0
122439,491.803278688525,4,2,1,20,1,0
122684,-100,4,2,1,18,0,0
122930,-100,4,2,1,16,0,0
123176,-100,4,2,1,14,0,0
123607,-100,4,2,1,12,0,0
123975,-100,4,2,1,10,0,0
124590,-100,4,2,1,8,0,0

[Colours]
Combo1 : 41,214,166
Combo2 : 128,0,255
Combo3 : 128,255,255
Combo4 : 3,90,252

[HitObjects]
380,348,2607,6,0,L|340:132,1,209.999993591309,2|0,0:0|0:0,0:0:0:0:
84,272,3904,2,0,L|124:56,1,209.999993591309,2|0,0:0|0:0,0:0:0:0:
332,56,5201,2,0,P|468:184|332:316,1,419.999987182618,2|2,0:0|0:0,0:0:0:0:
348,332,7796,6,0,P|340:312|180:224,1,209.999993591309,2|0,0:0|0:0,0:0:0:0:
312,148,9093,2,0,P|320:128|480:40,1,209.999993591309,2|0,0:0|0:0,0:0:0:0:
180,56,10390,2,0,P|44:184|180:316,1,419.999987182618,2|2,0:0|0:0,0:0:0:0:
196,332,12336,6,0,L|260:188,1,157.499995193482
484,152,12985,1,0,0:0:0:0:
256,80,13634,5,0,0:0:0:0:
488,8,14282,2,0,L|416:224,1,209.999993591309,2|0,0:0|0:0,0:0:0:0:
216,336,15579,2,0,P|164:336|32:248,2,209.999993591309,2|0|2,0:0|0:0|0:0,0:0:0:0:
352,284,17525,1,0,0:0:0:0:
64,320,18174,6,0,L|168:308,1,104.999996795654,2|0,0:0|0:0,0:0:0:0:
308,212,18823,2,0,L|204:200,1,104.999996795654,2|0,0:0|0:0,0:0:0:0:
344,92,19471,2,0,L|448:104,1,104.999996795654,2|0,0:0|0:0,0:0:0:0:
308,320,20120,2,0,L|204:308,1,104.999996795654,2|0,0:0|0:0,0:0:0:0:
384,44,20769,5,2,0:0:0:0:
422,82,20931,1,0,0:0:0:0:
451,131,21093,1,2,0:0:0:0:
458,185,21255,1,0,0:0:0:0:
446,240,21417,1,2,0:0:0:0:
418,288,21579,1,0,0:0:0:0:
372,321,21742,1,2,0:0:0:0:
321,337,21904,1,0,0:0:0:0:
264,336,22066,2,0,L|172:128,1,210,2|0,0:0|0:0,0:0:0:0:
4,156,22715,6,0,L|20:120,3,35
116,92,23039,2,0,L|132:56,3,35
328,48,23363,6,0,L|440:36,1,87.5,4|0,0:0|0:0,0:0:0:0:
292,136,23688,2,0,L|180:124,1,87.5,8|0,0:0|0:0,0:0:0:0:
384,208,24012,1,0,0:0:0:0:
424,244,24093,1,0,0:0:0:0:
436,296,24174,1,0,0:0:0:0:
416,344,24255,1,0,0:0:0:0:
372,372,24336,2,0,L|344:308,3,43.75,8|0|0|0,0:0|0:0|0:0|0:0,0:0:0:0:
152,304,24661,6,0,L|40:292,1,87.5
188,216,24985,1,8,0:0:0:0:
32,148,25147,1,0,0:0:0:0:
156,56,25309,1,0,0:0:0:0:
196,92,25390,1,0,0:0:0:0:
208,144,25471,1,0,0:0:0:0:
188,192,25552,1,0,0:0:0:0:
144,220,25634,1,8,0:0:0:0:
124,268,25715,1,0,0:0:0:0:
136,320,25796,1,0,0:0:0:0:
176,356,25877,1,0,0:0:0:0:
328,44,25958,5,0,0:0:0:0:
424,76,26120,1,0,0:0:0:0:
432,128,26201,1,0,0:0:0:0:
440,180,26282,1,8,0:0:0:0:
280,208,26444,1,0,0:0:0:0:
272,260,26525,1,0,0:0:0:0:
264,312,26606,1,0,0:0:0:0:
412,188,26769,1,0,0:0:0:0:
420,240,26850,1,0,0:0:0:0:
428,292,26931,1,8,0:0:0:0:
292,196,27093,6,0,L|284:144,1,43.75
136,120,27255,2,0,P|85:79|21:68,2,131.25,4|4|4,0:0|0:0|0:0,0:0:0:0:
244,344,27904,1,0,0:0:0:0:
284,308,27985,1,0,0:0:0:0:
296,256,28066,1,0,0:0:0:0:
276,208,28147,1,0,0:0:0:0:
232,180,28229,1,8,0:0:0:0:
212,132,28310,1,0,0:0:0:0:
224,80,28391,1,4,0:0:0:0:
264,44,28472,1,0,0:0:0:0:
412,4,28552,6,0,L|499:13,2,87.5,0|0|8,0:0|0:0|0:0,0:0:0:0:
264,84,29039,1,0,0:0:0:0:
256,136,29120,1,0,0:0:0:0:
248,188,29201,1,0,0:0:0:0:
340,244,29363,1,0,0:0:0:0:
248,300,29525,1,8,0:0:0:0:
380,356,29688,1,0,0:0:0:0:
100,356,29850,6,0,L|13:347,2,87.5,0|0|8,0:0|0:0|0:0,0:0:0:0:
248,276,30337,1,0,0:0:0:0:
256,224,30418,1,0,0:0:0:0:
264,172,30499,1,0,0:0:0:0:
172,116,30661,1,0,0:0:0:0:
264,60,30823,1,8,0:0:0:0:
132,4,30986,1,0,0:0:0:0:
412,24,31147,5,4,0:0:0:0:
452,56,31228,1,0,0:0:0:0:
472,104,31309,1,0,0:0:0:0:
460,156,31390,1,0,0:0:0:0:
372,188,31471,1,8,0:0:0:0:
332,220,31552,1,0,0:0:0:0:
312,268,31633,1,0,0:0:0:0:
324,320,31714,1,0,0:0:0:0:
408,352,31796,2,0,L|452:348,1,43.75
220,268,31958,5,4,0:0:0:0:
180,232,32039,1,0,0:0:0:0:
168,180,32120,1,8,0:0:0:0:
188,132,32201,1,0,0:0:0:0:
272,100,32282,2,0,L|316:104,1,43.75,8|0,0:0|0:0,0:0:0:0:
56,52,32444,6,0,L|44:160,1,87.5,2|0,0:0|0:0,0:0:0:0:
192,220,32769,2,0,L|228:280,3,43.75,8|0|0|0,0:0|0:0|0:0|0:0,0:0:0:0:
380,340,33093,6,0,L|476:328,1,87.5,2|0,0:0|0:0,0:0:0:0:
320,164,33417,2,0,L|284:104,3,43.75,8|0|0|0,0:0|0:0|0:0|0:0,0:0:0:0:
108,44,33742,6,0,L|12:56,2,87.5,4|0|8,0:0|0:0|0:0,0:0:0:0:
272,72,34228,1,0,0:0:0:0:
340,128,34390,1,2,0:0:0:0:
360,212,34552,1,0,0:0:0:0:
320,292,34715,1,2,0:0:0:0:
240,332,34877,1,0,0:0:0:0:
472,340,35039,6,0,L|484:244,1,87.5,4|0,0:0|0:0,0:0:0:0:
344,196,35363,2,0,L|332:100,1,87.5,8|0,0:0|0:0,0:0:0:0:
504,52,35688,1,2,0:0:0:0:
428,44,35850,1,0,0:0:0:0:
352,36,36012,1,2,0:0:0:0:
276,28,36174,1,0,0:0:0:0:
40,32,36336,6,0,L|28:128,1,87.5,4|0,0:0|0:0,0:0:0:0:
136,176,36661,1,8,0:0:0:0:
244,236,36822,2,0,L|256:332,1,87.5,0|2,0:0|0:0,0:0:0:0:
148,380,37147,1,0,0:0:0:0:
288,352,37309,2,0,L|384:340,1,87.5,2|0,0:0|0:0,0:0:0:0:
140,276,37634,6,0,L|9:259,2,131.25,4|4|4,0:0|0:0|0:0,0:0:0:0:
304,336,38282,1,4,0:0:0:0:
308,292,38363,1,0,0:0:0:0:
328,256,38444,1,0,0:0:0:0:
364,228,38525,1,0,0:0:0:0:
472,192,38606,1,4,0:0:0:0:
468,148,38687,1,0,0:0:0:0:
448,112,38768,1,0,0:0:0:0:
412,84,38849,1,0,0:0:0:0:
212,52,38931,6,0,L|116:40,1,87.5,4|0,0:0|0:0,0:0:0:0:
256,156,39255,2,0,L|268:252,1,87.5,8|0,0:0|0:0,0:0:0:0:
112,56,39579,1,2,0:0:0:0:
44,112,39742,1,0,0:0:0:0:
24,196,39904,1,2,0:0:0:0:
56,276,40066,1,0,0:0:0:0:
348,360,40228,6,0,L|444:348,2,87.5,4|0|8,0:0|0:0|0:0,0:0:0:0:
184,332,40714,1,0,0:0:0:0:
204,264,40876,1,2,0:0:0:0:
188,196,41039,1,0,0:0:0:0:
140,144,41201,1,2,0:0:0:0:
72,124,41363,1,0,0:0:0:0:
300,44,41525,5,0,0:0:0:0:
308,96,41606,1,0,0:0:0:0:
316,148,41687,1,0,0:0:0:0:
200,208,41850,1,8,0:0:0:0:
328,268,42012,1,0,0:0:0:0:
84,136,42174,5,4,0:0:0:0:
60,184,42255,1,0,0:0:0:0:
36,232,42336,1,0,0:0:0:0:
164,292,42498,1,8,0:0:0:0:
12,352,42661,1,0,0:0:0:0:
296,344,42823,5,4,0:0:0:0:
336,312,42904,1,0,0:0:0:0:
356,264,42985,1,0,0:0:0:0:
344,212,43066,1,0,0:0:0:0:
260,180,43147,2,0,L|152:168,1,87.5,8|0,0:0|0:0,0:0:0:0:
432,264,43471,5,4,0:0:0:0:
472,232,43552,1,0,0:0:0:0:
492,184,43633,1,0,0:0:0:0:
480,132,43714,1,0,0:0:0:0:
396,100,43796,2,0,L|340:60,3,43.75,8|0|0|0,0:0|0:0|0:0|0:0,0:0:0:0:
184,48,44120,5,4,0:0:0:0:
136,64,44444,1,0,0:0:0:0:
88,80,44769,1,0,0:0:0:0:
40,96,45093,2,0,L|64:184,1,70,2|2,0:0|0:0,0:0:0:0:
212,200,45417,6,0,L|364:212,1,140,2|2,0:0|0:0,0:0:0:0:
248,324,46066,2,0,L|96:336,1,140,2|2,0:0|0:0,0:0:0:0:
328,336,46715,5,0,0:0:0:0:
348,320,47039,1,0,0:0:0:0:
368,304,47364,1,0,0:0:0:0:
388,288,47688,2,0,L|364:200,1,70,2|2,0:0|0:0,0:0:0:0:
220,168,48012,6,0,P|192:212|200:300,1,140,2|2,0:0|0:0,0:0:0:0:
388,288,48661,2,0,P|416:244|408:156,1,140,2|2,0:0|0:0,0:0:0:0:
184,140,49309,5,0,0:0:0:0:
152,128,49634,1,0,0:0:0:0:
120,116,49958,1,0,0:0:0:0:
88,104,50282,2,0,L|160:76,1,70,2|2,0:0|0:0,0:0:0:0:
308,104,50606,6,0,L|348:256,1,140,2|2,0:0|0:0,0:0:0:0:
152,204,51255,2,0,L|112:356,1,140,2|2,0:0|0:0,0:0:0:0:
384,316,51904,5,0,0:0:0:0:
416,328,52229,1,0,0:0:0:0:
448,340,52552,1,0,0:0:0:0:
380,240,52715,1,2,0:0:0:0:
472,140,52877,1,2,0:0:0:0:
404,40,53039,1,2,0:0:0:0:
252,148,53201,6,0,L|100:136,1,140,2|2,0:0|0:0,0:0:0:0:
332,244,53850,2,0,L|484:232,1,140,2|2,0:0|0:0,0:0:0:0:
88,344,54498,5,4,0:0:0:0:
96,308,54823,1,0,0:0:0:0:
104,272,55147,1,0,0:0:0:0:
112,236,55471,2,0,L|192:228,1,70,2|2,0:0|0:0,0:0:0:0:
324,132,55796,6,0,L|168:116,1,140,2|2,0:0|0:0,0:0:0:0:
400,192,56444,2,0,P|432:232|396:308,1,140,2|2,0:0|0:0,0:0:0:0:
192,336,57093,5,0,0:0:0:0:
144,324,57417,1,0,0:0:0:0:
96,312,57742,1,0,0:0:0:0:
48,300,58066,2,0,L|36:216,1,70,2|2,0:0|0:0,0:0:0:0:
180,188,58390,6,0,L|200:40,1,140,2|2,0:0|0:0,0:0:0:0:
24,220,59039,2,0,L|96:88,1,140,2|2,0:0|0:0,0:0:0:0:
316,340,59688,5,0,0:0:0:0:
244,332,60012,1,0,0:0:0:0:
176,324,60336,1,0,0:0:0:0:
92,316,60661,2,0,L|168:296,1,70,2|2,0:0|0:0,0:0:0:0:
280,264,60985,6,0,L|288:188,1,70,2|0,0:0|0:0,0:0:0:0:
196,160,61309,2,0,L|204:84,1,70,2|0,0:0|0:0,0:0:0:0:
352,288,61634,2,0,L|380:212,1,70,2|0,0:0|0:0,0:0:0:0:
256,184,61958,2,0,L|284:108,1,70,2|0,0:0|0:0,0:0:0:0:
504,36,62282,5,4,0:0:0:0:
440,88,62444,1,0,0:0:0:0:
416,168,62606,1,4,0:0:0:0:
436,248,62769,1,0,0:0:0:0:
500,304,62931,2,0,L|484:268,3,35,4|0|0|0,0:0|0:0|0:0|0:0,0:0:0:0:
388,240,63255,2,0,L|372:204,3,35,4|0|0|0,0:0|0:0|0:0|0:0,0:0:0:0:
172,48,63579,5,4,0:0:0:0:
142,79,63661,1,0,0:0:0:0:
122,116,63742,1,0,0:0:0:0:
115,159,63823,1,4,0:0:0:0:
124,198,63904,1,0,0:0:0:0:
145,234,63985,1,0,0:0:0:0:
172,265,64066,1,4,0:0:0:0:
210,285,64147,1,0,0:0:0:0:
356,328,64228,5,2,0:0:0:0:
396,292,64309,1,0,0:0:0:0:
408,240,64390,1,2,0:0:0:0:
388,192,64471,1,0,0:0:0:0:
344,164,64552,2,0,L|328:200,3,35,2|0|2|0,0:0|0:0|0:0|0:0,0:0:0:0:
160,220,64877,6,0,L|16:208,1,140,4|0,0:0|0:0,0:0:0:0:
256,132,65363,1,4,0:0:0:0:
148,208,65688,5,0,0:0:0:0:
120,176,65769,1,0,0:0:0:0:
110,135,65850,1,0,0:0:0:0:
121,97,65931,1,0,0:0:0:0:
148,63,66012,1,0,0:0:0:0:
185,49,66093,1,0,0:0:0:0:
352,164,66174,6,0,L|496:176,1,140,4|0,0:0|0:0,0:0:0:0:
256,252,66660,1,4,0:0:0:0:
364,176,66985,5,0,0:0:0:0:
392,208,67066,1,0,0:0:0:0:
402,249,67147,1,0,0:0:0:0:
391,287,67228,1,0,0:0:0:0:
364,321,67309,1,0,0:0:0:0:
327,335,67390,1,0,0:0:0:0:
132,220,67471,6,0,P|108:216|24:112,1,140,4|0,0:0|0:0,0:0:0:0:
252,104,67958,1,4,0:0:0:0:
96,108,68282,6,0,L|68:72,5,35
264,116,68769,5,4,0:0:0:0:
304,148,68850,1,0,0:0:0:0:
324,196,68931,1,0,0:0:0:0:
312,248,69012,1,0,0:0:0:0:
228,280,69093,2,0,L|184:276,1,35
280,332,69255,2,0,L|324:328,1,35
136,352,69417,5,4,0:0:0:0:
96,320,69498,1,0,0:0:0:0:
76,272,69579,1,0,0:0:0:0:
88,220,69660,1,0,0:0:0:0:
172,188,69741,2,0,L|216:192,1,35
48,136,69903,2,0,L|4:140,1,35
184,176,70066,6,0,P|208:172|292:68,1,140,4|0,0:0|0:0,0:0:0:0:
64,60,70553,1,4,0:0:0:0:
164,88,70877,6,0,L|148:136,1,35
96,176,71039,2,0,L|100:220,1,35
156,260,71201,2,0,L|184:292,1,35
332,192,71363,6,0,L|192:176,1,140,4|0,0:0|0:0,0:0:0:0:
448,60,71849,1,4,0:0:0:0:
348,88,72174,6,0,L|359:121,1,35
416,176,72336,2,0,L|412:210,1,35
356,260,72498,2,0,L|332:286,1,35
180,192,72661,6,0,L|320:176,1,140,4|0,0:0|0:0,0:0:0:0:
64,60,73147,1,4,0:0:0:0:
256,80,73471,6,0,L|284:44,5,35
432,20,73958,5,4,0:0:0:0:
472,52,74039,1,0,0:0:0:0:
492,100,74120,1,0,0:0:0:0:
480,152,74201,1,0,0:0:0:0:
396,184,74282,2,0,L|352:180,1,35
448,236,74444,2,0,L|492:232,1,35
304,256,74606,5,4,0:0:0:0:
264,224,74687,1,0,0:0:0:0:
244,176,74768,1,0,0:0:0:0:
256,124,74849,1,0,0:0:0:0:
340,92,74930,2,0,L|384:96,1,35
216,40,75092,2,0,L|172:44,1,35
388,324,75255,5,4,0:0:0:0:
488,244,75417,2,0,L|468:136,1,87.5,0|8,0:0|0:0,0:0:0:0:
360,80,75742,1,0,0:0:0:0:
124,324,75904,1,8,0:0:0:0:
24,244,76066,2,0,L|44:136,1,87.5,0|8,0:0|0:0,0:0:0:0:
152,80,76390,1,0,0:0:0:0:
376,216,76552,6,0,L|492:200,1,87.5,8|0,0:0|0:0,0:0:0:0:
300,136,76877,2,0,L|184:120,1,87.5,8|0,0:0|0:0,0:0:0:0:
324,312,77201,2,0,L|440:296,1,87.5,8|0,0:0|0:0,0:0:0:0:
248,232,77526,2,0,L|132:216,1,87.5,8|0,0:0|0:0,0:0:0:0:
472,344,77850,5,8,0:0:0:0:
408,284,78012,1,0,0:0:0:0:
392,200,78174,1,8,0:0:0:0:
420,116,78336,1,0,0:0:0:0:
492,68,78498,2,0,L|376:52,1,87.5,8|0,0:0|0:0,0:0:0:0:
276,152,78823,2,0,L|160:136,1,87.5,8|0,0:0|0:0,0:0:0:0:
32,236,79147,6,0,L|148:220,1,87.5,8|0,0:0|0:0,0:0:0:0:
264,344,79471,2,0,L|280:304,3,43.75,8|0|0|0,0:0|0:0|0:0|0:0,0:0:0:0:
372,220,79796,2,0,L|502:202,2,131.25,4|4|4,0:0|0:0|0:0,0:0:0:0:
148,344,80445,5,4,0:0:0:0:
84,284,80607,1,0,0:0:0:0:
68,200,80769,1,8,0:0:0:0:
96,116,80931,1,0,0:0:0:0:
168,68,81093,1,8,0:0:0:0:
56,132,81255,1,0,0:0:0:0:
176,196,81417,1,8,0:0:0:0:
48,260,81579,1,0,0:0:0:0:
296,344,81742,6,0,L|384:336,1,87.5,4|0,0:0|0:0,0:0:0:0:
236,264,82066,2,0,P|232:216|248:176,1,87.5,8|0,0:0|0:0,0:0:0:0:
412,108,82390,1,4,0:0:0:0:
292,108,82552,2,0,L|276:67,1,43.75,4|0,0:0|0:0,0:0:0:0:
408,164,82796,2,0,L|423:123,1,43.75,4|0,0:0|0:0,0:0:0:0:
176,336,83039,6,0,L|144:252,1,87.5,4|0,0:0|0:0,0:0:0:0:
16,248,83363,2,0,L|48:164,1,87.5,8|0,0:0|0:0,0:0:0:0:
324,52,83688,1,8,0:0:0:0:
396,100,83850,1,0,0:0:0:0:
428,180,84012,1,8,0:0:0:0:
396,260,84174,1,0,0:0:0:0:
164,336,84336,6,0,L|72:328,1,87.5,4|0,0:0|0:0,0:0:0:0:
184,256,84661,2,0,L|200:216,3,43.75,8|0|0|0,0:0|0:0|0:0|0:0,0:0:0:0:
380,112,84985,2,0,L|472:104,1,87.5,8|0,0:0|0:0,0:0:0:0:
236,52,85309,2,0,L|144:44,1,87.5,8|0,0:0|0:0,0:0:0:0:
380,0,85634,5,4,0:0:0:0:
432,32,85715,1,0,0:0:0:0:
452,88,85796,1,8,0:0:0:0:
432,144,85877,1,0,0:0:0:0:
380,176,85958,2,0,L|332:172,3,43.75,8|0|8|0,0:0|0:0|0:0|0:0,0:0:0:0:
260,136,86282,5,8,0:0:0:0:
208,168,86363,1,0,0:0:0:0:
188,224,86444,1,8,0:0:0:0:
208,280,86525,1,0,0:0:0:0:
288,312,86606,2,0,L|336:308,1,43.75,8|0,0:0|0:0,0:0:0:0:
156,224,86769,2,0,L|108:220,1,43.75,8|0,0:0|0:0,0:0:0:0:
272,124,86931,6,0,L|336:280,2,157.499995193482,4|0|0,0:0|0:0|0:0,0:0:0:0:
288,112,88228,5,4,0:0:0:0:
176,168,88390,2,0,L|164:268,1,87.5,0|8,0:0|0:0,0:0:0:0:
424,332,88715,2,0,L|460:300,2,43.75
324,264,89039,1,0,0:0:0:0:
456,196,89201,2,0,L|444:96,1,87.5,8|0,0:0|0:0,0:0:0:0:
200,40,89525,6,0,L|112:32,2,87.5,0|0|8,0:0|0:0|0:0,0:0:0:0:
436,44,90012,2,0,L|472:12,2,43.75
360,92,90336,1,0,0:0:0:0:
332,176,90498,1,8,0:0:0:0:
360,260,90661,1,0,0:0:0:0:
440,308,90823,1,0,0:0:0:0:
288,280,90985,6,0,L|278:193,1,87.5,2|2,0:0|0:0,0:0:0:0:
44,336,91309,2,0,L|8:304,2,43.75,2|0|0,0:0|0:0|0:0,0:0:0:0:
156,268,91634,1,2,0:0:0:0:
42,205,91796,1,0,0:0:0:0:
188,144,91958,2,0,L|224:112,1,43.75,2|0,0:0|0:0,0:0:0:0:
384,28,92120,6,0,L|476:36,1,87.5,8|0,0:0|0:0,0:0:0:0:
332,96,92444,2,0,L|240:104,1,87.5,8|0,0:0|0:0,0:0:0:0:
384,160,92769,1,8,0:0:0:0:
424,176,92850,1,0,0:0:0:0:
452,208,92931,1,8,0:0:0:0:
460,252,93012,1,0,0:0:0:0:
448,292,93093,1,8,0:0:0:0:
420,324,93174,1,0,0:0:0:0:
380,336,93255,1,8,0:0:0:0:
336,328,93336,1,0,0:0:0:0:
100,320,93417,6,0,L|110:233,1,87.5,4|0,0:0|0:0,0:0:0:0:
222,177,93741,1,8,0:0:0:0:
444,168,93904,1,0,0:0:0:0:
436,124,93985,1,0,0:0:0:0:
428,80,94066,1,0,0:0:0:0:
308,44,94228,1,0,0:0:0:0:
436,124,94390,2,0,L|344:116,1,87.5,8|0,0:0|0:0,0:0:0:0:
112,308,94715,6,0,L|20:300,2,87.5,0|0|8,0:0|0:0|0:0,0:0:0:0:
392,324,95201,1,0,0:0:0:0:
400,280,95282,1,0,0:0:0:0:
408,236,95363,1,0,0:0:0:0:
304,192,95525,1,0,0:0:0:0:
144,148,95688,2,0,L|134:61,1,87.5,8|0,0:0|0:0,0:0:0:0:
384,52,96012,6,0,L|476:44,2,87.5,0|0|8,0:0|0:0|0:0,0:0:0:0:
148,56,96498,2,0,L|112:24,2,43.75
224,104,96822,1,0,0:0:0:0:
252,188,96984,1,8,0:0:0:0:
224,272,97147,1,0,0:0:0:0:
148,320,97310,6,0,L|128:276,3,43.75
36,256,97634,2,0,L|16:212,3,43.75,8|0|0|0,0:0|0:0|0:0|0:0,0:0:0:0:
188,36,97958,1,8,0:0:0:0:
224,56,98039,1,0,0:0:0:0:
252,92,98120,1,8,0:0:0:0:
256,136,98201,1,0,0:0:0:0:
240,176,98282,1,8,0:0:0:0:
204,204,98363,1,0,0:0:0:0:
52,136,98444,6,0,L|21:35,1,104.999996795654
392,304,98931,1,4,0:0:0:0:
356,304,99255,6,0,L|380:220,1,87.5
280,172,99579,2,0,L|256:88,1,87.5,8|0,0:0|0:0,0:0:0:0:
428,40,99904,1,0,0:0:0:0:
468,76,99985,1,0,0:0:0:0:
480,128,100066,1,0,0:0:0:0:
460,176,100147,1,0,0:0:0:0:
416,204,100228,2,0,L|388:140,3,43.75,8|0|8|0,0:0|0:0|0:0|0:0,0:0:0:0:
248,172,100552,5,8,0:0:0:0:
208,188,100633,1,0,0:0:0:0:
180,220,100714,1,0,0:0:0:0:
172,264,100795,1,0,0:0:0:0:
184,304,100876,1,8,0:0:0:0:
212,336,100957,1,0,0:0:0:0:
252,348,101038,1,8,0:0:0:0:
296,340,101119,1,0,0:0:0:0:
448,340,101201,5,4,0:0:0:0:
460,300,101282,1,0,0:0:0:0:
460,256,101363,1,0,0:0:0:0:
444,216,101444,1,0,0:0:0:0:
416,184,101525,1,0,0:0:0:0:
160,252,101688,1,4,0:0:0:0:
140,204,101769,1,0,0:0:0:0:
148,152,101850,1,0,0:0:0:0:
180,112,101931,1,0,0:0:0:0:
228,92,102012,1,0,0:0:0:0:
460,176,102174,1,4,0:0:0:0:
320,208,102579,6,0,L|308:256,5,43.75,2|0|2|8|0|8,0:0|0:0|0:0|0:0|0:0|0:0,0:0:0:0:
164,280,103147,2,0,L|232:212,2,87.5,0|8|0,0:0|0:0|0:0,0:0:0:0:
448,40,103634,6,0,L|472:308,1,262.5,4|8,0:0|0:0,0:0:0:0:
348,104,104444,2,0,L|280:172,2,87.5
64,344,104931,6,0,L|40:76,1,262.5,4|8,0:0|0:0,0:0:0:0:
132,48,105742,1,0,0:0:0:0:
156,116,105904,1,0,0:0:0:0:
220,152,106066,1,0,0:0:0:0:
488,40,106228,6,0,P|496:128|408:296,1,262.5,4|8,0:0|0:0,0:0:0:0:
364,336,107039,1,0,0:0:0:0:
340,268,107201,1,0,0:0:0:0:
276,232,107363,1,0,0:0:0:0:
28,344,107525,6,0,P|20:256|108:88,1,262.5,4|8,0:0|0:0,0:0:0:0:
200,68,108174,1,0,0:0:0:0:
68,208,108336,2,0,L|76:116,1,87.5
188,68,108661,1,8,0:0:0:0:
416,44,108823,6,0,P|468:112|348:220,1,262.5,4|8,0:0|0:0,0:0:0:0:
220,340,109471,2,0,L|184:308,2,43.75,0|0|8,0:0|0:0|0:0,0:0:0:0:
360,324,109796,2,0,L|352:232,1,87.5,8|8,0:0|0:0,0:0:0:0:
96,340,110120,6,0,P|80:252|148:220,1,175,4|0,0:0|0:0,0:0:0:0:
60,128,110606,2,0,L|72:80,3,43.75,8|0|0|0,0:0|0:0|0:0|0:0,0:0:0:0:
228,40,110931,5,4,0:0:0:0:
264,60,111012,1,0,0:0:0:0:
292,96,111093,1,0,0:0:0:0:
296,140,111174,1,4,0:0:0:0:
280,180,111255,1,0,0:0:0:0:
244,208,111336,1,0,0:0:0:0:
104,336,111417,2,0,L|16:328,1,87.5,4|0,0:0|0:0,0:0:0:0:
264,280,111742,6,0,L|256:188,1,87.5,8|8,0:0|0:0,0:0:0:0:
144,140,112066,1,8,0:0:0:0:
372,100,112228,2,0,L|512:88,2,131.25,4|4|4,0:0|0:0|0:0,0:0:0:0:
256,192,112877,12,0,114012,0:0:0:0:
204,296,114174,5,0,0:0:0:0:
144,260,114336,1,0,0:0:0:0:
120,192,114498,1,0,0:0:0:0:
144,124,114661,1,0,0:0:0:0:
292,340,115471,6,0,L|208:332,3,70,2|0|0|0,0:0|0:0|0:0|0:0,0:0:0:0:
368,296,116769,5,2,0:0:0:0:
428,260,116931,1,0,0:0:0:0:
452,192,117093,1,0,0:0:0:0:
428,124,117255,1,0,0:0:0:0:
336,44,118066,6,0,P|260:52|176:196,1,244.999992523194,2|2,0:0|0:0,0:0:0:0:
208,200,119547,5,2,0:0:0:0:
288,236,120917,1,2,0:0:0:0:
368,272,122439,1,2,0:0:0:0:
256,192,122684,12,0,124590,0:0:0:0:
