osu file format v14

[General]
AudioFilename: -+.mp3
AudioLeadIn: 0
PreviewTime:86931
Countdown: 0
SampleSet: Soft
StackLeniency: 0.7
Mode: 2
LetterboxInBreaks: 0
WidescreenStoryboard: 1
EpilepsyWarning: 1

[Editor]
Bookmarks: 39131,63577,64063,64874,65361,66171,66658,67469,67793,68117,68442,68604,68766,69252,70063,70550,71361,71847,72658,72982,73306,73631,73793,73955
DistanceSpacing: 1.5
BeatDivisor: 8
GridSize: 4
TimelineZoom: 3

[Metadata]
Title:-+
TitleUnicode:-+
Artist:daisan
ArtistUnicode:daisan
Creator:Starfy
Version:AFB's Overdose
Source:BOF2013
Tags:minus plus konzertsaal - THE BMS OF FIGHTERS 2013 Dirt Art Color Teller xellox piano StarForYou Kyle Y IamKwaN happy623 -N_a_n_a_k_o- Nanako Kencho Chaoslitz [ Drop ] choikapo Regou Rizia Kawaiwkyik Nakano Itsuki StarrStyx Prophecy aabc271 Nardoxyribonucleic Skylish ll-oscar autofanboy alienflybot hokin1995 pwhk hong kong hk muse dash electronic instrumental
BeatmapID:853043
BeatmapSetID:389617

[Difficulty]
HPDrainRate:7
CircleSize:4
OverallDifficulty:9.5
ApproachRate:9.5
SliderMultiplier:2.05
SliderTickRate:2

[Events]
//Background and Video events
0,0,"BG.png",0,0
//Break Periods
//Storyboard Layer 0 (Background)
//Storyboard Layer 1 (Fail)
//Storyboard Layer 2 (Pass)
//Storyboard Layer 3 (Foreground)
//Storyboard Layer 4 (Overlay)
//Storyboard Sound Samples

[TimingPoints]
2607,324.324324324324,4,2,1,30,1,0
2607,-166.666666666667,4,2,1,30,0,0
2931,-166.666666666667,4,2,1,10,0,0
3255,-166.666666666667,4,2,1,25,0,0
3579,-166.666666666667,4,2,1,10,0,0
3904,-166.666666666667,4,2,1,30,0,0
4228,-166.666666666667,4,2,1,10,0,0
4552,-166.666666666667,4,2,1,25,0,0
4877,-166.666666666667,4,2,1,10,0,0
5201,-166.666666666667,4,2,1,30,0,0
5525,-166.666666666667,4,2,1,25,0,0
5850,-166.666666666667,4,2,1,10,0,0
6174,-166.666666666667,4,2,1,15,0,0
6498,-166.666666666667,4,2,1,30,0,0
6823,-166.666666666667,4,2,1,25,0,0
7147,-166.666666666667,4,2,1,10,0,0
7471,-166.666666666667,4,2,1,15,0,0
7796,-166.666666666667,4,2,1,30,0,0
8120,-166.666666666667,4,2,1,10,0,0
8444,-166.666666666667,4,2,1,25,0,0
8769,-166.666666666667,4,2,1,10,0,0
9093,-166.666666666667,4,2,1,30,0,0
9417,-166.666666666667,4,2,1,10,0,0
9742,-166.666666666667,4,2,1,25,0,0
10066,-166.666666666667,4,2,1,10,0,0
10390,-166.666666666667,4,2,1,30,0,0
10715,-166.666666666667,4,2,1,25,0,0
11039,-166.666666666667,4,2,1,10,0,0
11363,-166.666666666667,4,2,1,15,0,0
11688,-166.666666666667,4,2,1,30,0,0
12336,-166.666666666667,4,2,1,20,0,0
12498,-166.666666666667,4,2,1,15,0,0
12661,-166.666666666667,4,2,1,10,0,0
12985,-166.666666666667,4,1,3,30,0,0
13066,-166.666666666667,4,2,1,30,0,0
13309,-166.666666666667,4,2,1,10,0,0
13634,-166.666666666667,4,2,1,25,0,0
13958,-166.666666666667,4,2,1,10,0,0
14282,-166.666666666667,4,2,1,30,0,0
14606,-166.666666666667,4,2,1,10,0,0
14931,-166.666666666667,4,2,1,25,0,0
15255,-166.666666666667,4,2,1,10,0,0
15579,-166.666666666667,4,2,1,30,0,0
15904,-166.666666666667,4,2,1,25,0,0
16228,-166.666666666667,4,2,1,10,0,0
16552,-166.666666666667,4,2,1,15,0,0
16877,-166.666666666667,4,2,1,30,0,0
17201,-166.666666666667,4,2,1,25,0,0
17525,-166.666666666667,4,2,1,10,0,0
17850,-166.666666666667,4,2,1,15,0,0
18174,-166.666666666667,4,2,1,30,0,0
18498,-166.666666666667,4,2,1,25,0,0
19147,-166.666666666667,4,2,1,20,0,0
19471,-166.666666666667,4,2,1,30,0,0
19796,-166.666666666667,4,2,1,25,0,0
20444,-166.666666666667,4,2,1,20,0,0
20769,-125,4,2,1,30,0,0
20931,-125,4,2,1,25,0,0
21093,-125,4,2,1,30,0,0
21255,-125,4,2,1,25,0,0
21417,-125,4,2,1,30,0,0
21579,-125,4,2,1,25,0,0
21742,-125,4,2,1,30,0,0
21904,-125,4,2,1,25,0,0
22066,-125,4,2,1,30,0,0
22228,-125,4,2,1,25,0,0
22390,-125,4,2,1,20,0,0
22552,-125,4,2,1,15,0,0
22796,-125,4,2,1,20,0,0
22877,-125,4,2,1,25,0,0
22958,-125,4,2,1,30,0,0
23039,-125,4,2,1,20,0,0
23120,-125,4,2,1,15,0,0
23201,-125,4,2,1,10,0,0
23282,-125,4,2,1,30,0,0
23363,-100,4,2,0,50,0,1
23525,-100,4,2,20,50,0,1
23688,-100,4,2,20,70,0,1
23769,-100,4,2,20,50,0,1
24012,-100,4,2,20,60,0,1
24336,-100,4,2,20,70,0,1
24417,-100,4,2,20,50,0,1
24985,-100,4,2,20,70,0,1
25066,-100,4,2,20,50,0,1
25634,-100,4,2,20,70,0,1
25715,-100,4,2,20,50,0,1
25958,-100,4,2,20,70,0,1
26120,-100,4,2,1,60,0,1
26282,-100,4,2,20,70,0,1
26444,-100,4,2,1,60,0,1
26606,-100,4,2,20,50,0,1
26769,-100,4,2,1,60,0,1
26850,-100,4,2,20,50,0,1
26931,-100,4,2,20,70,0,1
27012,-100,4,2,20,50,0,1
27255,-100,4,2,1,50,0,1
27579,-100,4,2,20,70,0,1
27742,-100,4,2,1,70,0,1
27904,-100,4,2,20,50,0,1
28228,-100,4,2,20,70,0,1
28309,-100,4,2,1,70,0,1
28552,-100,4,2,20,50,0,1
28715,-100,4,2,1,60,0,1
28796,-100,4,2,20,50,0,1
28877,-100,4,2,20,70,0,1
28958,-100,4,2,20,50,0,1
29363,-100,4,2,1,60,0,1
29444,-100,4,2,20,50,0,1
29525,-100,4,2,20,70,0,1
29606,-100,4,2,20,50,0,1
29850,-83.3333333333333,4,2,20,60,0,1
30174,-83.3333333333333,4,2,20,70,0,1
30255,-83.3333333333333,4,2,20,60,0,1
30823,-83.3333333333333,4,2,20,70,0,1
30904,-83.3333333333333,4,2,20,60,0,1
31147,-83.3333333333333,4,2,1,60,0,1
31228,-83.3333333333333,4,2,20,60,0,1
31471,-83.3333333333333,4,2,20,70,0,1
31552,-83.3333333333333,4,2,20,60,0,1
31958,-83.3333333333333,4,2,1,70,0,1
32039,-83.3333333333333,4,2,20,60,0,1
32120,-83.3333333333333,4,2,20,70,0,1
32201,-83.3333333333333,4,2,20,60,0,1
32282,-83.3333333333333,4,2,20,70,0,1
32363,-83.3333333333333,4,2,20,60,0,1
32444,-83.3333333333333,4,2,1,70,0,1
32525,-83.3333333333333,4,2,1,50,0,1
32606,-83.3333333333333,4,2,1,70,0,1
32688,-83.3333333333333,4,2,1,50,0,1
32769,-83.3333333333333,4,2,20,70,0,1
32850,-83.3333333333333,4,2,1,50,0,1
33093,-83.3333333333333,4,2,1,70,0,1
33174,-83.3333333333333,4,2,1,50,0,1
33255,-83.3333333333333,4,2,1,70,0,1
33336,-83.3333333333333,4,2,1,50,0,1
33417,-83.3333333333333,4,2,20,70,0,1
33498,-83.3333333333333,4,2,1,50,0,1
33742,-100,4,2,0,50,0,0
33904,-100,4,2,1,50,0,0
34066,-100,4,2,20,70,0,0
34228,-100,4,2,1,50,0,0
34390,-100,4,2,1,70,0,0
34552,-100,4,2,1,50,0,0
34715,-100,4,2,1,70,0,0
34877,-100,4,2,1,50,0,0
35039,-100,4,2,1,70,0,0
35201,-100,4,2,1,50,0,0
35363,-100,4,2,20,70,0,0
35525,-100,4,2,1,50,0,0
35688,-100,4,2,1,70,0,0
35850,-100,4,2,1,50,0,0
36012,-100,4,2,1,70,0,0
36174,-100,4,2,1,50,0,0
36336,-100,4,2,1,70,0,0
36498,-100,4,2,1,50,0,0
36661,-100,4,2,20,70,0,0
36823,-100,4,2,1,50,0,0
36985,-100,4,2,1,70,0,0
37147,-100,4,2,1,50,0,0
37309,-100,4,2,1,70,0,0
37471,-100,4,2,1,50,0,0
37634,-100,4,2,1,70,0,0
37715,-100,4,2,1,50,0,0
37958,-100,4,2,20,70,0,0
38039,-100,4,2,1,50,0,0
38282,-100,4,2,1,70,0,0
38363,-100,4,2,1,50,0,0
38606,-100,4,2,1,70,0,0
38688,-100,4,2,1,50,0,0
38931,-100,4,2,0,50,0,0
39093,-100,4,2,1,50,0,0
39255,-100,4,2,20,70,0,0
39417,-100,4,2,1,50,0,0
39579,-100,4,2,1,70,0,0
39742,-100,4,2,1,50,0,0
39904,-100,4,2,1,70,0,0
40066,-100,4,2,1,50,0,0
40228,-100,4,2,1,70,0,0
40390,-100,4,2,1,50,0,0
40552,-100,4,2,20,70,0,0
40715,-100,4,2,1,50,0,0
40877,-100,4,2,1,70,0,0
41039,-100,4,2,1,50,0,0
41201,-100,4,2,1,70,0,0
41363,-100,4,2,1,50,0,0
41525,-100,4,2,1,70,0,0
41606,-100,4,2,1,50,0,0
41850,-100,4,2,20,70,0,0
41931,-100,4,2,1,50,0,0
42174,-100,4,2,1,70,0,0
42255,-100,4,2,1,50,0,0
42498,-100,4,2,1,70,0,0
42579,-100,4,2,1,50,0,0
42823,-100,4,2,0,70,0,0
42904,-100,4,2,1,50,0,0
43147,-100,4,2,1,70,0,0
43228,-100,4,2,1,50,0,0
43471,-100,4,2,0,70,0,0
43552,-100,4,2,1,50,0,0
43796,-100,4,2,1,70,0,0
43877,-100,4,2,1,50,0,0
44120,-125,4,2,0,70,0,0
44282,-125,4,2,1,30,0,0
45093,-125,4,2,1,70,0,0
45579,-125,4,2,1,30,0,0
45742,-125,4,2,1,70,0,0
45904,-125,4,2,1,30,0,0
46066,-125,4,2,1,70,0,0
46715,-125,4,2,1,30,0,0
47688,-125,4,2,1,70,0,0
48174,-125,4,2,1,30,0,0
48336,-125,4,2,1,70,0,0
48498,-125,4,2,1,30,0,0
48661,-125,4,2,1,70,0,0
49309,-125,4,2,1,30,0,0
50282,-125,4,2,1,70,0,0
50769,-125,4,2,1,30,0,0
50931,-125,4,2,1,70,0,0
51093,-125,4,2,1,30,0,0
51255,-125,4,2,1,70,0,0
51904,-125,4,2,1,30,0,0
52715,-125,4,2,1,70,0,0
53363,-125,4,2,1,30,0,0
53525,-125,4,2,1,70,0,0
53688,-125,4,2,1,30,0,0
53850,-125,4,2,1,70,0,0
54012,-125,4,2,1,50,0,0
54174,-125,4,2,1,70,0,0
54336,-125,4,2,1,30,0,0
54498,-125,4,2,2,50,0,0
54661,-125,4,2,1,30,0,0
55471,-125,4,2,1,70,0,0
55958,-125,4,2,1,30,0,0
56120,-125,4,2,1,70,0,0
56282,-125,4,2,1,30,0,0
56444,-125,4,2,1,70,0,0
57093,-125,4,2,1,30,0,0
58066,-125,4,2,1,70,0,0
58552,-125,4,2,1,30,0,0
58715,-125,4,2,1,70,0,0
58877,-125,4,2,1,30,0,0
59039,-125,4,2,1,70,0,0
59201,-125,4,2,1,30,0,0
59363,-125,4,2,1,70,0,0
59525,-125,4,2,1,30,0,0
60661,-125,4,2,1,70,0,0
61147,-125,4,2,1,30,0,0
61309,-125,4,2,1,70,0,0
61471,-125,4,2,1,30,0,0
61634,-125,4,2,1,70,0,0
61796,-125,4,2,1,30,0,0
61958,-125,4,2,1,70,0,0
62120,-125,4,2,1,30,0,0
62282,-125,4,2,1,50,0,0
62363,-125,4,2,1,30,0,0
62606,-125,4,2,1,50,0,0
62769,-125,4,2,1,30,0,0
62931,-125,4,2,1,50,0,0
63012,-125,4,2,1,30,0,0
63093,-125,4,2,1,50,0,0
63174,-125,4,2,1,30,0,0
63255,-125,4,2,1,50,0,0
63336,-125,4,2,1,30,0,0
63417,-125,4,2,1,50,0,0
63498,-125,4,2,1,30,0,0
63742,-125,4,2,1,50,0,0
63823,-125,4,2,1,30,0,0
64066,-125,4,2,1,50,0,0
64147,-125,4,2,1,30,0,0
64228,-125,4,2,1,50,0,0
64282,-125,4,2,1,30,0,0
64390,-125,4,2,1,50,0,0
64444,-125,4,2,1,30,0,0
64552,-125,4,2,1,50,0,0
64606,-125,4,2,1,30,0,0
64715,-125,4,2,1,50,0,0
64769,-125,4,2,1,30,0,0
64877,-125,4,2,0,70,0,0
65039,-125,4,2,1,30,0,0
65363,-125,4,2,0,70,0,0
65688,-125,4,2,1,30,0,0
65850,-125,4,2,1,25,0,0
66012,-125,4,2,1,20,0,0
66174,-125,4,2,0,70,0,0
66336,-125,4,2,1,30,0,0
66661,-125,4,2,0,70,0,0
66985,-125,4,2,1,30,0,0
67147,-125,4,2,1,25,0,0
67309,-125,4,2,1,20,0,0
67471,-125,4,2,0,70,0,0
67634,-125,4,2,1,30,0,0
67958,-125,4,2,0,70,0,0
68282,-125,4,2,1,30,0,0
68444,-125,4,2,1,25,0,0
68606,-125,4,2,1,20,0,0
68769,-125,4,2,0,70,0,0
68850,-125,4,2,1,30,0,0
69417,-125,4,2,0,70,0,0
69498,-125,4,2,1,30,0,0
69742,-125,4,2,1,70,0,0
69823,-125,4,2,1,30,0,0
69904,-125,4,2,1,70,0,0
69985,-125,4,2,1,30,0,0
70066,-125,4,2,0,70,0,0
70228,-125,4,2,1,30,0,0
70552,-125,4,2,0,70,0,0
70877,-125,4,2,1,30,0,0
71039,-125,4,2,1,25,0,0
71201,-125,4,2,1,20,0,0
71363,-125,4,2,0,70,0,0
71525,-125,4,2,1,30,0,0
71850,-125,4,2,0,70,0,0
72174,-125,4,2,1,30,0,0
72336,-125,4,2,1,25,0,0
72498,-125,4,2,1,20,0,0
72661,-125,4,2,0,70,0,0
72823,-125,4,2,1,30,0,0
73147,-125,4,2,0,70,0,0
73471,-125,4,2,1,30,0,0
73634,-125,4,2,1,25,0,0
73796,-125,4,2,1,20,0,0
73958,-100,4,2,0,70,0,0
74039,-100,4,2,1,30,0,0
74606,-100,4,2,0,70,0,0
74688,-100,4,2,1,30,0,0
74769,-100,4,2,1,50,0,0
75255,-100,4,2,0,70,0,0
75336,-100,4,2,1,50,0,0
75579,-100,4,2,1,70,0,0
75661,-100,4,2,1,50,0,0
75904,-100,4,2,1,70,0,0
75985,-100,4,2,1,50,0,0
76228,-100,4,2,1,70,0,0
76309,-100,4,2,1,50,0,0
76552,-100,4,2,1,70,0,0
76634,-100,4,2,1,50,0,0
76877,-100,4,2,1,70,0,0
76958,-100,4,2,1,50,0,0
77201,-100,4,2,1,70,0,0
77282,-100,4,2,1,50,0,0
77525,-100,4,2,1,70,0,0
77606,-100,4,2,1,50,0,0
77688,-100,4,2,1,70,0,0
77769,-100,4,2,1,50,0,0
77850,-100,4,2,1,70,0,0
77931,-100,4,2,1,50,0,0
78174,-100,4,2,1,70,0,0
78255,-100,4,2,1,50,0,0
78498,-100,4,2,1,70,0,0
78579,-100,4,2,1,50,0,0
78823,-100,4,2,1,70,0,0
78904,-100,4,2,1,50,0,0
78985,-100,4,2,1,70,0,0
79066,-100,4,2,1,50,0,0
79147,-100,4,2,1,70,0,0
79228,-100,4,2,1,50,0,0
79471,-100,4,2,1,70,0,0
79552,-100,4,2,1,50,0,0
79634,-100,4,2,1,70,0,0
79715,-100,4,2,1,50,0,0
79796,-100,4,2,1,70,0,0
79877,-100,4,2,1,50,0,0
80039,-100,4,2,1,70,0,0
80120,-100,4,2,1,50,0,0
80282,-100,4,2,1,70,0,0
80363,-100,4,2,1,50,0,0
80444,-100,4,2,0,70,0,0
80525,-100,4,2,1,50,0,0
80769,-100,4,2,1,70,0,0
80850,-100,4,2,1,50,0,0
81093,-100,4,2,1,70,0,0
81174,-100,4,2,1,50,0,0
81417,-100,4,2,1,70,0,0
81498,-100,4,2,1,50,0,0
81742,-100,4,2,1,70,0,0
81823,-100,4,2,1,50,0,0
82066,-100,4,2,1,70,0,0
82147,-100,4,2,1,50,0,0
82390,-100,4,2,1,70,0,0
82471,-100,4,2,1,50,0,0
82634,-100,4,2,1,70,0,0
82715,-100,4,2,1,50,0,0
82877,-100,4,2,1,70,0,0
82958,-100,4,2,1,50,0,0
83039,-100,4,2,0,70,0,0
83120,-100,4,2,1,50,0,0
83363,-100,4,2,1,70,0,0
83444,-100,4,2,1,50,0,0
83688,-100,4,2,1,70,0,0
83769,-100,4,2,1,50,0,0
84012,-100,4,2,1,70,0,0
84093,-100,4,2,1,50,0,0
84336,-100,4,2,0,70,0,0
84417,-100,4,2,1,50,0,0
84661,-100,4,2,1,70,0,0
84742,-100,4,2,1,50,0,0
84985,-100,4,2,0,70,0,0
85066,-100,4,2,1,50,0,0
85309,-100,4,2,1,70,0,0
85390,-100,4,2,1,50,0,0
85634,-100,4,2,1,70,0,0
85715,-100,4,2,1,50,0,0
85796,-100,4,2,1,70,0,0
85877,-100,4,2,1,50,0,0
85958,-100,4,2,1,70,0,0
86039,-100,4,2,1,50,0,0
86120,-100,4,2,1,70,0,0
86201,-100,4,2,1,50,0,0
86282,-83.3333333333333,4,2,1,70,0,0
86363,-83.3333333333333,4,2,1,50,0,0
86444,-83.3333333333333,4,2,1,70,0,0
86525,-83.3333333333333,4,2,1,50,0,0
86606,-83.3333333333333,4,2,1,70,0,0
86688,-83.3333333333333,4,2,1,50,0,0
86769,-83.3333333333333,4,2,1,70,0,0
86850,-83.3333333333333,4,2,1,50,0,0
86931,-125,4,1,5,50,0,0
87093,-125,4,2,0,25,0,0
87255,-125,4,2,0,20,0,0
87417,-166.666666666667,4,2,1,50,0,0
87579,-166.666666666667,4,2,1,45,0,0
87742,-166.666666666667,4,2,1,40,0,0
87904,-166.666666666667,4,2,1,35,0,0
88228,-100,4,2,0,70,0,1
88390,-100,4,2,20,50,0,1
88552,-100,4,2,20,70,0,1
88715,-100,4,2,20,50,0,1
89201,-100,4,2,20,70,0,1
89363,-100,4,2,20,50,0,1
89850,-100,4,2,20,70,0,1
90012,-100,4,2,20,50,0,1
90498,-100,4,2,20,70,0,1
90579,-100,4,2,20,50,0,1
90985,-100,4,2,20,70,0,1
91309,-100,4,2,20,50,0,1
91634,-100,4,2,20,70,0,1
92120,-100,4,2,20,50,0,1
92444,-100,4,2,20,70,0,1
92525,-100,4,2,20,50,0,1
92769,-100,4,2,20,70,0,1
92850,-100,4,2,20,50,0,1
92931,-100,4,2,20,70,0,1
93012,-100,4,2,20,50,0,1
93093,-100,4,2,20,70,0,1
93174,-100,4,2,20,50,0,1
93255,-100,4,2,20,70,0,1
93336,-100,4,2,20,50,0,1
93417,-100,4,2,0,70,0,1
93579,-100,4,2,20,50,0,1
93742,-100,4,2,20,70,0,1
93904,-100,4,2,20,50,0,1
94390,-100,4,2,20,70,0,1
94552,-100,4,2,20,50,0,1
95039,-100,4,2,20,70,0,1
95201,-100,4,2,20,50,0,1
95688,-100,4,2,20,70,0,1
95850,-100,4,2,20,50,0,1
96336,-100,4,2,20,70,0,1
96498,-100,4,2,20,50,0,1
96985,-100,4,2,20,70,0,1
97147,-100,4,2,20,50,0,1
97634,-100,4,2,20,70,0,1
97715,-100,4,2,20,50,0,1
97958,-100,4,2,20,70,0,1
98039,-100,4,2,20,50,0,1
98120,-100,4,2,20,70,0,1
98201,-100,4,2,20,50,0,1
98282,-100,4,2,20,70,0,1
98363,-100,4,2,20,50,0,1
98444,-166.666666666667,4,2,20,70,0,1
98606,-166.666666666667,4,2,20,60,0,1
98769,-166.666666666667,4,2,20,50,0,1
98931,-100,4,2,0,70,0,1
99012,-100,4,2,20,50,0,1
99255,-100,4,2,20,70,0,1
99336,-100,4,2,20,50,0,1
99579,-100,4,2,20,70,0,1
99661,-100,4,2,20,50,0,1
100066,-100,4,2,20,70,0,1
100147,-100,4,2,20,50,0,1
100228,-100,4,2,20,70,0,1
100309,-100,4,2,20,50,0,1
100390,-100,4,2,20,70,0,1
100552,-100,4,2,20,50,0,1
100634,-100,4,2,20,70,0,1
100715,-100,4,2,20,50,0,1
100877,-100,4,2,20,70,0,1
100958,-100,4,2,20,50,0,1
101039,-100,4,2,20,70,0,1
101120,-100,4,2,20,50,0,1
101201,-100,4,2,0,70,0,1
101282,-100,4,2,20,50,0,1
101363,-100,4,2,20,70,0,1
101444,-100,4,2,20,50,0,1
101688,-100,4,2,0,70,0,1
101769,-100,4,2,20,50,0,1
101850,-100,4,2,20,70,0,1
101931,-100,4,2,20,50,0,1
102012,-100,4,2,1,70,0,1
102093,-100,4,2,20,50,0,1
102174,-100,4,2,0,70,0,1
102255,-100,4,2,20,50,0,1
102579,-100,4,2,20,70,0,1
102742,-100,4,2,20,50,0,1
102823,-100,4,2,20,70,0,1
102985,-100,4,2,20,50,0,1
103309,-100,4,2,20,70,0,1
103390,-100,4,2,20,50,0,1
103634,-100,4,2,0,70,0,1
103796,-100,4,2,20,50,0,1
104120,-100,4,2,20,70,0,1
104201,-100,4,2,20,50,0,1
104931,-100,4,2,0,70,0,1
105093,-100,4,2,20,50,0,1
105417,-100,4,2,20,70,0,1
105498,-100,4,2,20,50,0,1
106228,-100,4,2,0,70,0,1
106390,-100,4,2,20,50,0,1
106715,-100,4,2,20,70,0,1
106796,-100,4,2,20,50,0,1
107525,-100,4,2,0,70,0,1
107688,-100,4,2,20,50,0,1
108012,-100,4,2,20,70,0,1
108093,-100,4,2,20,50,0,1
108174,-100,4,2,1,70,0,1
108336,-100,4,2,20,70,0,1
108417,-100,4,2,20,50,0,1
108498,-100,4,2,20,70,0,1
108579,-100,4,2,20,50,0,1
108661,-100,4,2,1,70,0,1
108742,-100,4,2,20,50,0,1
108823,-100,4,2,0,70,0,1
108985,-100,4,2,20,50,0,1
109309,-100,4,2,20,70,0,1
109390,-100,4,2,20,50,0,1
109715,-100,4,2,1,70,0,1
110120,-100,4,2,0,70,0,1
110282,-100,4,2,20,50,0,1
110606,-100,4,2,20,70,0,1
110688,-100,4,2,20,50,0,1
110931,-100,4,2,0,70,0,1
111012,-100,4,2,20,50,0,1
111174,-100,4,2,0,70,0,1
111255,-100,4,2,20,50,0,1
111417,-100,4,2,0,70,0,1
111579,-100,4,2,20,50,0,1
111742,-100,4,2,20,70,0,1
111823,-100,4,2,20,50,0,1
111904,-100,4,2,20,70,0,1
111985,-100,4,2,20,50,0,1
112066,-100,4,2,20,70,0,1
112147,-100,4,2,20,50,0,1
112228,-100,4,2,0,70,0,1
112309,-100,4,2,20,50,0,1
112471,-100,4,2,0,70,0,1
112552,-100,4,2,20,50,0,1
112715,-100,4,2,0,70,0,1
112796,-100,4,2,20,50,0,1
113363,-100,4,2,20,45,0,1
113525,-100,4,2,20,40,0,1
113688,-100,4,2,20,35,0,1
113850,-100,4,2,20,30,0,1
114012,-100,4,2,20,25,0,0
114174,-125,4,1,3,30,0,1
114498,-125,4,2,1,25,0,0
115147,-125,4,2,1,20,0,0
115471,-125,4,2,1,30,0,0
115796,-125,4,2,1,25,0,0
116444,-125,4,2,1,20,0,0
116769,-125,4,2,1,30,0,0
117093,-125,4,2,1,25,0,0
117742,-125,4,2,1,20,0,0
118066,370.37037037037,4,2,1,30,1,0
118066,-142.857142857143,4,2,1,30,0,0
118436,-142.857142857143,4,2,1,25,0,0
118806,-142.857142857143,4,2,1,30,0,0
119177,-142.857142857143,4,2,1,25,0,0
119547,379.746835443038,4,2,1,30,1,0
120917,413.793103448276,4,2,1,25,1,0
122439,491.803278688525,4,2,1,20,1,0
122684,-100,4,2,1,18,0,0
122930,-100,4,2,1,16,0,0
123176,-100,4,2,1,14,0,0
123607,-100,4,2,1,12,0,0
123975,-100,4,2,1,10,0,0
124590,-100,4,2,1,8,0,0

[Colours]
Combo1 : 41,214,166
Combo2 : 128,0,255
Combo3 : 128,255,255
Combo4 : 3,90,252

[HitObjects]
212,344,2607,6,0,L|188:216,1,122.999996246338,2|0,0:0|0:0,0:0:0:0:
304,172,3255,2,0,L|328:44,1,122.999996246338
200,60,3904,2,0,P|160:52|64:72,1,122.999996246338,2|0,0:0|0:0,0:0:0:0:
256,324,4552,2,0,P|296:332|392:312,1,122.999996246338
88,340,5201,6,0,P|28:340|104:252,1,245.999992492676,2|0,0:0|0:0,0:0:0:0:
180,236,6174,1,0,0:0:0:0:
424,148,6498,2,0,P|484:148|408:60,1,245.999992492676,2|0,0:0|0:0,0:0:0:0:
332,44,7471,1,0,0:0:0:0:
84,132,7796,6,0,L|108:260,1,122.999996246338,2|0,0:0|0:0,0:0:0:0:
292,228,8444,2,0,L|316:356,1,122.999996246338
140,348,9093,1,2,0:0:0:0:
60,288,9417,1,0,0:0:0:0:
28,196,9742,1,0,0:0:0:0:
60,104,10066,1,0,0:0:0:0:
256,52,10390,6,0,P|344:112|256:180,1,245.999992492676,2|0,0:0|0:0,0:0:0:0:
112,264,11363,1,0,0:0:0:0:
352,348,11688,1,2,0:0:0:0:
428,348,12336,2,0,L|436:328,14,15.3749995307922
280,136,12985,6,0,P|240:128|144:148,1,122.999996246338
40,336,13634,2,0,P|80:344|176:324,1,122.999996246338
344,352,14282,2,0,L|320:224,1,122.999996246338,2|0,0:0|0:0,0:0:0:0:
192,152,14931,2,0,L|169:31,1,122.999996246338
420,324,15579,6,0,P|412:308|208:204,1,245.999992492676,2|0,0:0|0:0,0:0:0:0:
376,128,16552,1,0,0:0:0:0:
108,216,16877,2,0,P|116:200|320:96,1,245.999992492676,2|0,0:0|0:0,0:0:0:0:
152,20,17850,1,0,0:0:0:0:
448,112,18174,6,0,L|471:233,1,122.999996246338,2|0,0:0|0:0,0:0:0:0:
312,204,18823,2,0,L|289:325,1,122.999996246338,2|0,0:0|0:0,0:0:0:0:
496,360,19471,1,2,0:0:0:0:
324,192,19796,2,0,P|364:184|460:204,2,122.999996246338,0|2|0,0:0|0:0|0:0,0:0:0:0:
80,44,20769,5,2,0:0:0:0:
132,112,20931,1,0,0:0:0:0:
148,196,21093,1,2,0:0:0:0:
116,276,21255,1,0,0:0:0:0:
44,324,21417,2,0,L|132:352,1,82,2|0,0:0|0:0,0:0:0:0:
288,240,21742,2,0,L|209:264,1,82,2|0,0:0|0:0,0:0:0:0:
32,36,22066,6,0,P|40:72|212:172,1,246,2|0,0:0|0:0,0:0:0:0:
436,336,22715,1,0,0:0:0:0:
484,300,22796,1,0,0:0:0:0:
500,244,22877,1,0,0:0:0:0:
480,192,22958,1,0,0:0:0:0:
432,160,23039,2,0,L|424:180,9,13.6666666666667
216,40,23363,5,4,0:0:0:0:
336,116,23525,1,0,0:0:0:0:
196,192,23688,2,0,L|216:240,1,51.25,8|0,0:0|0:0,0:0:0:0:
412,252,23850,2,0,L|392:300,1,51.25
180,348,24012,5,0,0:0:0:0:
128,316,24093,1,0,0:0:0:0:
92,264,24174,1,0,0:0:0:0:
76,204,24255,1,0,0:0:0:0:
88,144,24336,1,8,0:0:0:0:
120,92,24417,1,0,0:0:0:0:
172,56,24498,1,0,0:0:0:0:
232,44,24579,1,0,0:0:0:0:
452,76,24661,5,0,0:0:0:0:
332,152,24823,1,0,0:0:0:0:
472,228,24986,2,0,L|452:276,1,51.25,8|0,0:0|0:0,0:0:0:0:
300,292,25147,2,0,L|252:312,1,51.25
112,340,25309,5,0,0:0:0:0:
60,308,25390,1,0,0:0:0:0:
40,252,25471,1,0,0:0:0:0:
60,196,25552,1,0,0:0:0:0:
212,132,25634,2,0,L|260:152,1,51.25,8|0,0:0|0:0,0:0:0:0:
96,324,25796,2,0,L|48:344,1,51.25
256,340,25958,5,0,0:0:0:0:
384,312,26120,2,0,L|404:264,1,51.25,4|0,0:0|0:0,0:0:0:0:
212,212,26282,1,8,0:0:0:0:
72,184,26444,2,0,L|52:136,1,51.25,4|0,0:0|0:0,0:0:0:0:
300,48,26606,5,0,0:0:0:0:
352,80,26687,1,0,0:0:0:0:
388,132,26768,1,4,0:0:0:0:
404,192,26849,1,0,0:0:0:0:
392,252,26930,1,8,0:0:0:0:
360,304,27011,1,0,0:0:0:0:
308,340,27092,1,0,0:0:0:0:
248,352,27173,1,0,0:0:0:0:
88,252,27255,6,0,L|40:232,2,51.25,4|0|0,0:0|0:0|0:0,0:0:0:0:
264,196,27498,2,0,L|312:176,2,51.25,4|8|0,0:0|0:0|0:0,0:0:0:0:
120,136,27742,2,0,L|72:116,1,51.25,4|0,0:0|0:0,0:0:0:0:
280,48,27904,5,0,0:0:0:0:
328,84,27985,1,0,0:0:0:0:
344,140,28066,1,0,0:0:0:0:
324,192,28147,1,0,0:0:0:0:
276,224,28229,2,0,L|296:272,1,51.25,8|0,0:0|0:0,0:0:0:0:
448,288,28390,2,0,L|496:308,1,51.25,4|4,0:0|0:0,0:0:0:0:
216,344,28553,5,0,0:0:0:0:
164,312,28634,1,0,0:0:0:0:
144,256,28715,1,4,0:0:0:0:
164,200,28796,1,0,0:0:0:0:
356,152,28877,2,0,L|376:104,1,51.25,8|0,0:0|0:0,0:0:0:0:
152,324,29039,5,0,0:0:0:0:
100,292,29120,1,0,0:0:0:0:
80,236,29201,1,0,0:0:0:0:
100,180,29282,1,0,0:0:0:0:
436,248,29363,2,0,L|484:228,1,51.25,4|0,0:0|0:0,0:0:0:0:
304,232,29525,2,0,L|284:184,1,51.25,8|0,0:0|0:0,0:0:0:0:
356,152,29688,2,0,L|376:104,1,51.25
168,168,29850,6,0,L|80:132,1,61.499998123169
168,120,30012,2,0,L|256:84,1,61.499998123169
48,64,30174,2,0,L|24:7,1,61.499998123169,8|0,0:0|0:0,0:0:0:0:
312,288,30336,6,0,L|400:252,1,61.499998123169
312,240,30498,2,0,L|224:204,1,61.499998123169
432,184,30661,2,0,L|520:148,1,61.499998123169
236,108,30823,1,8,0:0:0:0:
184,140,30904,1,0,0:0:0:0:
164,196,30985,1,0,0:0:0:0:
184,252,31066,1,0,0:0:0:0:
360,324,31147,6,0,L|404:280,1,61.499998123169,4|0,0:0|0:0,0:0:0:0:
256,152,31309,2,0,L|212:108,1,61.499998123169
396,16,31471,1,8,0:0:0:0:
432,68,31552,1,0,0:0:0:0:
440,128,31634,1,0,0:0:0:0:
420,188,31715,1,0,0:0:0:0:
152,360,31796,6,0,L|64:324,1,61.499998123169
256,268,31958,2,0,L|344:232,1,61.499998123169,4|0,0:0|0:0,0:0:0:0:
256,232,32120,2,0,L|168:196,1,61.499998123169,8|0,0:0|0:0,0:0:0:0:
360,140,32282,2,0,L|448:104,1,61.499998123169,8|0,0:0|0:0,0:0:0:0:
120,104,32444,6,0,L|96:76,2,30.7499990615845,2|0|0,0:0|0:0|0:0,0:0:0:0:
284,152,32606,2,0,L|308:92,1,61.499998123169,2|0,0:0|0:0,0:0:0:0:
68,340,32769,1,10,0:0:0:0:
40,324,32809,1,0,0:0:0:0:
20,304,32850,1,0,0:0:0:0:
8,276,32890,1,0,0:0:0:0:
4,248,32931,1,0,0:0:0:0:
12,220,32971,1,0,0:0:0:0:
24,196,33012,1,0,0:0:0:0:
244,220,33093,6,0,L|332:184,1,61.499998123169,2|0,0:0|0:0,0:0:0:0:
152,275,33255,2,0,L|96:252,1,61.499998123169,2|0,0:0|0:0,0:0:0:0:
360,316,33417,1,10,0:0:0:0:
392,312,33458,1,0,0:0:0:0:
420,304,33498,1,0,0:0:0:0:
448,288,33539,1,0,0:0:0:0:
472,268,33579,1,0,0:0:0:0:
492,244,33620,1,0,0:0:0:0:
504,216,33660,1,0,0:0:0:0:
308,204,33742,6,0,L|268:104,1,102.5,4|0,0:0|0:0,0:0:0:0:
396,104,34066,2,0,L|357:8,1,102.5,8|0,0:0|0:0,0:0:0:0:
100,40,34390,1,2,0:0:0:0:
36,92,34552,1,0,0:0:0:0:
12,172,34715,1,2,0:0:0:0:
36,252,34877,1,0,0:0:0:0:
256,336,35039,6,0,L|368:272,2,102.5,4|0|8,0:0|0:0|0:0,0:0:0:0:
476,228,35525,2,0,L|492:116,1,102.5,0|2,0:0|0:0,0:0:0:0:
372,92,35850,1,0,0:0:0:0:
240,128,36012,2,0,L|224:16,1,102.5,2|0,0:0|0:0,0:0:0:0:
476,340,36336,5,4,0:0:0:0:
352,260,36498,1,0,0:0:0:0:
492,180,36661,1,8,0:0:0:0:
168,276,36823,1,0,0:0:0:0:
292,196,36985,1,2,0:0:0:0:
152,116,37148,1,0,0:0:0:0:
392,36,37309,2,0,P|441:23|492:27,1,102.5,2|0,0:0|0:0,0:0:0:0:
216,148,37634,5,4,0:0:0:0:
168,184,37715,1,0,0:0:0:0:
152,240,37796,1,0,0:0:0:0:
172,292,37877,1,0,0:0:0:0:
220,324,37958,2,0,L|272:316,1,51.25,8|0,0:0|0:0,0:0:0:0:
80,240,38120,2,0,L|28:232,1,51.25
256,156,38282,6,0,L|280:108,1,51.25,2|0,0:0|0:0,0:0:0:0:
200,76,38444,2,0,L|176:28,1,51.25
428,240,38606,2,0,L|480:232,1,51.25,2|0,0:0|0:0,0:0:0:0:
292,176,38769,2,0,L|240:168,1,51.25
472,124,38931,6,0,L|456:12,1,102.5,4|0,0:0|0:0,0:0:0:0:
236,212,39255,2,0,L|336:268,1,102.5,8|0,0:0|0:0,0:0:0:0:
96,12,39579,1,2,0:0:0:0:
32,64,39742,1,0,0:0:0:0:
4,140,39904,1,2,0:0:0:0:
28,220,40066,1,0,0:0:0:0:
252,328,40228,6,0,L|352:272,1,102.5,8|0,0:0|0:0,0:0:0:0:
120,156,40552,2,0,L|220:100,1,102.5,8|0,0:0|0:0,0:0:0:0:
460,108,40877,1,2,0:0:0:0:
360,88,41039,1,0,0:0:0:0:
260,68,41201,1,2,0:0:0:0:
492,24,41363,1,0,0:0:0:0:
244,80,41525,5,4,0:0:0:0:
204,108,41606,1,0,0:0:0:0:
184,156,41688,1,0,0:0:0:0:
196,204,41769,1,0,0:0:0:0:
232,244,41850,2,0,L|288:236,3,51.25,8|0|0|0,0:0|0:0|0:0|0:0,0:0:0:0:
424,192,42174,5,2,0:0:0:0:
464,220,42255,1,0,0:0:0:0:
484,268,42337,1,0,0:0:0:0:
472,316,42418,1,0,0:0:0:0:
436,356,42498,2,0,L|380:348,1,51.25,2|0,0:0|0:0,0:0:0:0:
184,216,42661,2,0,L|128:208,1,51.25
412,172,42823,6,0,L|468:164,1,51.25,4|0,0:0|0:0,0:0:0:0:
268,104,42985,2,0,L|212:96,1,51.25
436,356,43147,1,8,0:0:0:0:
488,324,43228,1,0,0:0:0:0:
508,268,43309,1,0,0:0:0:0:
488,212,43390,1,0,0:0:0:0:
328,300,43471,5,4,0:0:0:0:
276,296,43552,1,0,0:0:0:0:
224,292,43634,1,0,0:0:0:0:
172,288,43715,1,0,0:0:0:0:
336,184,43796,2,0,L|284:180,1,51.25,8|0,0:0|0:0,0:0:0:0:
128,168,43958,2,0,L|76:164,1,51.25
348,360,44120,5,4,0:0:0:0:
424,328,44282,1,0,0:0:0:0:
472,264,44444,1,0,0:0:0:0:
480,184,44606,1,0,0:0:0:0:
448,108,44769,1,0,0:0:0:0:
384,56,44931,1,0,0:0:0:0:
304,48,45093,6,0,L|216:36,1,82,2|2,0:0|0:0,0:0:0:0:
64,72,45417,2,0,L|52:160,1,82,2|0,0:0|0:0,0:0:0:0:
168,192,45742,2,0,L|180:280,1,82,2|0,0:0|0:0,0:0:0:0:
12,312,46066,2,0,L|192:336,1,164,2|2,0:0|0:0,0:0:0:0:
456,24,46715,5,0,0:0:0:0:
380,52,46877,1,0,0:0:0:0:
328,116,47039,1,0,0:0:0:0:
316,196,47201,1,0,0:0:0:0:
340,272,47363,1,0,0:0:0:0:
396,328,47525,1,0,0:0:0:0:
476,348,47688,6,0,L|464:260,1,82,2|2,0:0|0:0,0:0:0:0:
304,228,48012,2,0,L|216:216,1,82,2|0,0:0|0:0,0:0:0:0:
396,136,48336,2,0,L|308:124,1,82,2|0,0:0|0:0,0:0:0:0:
148,48,48661,2,0,L|328:24,1,164,2|2,0:0|0:0,0:0:0:0:
56,360,49309,5,0,0:0:0:0:
132,332,49471,1,0,0:0:0:0:
184,268,49633,1,0,0:0:0:0:
196,188,49795,1,0,0:0:0:0:
172,112,49957,1,0,0:0:0:0:
116,56,50119,1,0,0:0:0:0:
36,36,50282,6,0,L|48:124,1,82,0|2,0:0|0:0,0:0:0:0:
196,156,50606,2,0,L|284:168,1,82,2|0,0:0|0:0,0:0:0:0:
436,212,50931,2,0,L|424:300,1,82,2|0,0:0|0:0,0:0:0:0:
276,332,51255,2,0,L|96:356,1,164,2|2,0:0|0:0,0:0:0:0:
408,336,51904,5,0,0:0:0:0:
460,272,52066,1,0,0:0:0:0:
472,192,52228,1,0,0:0:0:0:
448,116,52390,1,0,0:0:0:0:
392,60,52552,1,0,0:0:0:0:
312,40,52715,5,2,0:0:0:0:
460,128,52877,1,2,0:0:0:0:
300,220,53039,1,2,0:0:0:0:
380,240,53201,2,0,L|392:152,1,82,2|0,0:0|0:0,0:0:0:0:
224,296,53525,2,0,L|236:208,1,82,2|0,0:0|0:0,0:0:0:0:
368,252,53850,2,0,L|397:175,1,82,2|0,0:0|0:0,0:0:0:0:
232,308,54174,2,0,L|261:231,1,82,2|0,0:0|0:0,0:0:0:0:
492,172,54498,5,4,0:0:0:0:
468,196,54823,2,0,L|380:184,1,82
208,48,55147,1,0,0:0:0:0:
304,108,55309,1,0,0:0:0:0:
192,168,55471,5,2,0:0:0:0:
320,228,55634,1,2,0:0:0:0:
176,288,55796,2,0,L|164:200,1,82,2|0,0:0|0:0,0:0:0:0:
36,164,56120,2,0,L|48:76,1,82,2|0,0:0|0:0,0:0:0:0:
220,36,56444,2,0,L|400:60,1,164,2|2,0:0|0:0,0:0:0:0:
192,140,57093,6,0,L|280:152,1,82
164,240,57417,2,0,L|252:252,1,82
392,348,57742,1,0,0:0:0:0:
458,284,57904,1,0,0:0:0:0:
477,198,58066,5,2,0:0:0:0:
444,113,58228,1,2,0:0:0:0:
371,64,58390,2,0,L|283:76,1,82,2|0,0:0|0:0,0:0:0:0:
136,136,58715,2,0,L|224:148,1,82,2|0,0:0|0:0,0:0:0:0:
408,184,59039,2,0,L|320:196,1,82,2|0,0:0|0:0,0:0:0:0:
173,256,59364,2,0,L|261:268,1,82,2|0,0:0|0:0,0:0:0:0:
136,348,59688,5,0,0:0:0:0:
60,316,59850,1,0,0:0:0:0:
12,252,60012,1,0,0:0:0:0:
4,172,60174,1,0,0:0:0:0:
36,96,60337,1,0,0:0:0:0:
100,44,60499,1,0,0:0:0:0:
180,36,60661,6,0,L|268:48,1,82,2|2,0:0|0:0,0:0:0:0:
432,136,60985,1,2,0:0:0:0:
316,220,61147,1,0,0:0:0:0:
452,304,61309,2,0,L|440:216,1,82,2|0,0:0|0:0,0:0:0:0:
244,256,61634,2,0,L|232:174,1,82,2|0,0:0|0:0,0:0:0:0:
344,148,61958,2,0,L|332:66,1,82,2|0,0:0|0:0,0:0:0:0:
56,100,62282,6,0,L|20:68,2,41,4|0|0,0:0|0:0|0:0,0:0:0:0:
304,160,62606,1,4,0:0:0:0:
188,244,62768,1,0,0:0:0:0:
344,356,62931,1,0,0:0:0:0:
388,312,63012,1,0,0:0:0:0:
400,252,63093,1,2,0:0:0:0:
380,196,63174,1,0,0:0:0:0:
312,160,63255,2,0,L|352:153,1,41,4|0,0:0|0:0,0:0:0:0:
436,120,63417,2,0,L|395:113,1,41,2|0,0:0|0:0,0:0:0:0:
220,56,63579,5,0,0:0:0:0:
168,48,63661,1,0,0:0:0:0:
116,40,63742,1,2,0:0:0:0:
272,228,63823,1,0,0:0:0:0:
324,220,63905,1,0,0:0:0:0:
376,212,63986,1,0,0:0:0:0:
92,152,64066,1,2,0:0:0:0:
40,144,64147,1,0,0:0:0:0:
296,344,64228,5,2,0:0:0:0:
328,326,64282,1,0,0:0:0:0:
358,301,64336,1,0,0:0:0:0:
378,270,64390,1,2,0:0:0:0:
389,234,64444,1,0,0:0:0:0:
390,196,64498,1,0,0:0:0:0:
377,162,64552,1,2,0:0:0:0:
359,130,64606,1,0,0:0:0:0:
331,104,64661,1,0,0:0:0:0:
296,85,64715,1,2,0:0:0:0:
257,80,64769,1,0,0:0:0:0:
222,86,64823,1,0,0:0:0:0:
56,56,64877,5,4,0:0:0:0:
144,144,65039,1,0,0:0:0:0:
40,232,65201,1,0,0:0:0:0:
296,332,65363,1,4,0:0:0:0:
284,344,65688,6,0,L|268:328,1,20.5
288,300,65769,2,0,L|272:284,1,20.5
292,256,65850,2,0,L|276:240,1,20.5
296,212,65931,2,0,L|280:196,1,20.5
300,168,66012,2,0,L|284:152,1,20.5
304,124,66093,1,0,0:0:0:0:
476,56,66174,5,4,0:0:0:0:
372,144,66336,1,0,0:0:0:0:
492,232,66498,1,0,0:0:0:0:
236,332,66661,1,4,0:0:0:0:
248,344,66985,6,0,L|264:328,1,20.5
240,300,67066,2,0,L|256:284,1,20.5
232,256,67147,2,0,L|248:240,1,20.5
224,212,67228,2,0,L|240:196,1,20.5
216,168,67309,2,0,L|232:152,1,20.5
208,124,67390,1,0,0:0:0:0:
68,152,67471,6,0,L|82:71,1,82,4|0,0:0|0:0,0:0:0:0:
236,40,67796,1,0,0:0:0:0:
16,232,67958,1,4,0:0:0:0:
80,252,68282,5,0,0:0:0:0:
64,232,68323,1,0,0:0:0:0:
52,212,68363,1,0,0:0:0:0:
48,188,68404,1,0,0:0:0:0:
48,164,68445,1,0,0:0:0:0:
52,140,68485,1,0,0:0:0:0:
60,116,68525,1,0,0:0:0:0:
72,96,68566,1,0,0:0:0:0:
92,80,68606,1,0,0:0:0:0:
112,68,68647,1,0,0:0:0:0:
136,60,68688,1,0,0:0:0:0:
312,80,68769,5,4,0:0:0:0:
364,116,68850,1,0,0:0:0:0:
380,176,68931,1,0,0:0:0:0:
356,232,69012,1,0,0:0:0:0:
200,200,69093,1,4,0:0:0:0:
148,236,69174,1,0,0:0:0:0:
132,296,69255,1,0,0:0:0:0:
156,352,69336,1,0,0:0:0:0:
388,356,69417,6,0,L|440:348,1,41,4|0,0:0|0:0,0:0:0:0:
276,288,69579,2,0,L|256:248,1,41
340,224,69742,2,0,L|360:184,1,41,4|0,0:0|0:0,0:0:0:0:
172,128,69904,2,0,L|120:120,1,41,4|0,0:0|0:0,0:0:0:0:
364,48,70066,5,4,0:0:0:0:
276,136,70228,1,0,0:0:0:0:
380,224,70390,1,0,0:0:0:0:
124,324,70552,1,4,0:0:0:0:
108,336,70877,6,0,L|88:308,1,20.5
104,296,70958,2,0,L|96:268,1,20.5
112,256,71039,2,0,L|108:236,1,20.5
132,220,71120,2,0,L|136:196,1,20.5
164,192,71201,2,0,L|180:172,1,20.5
204,180,71282,1,0,0:0:0:0:
36,36,71363,5,4,0:0:0:0:
124,124,71525,1,0,0:0:0:0:
20,212,71687,1,0,0:0:0:0:
276,312,71849,1,4,0:0:0:0:
292,328,72174,6,0,L|312:300,1,20.5
296,288,72255,2,0,L|304:260,1,20.5
288,248,72336,2,0,L|292:228,1,20.5
268,212,72417,2,0,L|264:188,1,20.5
236,184,72498,2,0,L|220:164,1,20.5
196,172,72579,1,0,0:0:0:0:
432,220,72661,5,4,0:0:0:0:
328,132,72823,1,0,0:0:0:0:
228,44,72985,1,0,0:0:0:0:
488,24,73147,1,4,0:0:0:0:
416,36,73471,5,0,0:0:0:0:
432,56,73512,1,0,0:0:0:0:
444,76,73552,1,0,0:0:0:0:
448,100,73593,1,0,0:0:0:0:
448,124,73634,1,0,0:0:0:0:
444,148,73674,1,0,0:0:0:0:
436,172,73714,1,0,0:0:0:0:
424,192,73755,1,0,0:0:0:0:
404,208,73795,1,0,0:0:0:0:
384,220,73836,1,0,0:0:0:0:
360,228,73877,1,0,0:0:0:0:
184,304,73958,6,0,L|152:240,1,51.25,4|0,0:0|0:0,0:0:0:0:
248,208,74120,2,0,L|216:144,1,51.25
84,140,74282,2,0,L|12:108,1,51.25
256,104,74444,2,0,L|328:72,1,51.25
240,52,74606,6,0,L|168:20,1,51.25,4|0,0:0|0:0,0:0:0:0:
428,36,74769,1,4,0:0:0:0:
468,68,74850,1,4,0:0:0:0:
484,116,74931,1,4,0:0:0:0:
480,164,75012,1,4,0:0:0:0:
452,204,75093,1,4,0:0:0:0:
412,228,75174,1,4,0:0:0:0:
216,336,75255,6,0,L|192:280,3,51.25,4|0|0|0,0:0|0:0|0:0|0:0,0:0:0:0:
296,208,75579,2,0,L|320:152,3,51.25,4|0|0|0,0:0|0:0|0:0|0:0,0:0:0:0:
96,164,75904,6,0,L|24:132,1,51.25,8|0,0:0|0:0,0:0:0:0:
256,132,76066,2,0,L|328:100,1,51.25
248,84,76228,2,0,L|176:52,1,51.25,8|0,0:0|0:0,0:0:0:0:
408,52,76390,2,0,L|480:20,1,51.25
236,72,76552,5,8,0:0:0:0:
180,104,76634,1,0,0:0:0:0:
160,164,76715,1,0,0:0:0:0:
184,220,76796,1,0,0:0:0:0:
288,176,76877,1,8,0:0:0:0:
344,208,76959,1,0,0:0:0:0:
364,268,77040,1,0,0:0:0:0:
340,324,77121,1,0,0:0:0:0:
176,312,77201,6,0,L|144:248,1,51.25,8|0,0:0|0:0,0:0:0:0:
68,236,77363,2,0,L|36:172,1,51.25
300,188,77525,2,0,L|268:124,1,51.25,8|0,0:0|0:0,0:0:0:0:
124,112,77687,2,0,L|92:48,1,51.25,8|0,0:0|0:0,0:0:0:0:
396,44,77850,5,12,0:0:0:0:
452,76,77932,1,0,0:0:0:0:
472,136,78013,1,0,0:0:0:0:
448,192,78094,1,0,0:0:0:0:
276,248,78174,2,0,L|204:280,1,51.25,8|0,0:0|0:0,0:0:0:0:
424,320,78336,2,0,L|496:352,1,51.25
220,344,78498,6,0,L|184:304,1,51.25,8|0,0:0|0:0,0:0:0:0:
216,272,78661,2,0,L|180:232,1,51.25
336,188,78823,2,0,L|372:148,1,51.25,8|0,0:0|0:0,0:0:0:0:
340,112,78985,2,0,L|376:72,1,51.25,8|0,0:0|0:0,0:0:0:0:
116,44,79147,5,8,0:0:0:0:
60,76,79229,1,0,0:0:0:0:
40,136,79310,1,0,0:0:0:0:
64,192,79391,1,0,0:0:0:0:
276,248,79471,2,0,L|229:268,1,51.25,8|0,0:0|0:0,0:0:0:0:
64,308,79634,2,0,L|17:328,1,51.25,8|0,0:0|0:0,0:0:0:0:
348,164,79796,6,0,L|396:184,2,51.25,8|0|0,0:0|0:0|0:0,0:0:0:0:
172,220,80039,2,0,L|124:240,2,51.25,8|0|0,0:0|0:0|0:0,0:0:0:0:
316,280,80283,2,0,L|364:300,1,51.25,8|0,0:0|0:0,0:0:0:0:
172,364,80444,5,4,0:0:0:0:
120,332,80525,1,0,0:0:0:0:
84,280,80606,1,0,0:0:0:0:
68,220,80687,1,0,0:0:0:0:
80,160,80768,1,8,0:0:0:0:
112,108,80849,1,0,0:0:0:0:
164,72,80930,1,0,0:0:0:0:
224,60,81011,1,0,0:0:0:0:
284,72,81093,6,0,L|356:64,3,51.25,8|0|0|0,0:0|0:0|0:0|0:0,0:0:0:0:
384,100,81417,1,8,0:0:0:0:
408,156,81498,1,0,0:0:0:0:
388,216,81579,1,0,0:0:0:0:
332,248,81661,1,0,0:0:0:0:
172,336,81742,6,0,L|124:316,1,51.25,8|0,0:0|0:0,0:0:0:0:
180,296,81904,2,0,L|228:276,1,51.25
68,232,82066,2,0,L|20:212,1,51.25,8|0,0:0|0:0,0:0:0:0:
76,192,82228,2,0,L|124:172,1,51.25
296,68,82390,5,8,0:0:0:0:
348,60,82472,1,0,0:0:0:0:
400,52,82553,1,0,0:0:0:0:
244,240,82634,1,8,0:0:0:0:
192,232,82716,1,0,0:0:0:0:
140,224,82797,1,0,0:0:0:0:
424,164,82877,1,8,0:0:0:0:
476,156,82958,1,0,0:0:0:0:
252,344,83039,5,4,0:0:0:0:
196,312,83121,1,0,0:0:0:0:
176,252,83202,1,0,0:0:0:0:
200,196,83283,1,0,0:0:0:0:
256,168,83363,2,0,L|328:176,3,51.25,8|0|0|0,0:0|0:0|0:0|0:0,0:0:0:0:
368,208,83688,5,8,0:0:0:0:
424,176,83770,1,0,0:0:0:0:
444,116,83851,1,0,0:0:0:0:
420,60,83932,1,0,0:0:0:0:
364,32,84012,2,0,L|292:40,3,51.25,8|0|0|0,0:0|0:0|0:0|0:0,0:0:0:0:
168,320,84336,5,4,0:0:0:0:
112,288,84418,1,0,0:0:0:0:
92,228,84499,1,0,0:0:0:0:
116,172,84580,1,0,0:0:0:0:
172,144,84660,2,0,L|244:152,1,51.25,8|0,0:0|0:0,0:0:0:0:
68,44,84823,2,0,L|-4:36,1,51.25
344,320,84985,5,4,0:0:0:0:
400,288,85067,1,0,0:0:0:0:
420,228,85148,1,0,0:0:0:0:
396,172,85229,1,0,0:0:0:0:
236,128,85309,2,0,L|164:136,1,51.25
444,44,85471,2,0,L|516:36,1,51.25
256,320,85634,5,4,0:0:0:0:
228,292,85674,1,0,0:0:0:0:
215,257,85715,1,8,0:0:0:0:
217,219,85755,1,0,0:0:0:0:
231,182,85796,1,8,0:0:0:0:
259,154,85836,1,0,0:0:0:0:
298,143,85877,1,8,0:0:0:0:
447,210,85958,5,8,0:0:0:0:
475,182,85998,1,0,0:0:0:0:
488,147,86039,1,8,0:0:0:0:
486,109,86079,1,0,0:0:0:0:
472,72,86120,1,8,0:0:0:0:
444,44,86160,1,0,0:0:0:0:
405,33,86201,1,8,0:0:0:0:
168,320,86282,5,8,0:0:0:0:
140,292,86322,1,0,0:0:0:0:
127,257,86363,1,8,0:0:0:0:
129,219,86403,1,0,0:0:0:0:
143,182,86444,1,8,0:0:0:0:
171,154,86484,1,0,0:0:0:0:
210,143,86525,1,8,0:0:0:0:
359,210,86606,5,8,0:0:0:0:
387,182,86646,1,0,0:0:0:0:
400,147,86687,1,8,0:0:0:0:
398,109,86727,1,0,0:0:0:0:
384,72,86768,1,8,0:0:0:0:
356,44,86808,1,0,0:0:0:0:
317,33,86849,1,8,0:0:0:0:
180,76,86931,6,0,L|164:244,1,164,4|0,0:0|0:0,0:0:0:0:
284,144,87417,2,0,L|304:352,1,184.499994369507
400,348,88228,6,0,L|501:336,2,102.5,4|0|8,0:0|0:0|0:0,0:0:0:0:
108,272,88715,1,0,0:0:0:0:
60,240,88796,1,0,0:0:0:0:
44,184,88877,1,0,0:0:0:0:
64,132,88958,1,0,0:0:0:0:
112,100,89039,1,0,0:0:0:0:
348,172,89201,1,8,0:0:0:0:
232,252,89363,1,0,0:0:0:0:
468,324,89525,6,0,L|480:216,1,102.5
336,140,89850,1,8,0:0:0:0:
492,56,90012,2,0,L|440:48,1,51.25
212,68,90174,2,0,L|196:128,1,51.25
272,232,90336,2,0,L|288:292,1,51.25
96,200,90498,2,0,L|44:208,1,51.25,8|0,0:0|0:0,0:0:0:0:
296,296,90661,2,0,L|244:304,1,51.25
44,344,90823,5,0,0:0:0:0:
140,272,90985,1,2,0:0:0:0:
36,200,91147,1,10,0:0:0:0:
324,128,91309,2,0,L|356:88,2,51.25
220,200,91634,1,2,0:0:0:0:
468,200,91796,1,8,0:0:0:0:
372,272,91958,1,2,0:0:0:0:
476,344,92120,6,0,L|504:292,3,51.25
340,272,92444,2,0,L|356:224,3,51.25,8|0|0|0,0:0|0:0|0:0|0:0,0:0:0:0:
200,192,92769,2,0,L|180:144,3,51.25,8|0|8|0,0:0|0:0|0:0|0:0,0:0:0:0:
36,108,93093,2,0,L|4:56,3,51.25,8|0|8|0,0:0|0:0|0:0|0:0,0:0:0:0:
256,56,93417,6,0,L|357:44,2,102.5,4|0|8,0:0|0:0|0:0,0:0:0:0:
72,196,93904,2,0,L|12:188,1,51.25
204,336,94066,2,0,L|305:324,1,102.5
172,232,94390,1,8,0:0:0:0:
440,196,94552,2,0,L|500:188,1,51.25
152,44,94715,5,0,0:0:0:0:
248,116,94877,1,0,0:0:0:0:
144,188,95039,1,8,0:0:0:0:
376,344,95201,2,0,L|432:348,2,51.25
136,40,95525,2,0,P|100:36|24:48,1,102.5,0|8,0:0|0:0,0:0:0:0:
272,176,95850,2,0,L|328:180,1,51.25
128,332,96012,6,0,L|27:320,2,102.5,0|0|8,0:0|0:0|0:0,0:0:0:0:
420,256,96499,1,0,0:0:0:0:
468,224,96580,1,0,0:0:0:0:
484,168,96661,1,0,0:0:0:0:
464,116,96742,1,0,0:0:0:0:
416,84,96823,1,0,0:0:0:0:
180,156,96985,1,8,0:0:0:0:
296,236,97147,1,0,0:0:0:0:
60,308,97309,6,0,L|66:257,1,51.25
208,208,97471,2,0,L|214:157,1,51.25
28,200,97634,2,0,L|64:164,1,51.25,8|0,0:0|0:0,0:0:0:0:
212,80,97796,2,0,L|248:44,1,51.25
80,32,97958,5,8,0:0:0:0:
32,72,98039,1,0,0:0:0:0:
12,128,98120,1,8,0:0:0:0:
16,188,98201,1,0,0:0:0:0:
52,240,98282,1,8,0:0:0:0:
108,264,98363,1,0,0:0:0:0:
388,332,98444,2,0,L|400:208,1,122.999996246338,8|0,0:0|0:0,0:0:0:0:
136,40,98931,6,0,L|80:36,2,51.25,4|0|0,0:0|0:0|0:0,0:0:0:0:
376,344,99255,2,0,P|412:348|488:336,1,102.5,8|0,0:0|0:0,0:0:0:0:
216,148,99579,2,0,P|180:144|104:156,1,102.5,8|0,0:0|0:0,0:0:0:0:
444,364,99904,5,0,0:0:0:0:
392,332,99985,1,0,0:0:0:0:
352,284,100066,1,8,0:0:0:0:
336,224,100147,1,0,0:0:0:0:
344,164,100228,1,8,0:0:0:0:
376,112,100309,1,0,0:0:0:0:
424,76,100390,1,4,0:0:0:0:
484,60,100471,1,4,0:0:0:0:
424,44,100552,6,0,L|388:8,1,51.25,0|8,0:0|0:0,0:0:0:0:
232,136,100715,2,0,L|196:100,1,51.25
504,172,100877,2,0,L|452:168,1,51.25,8|0,0:0|0:0,0:0:0:0:
288,296,101039,2,0,L|236:292,1,51.25,8|0,0:0|0:0,0:0:0:0:
96,296,101201,5,4,0:0:0:0:
44,264,101282,1,0,0:0:0:0:
24,208,101363,1,8,0:0:0:0:
44,152,101444,1,0,0:0:0:0:
252,104,101525,2,0,L|272:56,1,51.25
80,296,101688,5,4,0:0:0:0:
28,264,101769,1,0,0:0:0:0:
8,208,101850,1,8,0:0:0:0:
28,152,101931,1,0,0:0:0:0:
348,152,102012,2,0,L|404:148,1,51.25,4|0,0:0|0:0,0:0:0:0:
152,220,102174,6,0,P|100:216|40:136,1,153.75,4|0,0:0|0:0,0:0:0:0:
256,352,102498,2,0,L|312:348,2,51.25,0|2|2,0:0|0:0|0:0,0:0:0:0:
308,260,102742,2,0,L|364:256,2,51.25,0|2|2,0:0|0:0|0:0,0:0:0:0:
360,168,102985,2,0,L|416:164,1,51.25
204,116,103147,6,0,L|148:112,1,51.25
212,84,103309,2,0,L|268:80,1,51.25,8|0,0:0|0:0,0:0:0:0:
56,32,103471,2,0,L|0:28,1,51.25
400,60,103634,6,0,P|450:56|501:64,2,102.5,4|0|0,0:0|0:0|0:0,0:0:0:0:
172,144,104120,1,8,0:0:0:0:
160,198,104201,1,0,0:0:0:0:
177,253,104282,1,0,0:0:0:0:
221,291,104363,2,0,L|275:302,2,51.25
80,352,104606,5,0,0:0:0:0:
28,320,104687,1,0,0:0:0:0:
8,264,104768,1,0,0:0:0:0:
28,208,104849,1,0,0:0:0:0:
256,120,104931,6,0,P|292:116|368:128,2,102.5,4|0|0,0:0|0:0|0:0,0:0:0:0:
476,344,105417,1,8,0:0:0:0:
476,288,105498,1,0,0:0:0:0:
452,236,105579,1,0,0:0:0:0:
408,200,105661,1,0,0:0:0:0:
356,180,105742,2,0,L|304:184,1,51.25
452,36,105904,6,0,L|504:40,1,51.25
444,72,106066,2,0,L|392:76,1,51.25
124,60,106228,6,0,P|88:56|12:68,2,102.5,4|0|0,0:0|0:0|0:0,0:0:0:0:
344,76,106715,2,0,L|360:136,1,51.25,8|0,0:0|0:0,0:0:0:0:
428,156,106877,2,0,L|444:216,1,51.25
356,236,107039,2,0,L|340:296,1,51.25
504,344,107201,6,0,L|452:340,1,51.25
268,284,107363,2,0,L|216:280,1,51.25
388,60,107525,6,0,P|424:56|500:68,2,102.5,4|0|0,0:0|0:0|0:0,0:0:0:0:
212,40,107931,1,0,0:0:0:0:
164,68,108012,1,8,0:0:0:0:
132,112,108093,1,0,0:0:0:0:
124,168,108174,1,4,0:0:0:0:
140,224,108255,1,4,0:0:0:0:
180,264,108336,6,0,L|230:271,1,51.25,2|0,0:0|0:0,0:0:0:0:
64,328,108498,2,0,L|13:320,1,51.25,2|0,0:0|0:0,0:0:0:0:
288,200,108661,2,0,L|344:208,1,51.25,2|0,0:0|0:0,0:0:0:0:
152,216,108823,6,0,P|88:148|156:80,1,205,4|0,0:0|0:0,0:0:0:0:
328,48,109309,1,8,0:0:0:0:
380,80,109390,1,0,0:0:0:0:
400,136,109471,1,0,0:0:0:0:
380,192,109552,1,0,0:0:0:0:
332,224,109634,6,0,L|276:216,1,51.25,0|4,0:0|0:0,0:0:0:0:
428,348,109796,2,0,L|484:340,1,51.25,4|4,0:0|0:0,0:0:0:0:
248,316,109958,2,0,L|192:308,1,51.25,4|4,0:0|0:0,0:0:0:0:
440,224,110120,6,0,P|503:155|439:88,1,205,4|0,0:0|0:0,0:0:0:0:
212,48,110525,1,0,0:0:0:0:
160,72,110606,1,8,0:0:0:0:
136,124,110688,1,0,0:0:0:0:
148,180,110769,1,0,0:0:0:0:
188,216,110850,1,0,0:0:0:0:
356,248,110931,6,0,L|412:240,2,51.25,4|0|0,0:0|0:0|0:0,0:0:0:0:
152,300,111174,2,0,L|96:292,2,51.25,4|0|0,0:0|0:0|0:0,0:0:0:0:
364,344,111417,6,0,P|408:316|436:200,1,153.75
292,156,111742,2,0,L|308:96,1,51.25,4|0,0:0|0:0,0:0:0:0:
444,88,111904,2,0,L|460:28,1,51.25,4|0,0:0|0:0,0:0:0:0:
240,232,112066,2,0,L|296:224,1,51.25,4|0,0:0|0:0,0:0:0:0:
484,168,112228,5,4,0:0:0:0:
432,159,112309,1,0,0:0:0:0:
381,151,112390,1,0,0:0:0:0:
164,88,112471,1,4,0:0:0:0:
214,79,112552,1,0,0:0:0:0:
265,71,112633,1,0,0:0:0:0:
448,328,112715,6,0,L|482:232,1,102.5,4|0,0:0|0:0,0:0:0:0:
352,152,113039,1,0,0:0:0:0:
88,352,113201,1,0,0:0:0:0:
52,300,113282,1,0,0:0:0:0:
40,240,113363,1,0,0:0:0:0:
48,180,113444,1,0,0:0:0:0:
84,128,113525,1,0,0:0:0:0:
136,92,113606,1,0,0:0:0:0:
196,80,113688,1,0,0:0:0:0:
320,120,113850,2,0,L|336:180,3,51.25
184,336,114174,6,0,P|108:312|188:144,1,328
32,92,115147,1,0,0:0:0:0:
328,336,115471,6,0,P|404:312|324:144,1,328,2|0,0:0|0:0,0:0:0:0:
480,92,116444,1,0,0:0:0:0:
252,236,116769,6,0,P|200:232|36:28,1,328,2|0,0:0|0:0,0:0:0:0:
172,36,117742,1,0,0:0:0:0:
408,36,118066,6,0,L|456:180,1,143.499995620728,2|0,0:0|0:0,0:0:0:0:
268,204,118806,2,0,L|220:348,1,143.499995620728,2|0,0:0|0:0,0:0:0:0:
500,344,119547,5,2,0:0:0:0:
296,344,120917,1,2,0:0:0:0:
92,344,122439,1,2,0:0:0:0:
256,192,122561,12,0,124590,0:0:0:0:
