osu file format v14

[General]
AudioFilename: audio.mp3
AudioLeadIn: 0
PreviewTime: 85631
Countdown: 0
SampleSet: Soft
StackLeniency: 0
Mode: 0
LetterboxInBreaks: 0
WidescreenStoryboard: 1

[Editor]
Bookmarks: 82388,121630
DistanceSpacing: 1
BeatDivisor: 4
GridSize: 4
TimelineZoom: 2.399999

[Metadata]
Title:-+
TitleUnicode:-+
Artist:daisan
ArtistUnicode:daisan
Creator:ShinyNinetales
Version:wow AR9.8
Source:BMS
Tags:
BeatmapID:1902989
BeatmapSetID:911618

[Difficulty]
HPDrainRate:7
CircleSize:4.2
OverallDifficulty:9
ApproachRate:9.8
SliderMultiplier:1
SliderTickRate:1

[Events]
//Background and Video events
0,0,"stolenbg.jpg",0,0
//Break Periods
//Storyboard Layer 0 (Background)
//Storyboard Layer 1 (Fail)
//Storyboard Layer 2 (Pass)
//Storyboard Layer 3 (Foreground)
//Storyboard Sound Samples

[TimingPoints]
1307,324.324324324324,4,2,1,100,1,0
1307,-133.333333333333,4,2,1,40,0,0
11685,-100,4,2,1,70,0,0
20766,-333.333333333333,4,2,1,70,0,0
21415,-50,4,2,1,70,0,0
22063,-50,4,2,1,90,0,1
32442,-45.4545454545455,4,2,1,90,0,0
41766,-33.3333333333333,4,2,1,90,0,0
42252,-25,4,2,1,90,0,0
42820,-100,4,2,1,60,0,0
53198,-83.3333333333333,4,2,1,60,0,0
58388,-66.6666666666667,4,2,1,60,0,0
60982,-62.5,4,2,1,60,0,0
61631,-58.8235294117647,4,2,1,60,0,0
62279,-55.5555555555556,4,2,1,60,0,0
63577,-25,4,2,1,90,0,1
63658,-25,4,2,1,5,0,0
63901,-25,4,2,1,90,0,0
64306,-57.1428571428571,4,2,1,90,0,0
64874,-25,4,2,1,90,0,1
64955,-25,4,2,1,5,0,0
65198,-25,4,2,1,90,0,0
65604,-57.1428571428571,4,2,1,90,0,0
66171,-25,4,2,1,90,0,1
66252,-25,4,2,1,5,0,0
66496,-25,4,2,1,90,0,0
66942,-57.1428571428571,4,2,1,90,0,0
67469,-52.6315789473684,4,2,1,90,0,0
68117,-50,4,2,1,90,0,0
68766,-25,4,2,1,90,0,1
68847,-25,4,2,1,5,0,0
69090,-25,4,2,1,90,0,0
69577,-55.5555555555556,4,2,1,90,0,0
70063,-25,4,2,1,90,0,1
70144,-25,4,2,1,5,0,0
70388,-25,4,2,1,90,0,0
70874,-55.5555555555556,4,2,1,90,0,0
71361,-25,4,2,1,90,0,1
71442,-25,4,2,1,5,0,0
71685,-25,4,2,1,90,0,0
72171,-55.5555555555556,4,2,1,90,0,0
72658,-52.6315789473684,4,2,1,90,0,0
73306,-50,4,2,1,90,0,0
73955,-55.5555555555556,4,2,1,90,0,1
74036,-55.5555555555556,4,2,1,90,0,0
78496,-33.3333333333333,4,2,1,90,0,0
79144,-50,4,2,1,90,0,0
84334,-100,4,2,1,90,0,0
85631,-250,4,2,1,60,0,1
85712,-250,4,2,1,60,0,0
86928,-33.3333333333333,4,2,1,90,0,1
97144,-22.2222222222222,4,2,1,90,0,0
97631,-17,4,2,1,90,0,1
97955,-28.5714285714286,4,2,1,90,0,1
101198,-50,4,2,1,90,0,1
102334,-33.3333333333333,4,2,1,90,0,1
108982,-50,4,2,1,90,0,1
110117,-33.3333333333333,4,2,1,90,0,1
112874,-100,4,2,1,35,0,0
116766,370.37037037037,4,2,1,35,1,0
118247,379.746835443038,4,2,1,35,1,0
119617,413.793103448276,4,2,1,35,1,0
121139,491.803278688525,4,2,1,15,1,0
123106,-250,4,2,1,5,0,0

[Colours]
Combo1 : 248,193,7
Combo2 : 14,231,79
Combo3 : 43,190,202
Combo4 : 159,55,189

[HitObjects]
68,144,1307,6,0,L|211:103,1,150.000005722046
216,240,2604,2,0,L|359:280,1,150.000005722046
432,164,3901,2,0,P|432:72|340:164,1,300.000011444092
336,160,6496,6,0,P|264:160|212:212,1,150.000005722046
87,265,7793,2,0,P|159:265|211:213,1,150.000005722046
211,212,9090,1,0,0:0:0:0:
211,212,10388,1,0,0:0:0:0:
256,192,11036,12,0,11685,0:0:0:0:
80,304,12334,6,0,B|176:336|176:336|272:304,1,200
368,152,13631,2,0,B|272:120|272:120|176:152,1,200
368,152,14928,1,0,0:0:0:0:
269,304,15577,1,0,0:0:0:0:
180,152,16225,1,0,0:0:0:0:
56,316,16874,6,0,L|160:296,1,100
456,316,17523,2,0,L|352:296,1,100
56,68,18171,2,0,L|160:88,1,100
456,68,18820,2,0,L|352:88,1,100
256,200,19469,5,0,0:0:0:0:
168,248,19631,1,0,0:0:0:0:
256,200,19793,1,0,0:0:0:0:
344,248,19955,1,0,0:0:0:0:
256,200,20117,5,0,0:0:0:0:
196,64,20279,1,0,0:0:0:0:
256,200,20442,1,0,0:0:0:0:
316,64,20604,1,0,0:0:0:0:
256,336,20766,2,0,L|202:322,1,56.2499982833863
164,312,21415,6,0,L|152:264,1,50
168,272,21577,2,0,L|139:232,1,50
124,200,21739,2,0,L|103:187,1,25
116,176,21820,2,0,L|95:163,1,25
108,152,21901,2,0,L|87:139,1,25
100,128,21982,2,0,L|79:115,1,25
60,100,22063,6,0,L|163:81,1,100
280,72,22388,5,0,0:0:0:0:
329,9,22469,1,0,0:0:0:0:
410,8,22550,1,0,0:0:0:0:
460,71,22631,1,0,0:0:0:0:
442,148,22712,1,0,0:0:0:0:
371,184,22793,1,0,0:0:0:0:
436,232,22874,1,0,0:0:0:0:
445,311,22955,1,0,0:0:0:0:
389,369,23036,1,0,0:0:0:0:
309,359,23117,1,0,0:0:0:0:
267,292,23198,1,0,0:0:0:0:
225,359,23279,1,0,0:0:0:0:
267,292,23361,6,0,L|148:264,1,100
36,340,23685,1,0,0:0:0:0:
32,192,23847,2,0,L|32:140,1,50
60,164,24009,2,0,L|76:114,1,50
96,144,24171,2,0,L|126:101,1,50
136,136,24334,2,0,L|178:105,1,50
176,140,24496,2,0,L|225:123,2,50
232,280,24820,6,0,L|264:288,1,33.3333333333333
272,264,24928,2,0,L|240:256,1,33.3333333333333
368,180,25144,2,0,L|400:148,1,33.3333333333333
376,140,25252,2,0,L|352:164,1,33.3333333333333
396,296,25469,2,0,L|396:336,2,33.3333333333333
432,264,25631,5,0,0:0:0:0:
452,216,25712,1,0,0:0:0:0:
472,172,25793,1,0,0:0:0:0:
492,124,25874,1,0,0:0:0:0:
512,72,25955,1,0,0:0:0:0:
456,80,26036,1,0,0:0:0:0:
400,88,26117,1,0,0:0:0:0:
344,96,26198,1,0,0:0:0:0:
288,104,26279,1,0,0:0:0:0:
232,112,26361,1,0,0:0:0:0:
192,60,26442,5,0,0:0:0:0:
125,78,26523,1,0,0:0:0:0:
75,128,26604,1,0,0:0:0:0:
57,195,26685,1,0,0:0:0:0:
75,263,26766,1,0,0:0:0:0:
125,312,26847,1,0,0:0:0:0:
192,330,26928,6,0,L|224:312,1,33.3333333333333
256,292,27036,2,0,L|288:274,1,33.3333333333333
320,254,27144,2,0,L|352:236,1,33.3333333333333
364,192,27252,6,0,B|392:188|392:188|428:168,1,50
344,8,27415,2,0,B|316:12|316:12|297:22,1,50
410,177,27577,2,0,B|433:161|433:161|446:143,1,50
298,23,27739,2,0,B|274:38|274:38|261:56,1,50
446,143,27901,2,0,B|460:118|460:118|465:97,1,50
262,57,28064,2,0,B|247:81|247:81|242:102,1,50
412,48,28225,6,0,L|384:72,1,33.3333333333333
356,97,28333,2,0,L|328:121,1,33.3333333333333
301,148,28441,2,0,L|273:172,1,33.3333333333333
168,220,28550,6,0,B|172:192|172:192|162:152,1,50
84,192,28712,2,0,B|80:220|80:220|90:260,1,50
166,170,28874,2,0,B|161:142|161:142|149:123,1,50
86,242,29036,2,0,B|90:269|90:269|102:288,1,50
149,123,29199,2,0,B|135:97|135:97|119:84,1,50
103,289,29361,2,0,B|116:314|116:314|132:327,1,50
119,84,29523,2,0,B|98:64|98:64|78:56,1,50
176,28,29685,5,0,0:0:0:0:
228,40,29766,1,0,0:0:0:0:
280,52,29847,1,0,0:0:0:0:
332,64,29928,1,0,0:0:0:0:
384,76,30009,1,0,0:0:0:0:
436,88,30090,1,0,0:0:0:0:
488,100,30171,1,0,0:0:0:0:
488,284,30334,5,0,0:0:0:0:
436,296,30415,1,0,0:0:0:0:
384,308,30496,1,0,0:0:0:0:
332,320,30577,1,0,0:0:0:0:
280,332,30658,1,0,0:0:0:0:
228,344,30739,1,0,0:0:0:0:
176,356,30820,6,0,L|128:308,1,50
200,280,30982,2,0,L|164:244,1,50
248,224,31144,2,0,L|212:188,1,50
105,285,31306,2,0,L|140:320,1,50
129,209,31469,2,0,L|164:244,1,50
177,153,31631,2,0,L|225:201,1,50
120,100,31793,5,0,0:0:0:0:
185,74,31874,1,0,0:0:0:0:
250,100,31955,1,0,0:0:0:0:
277,165,32036,1,0,0:0:0:0:
276,236,32117,1,0,0:0:0:0:
302,301,32199,1,0,0:0:0:0:
367,328,32280,1,0,0:0:0:0:
432,300,32361,1,0,0:0:0:0:
432,224,32442,6,0,L|472:84,2,110.000003356934
300,140,32928,1,0,0:0:0:0:
224,144,33009,1,0,0:0:0:0:
288,100,33090,1,0,0:0:0:0:
212,104,33171,1,0,0:0:0:0:
272,60,33252,1,0,0:0:0:0:
132,124,33415,2,0,B|132:68|132:68|172:28,1,110.000003356934
224,368,33739,6,0,L|84:328,2,110.000003356934
53,200,34225,1,0,0:0:0:0:
86,268,34306,1,0,0:0:0:0:
118,337,34388,1,0,0:0:0:0:
187,305,34469,1,0,0:0:0:0:
255,273,34550,1,0,0:0:0:0:
200,116,34712,2,0,L|152:236,1,110.000003356934
408,92,35036,6,0,B|372:48|372:48|304:40,2,110.000003356934
412,248,35523,1,0,0:0:0:0:
357,302,35604,1,0,0:0:0:0:
412,356,35685,1,0,0:0:0:0:
466,302,35766,1,0,0:0:0:0:
412,247,35847,1,0,0:0:0:0:
268,188,36009,2,0,L|128:112,1,110.000003356934
180,208,36334,6,0,P|228:168|236:104,2,110.000003356934
88,84,36820,1,0,0:0:0:0:
108,160,36901,1,0,0:0:0:0:
128,232,36982,1,0,0:0:0:0:
148,308,37063,1,0,0:0:0:0:
168,384,37144,1,0,0:0:0:0:
316,344,37306,1,0,0:0:0:0:
464,304,37469,5,0,0:0:0:0:
444,228,37550,1,0,0:0:0:0:
424,152,37631,2,0,L|396:44,2,110.000003356934
276,112,38117,1,0,0:0:0:0:
264,108,38198,1,0,0:0:0:0:
188,112,38279,1,0,0:0:0:0:
176,108,38360,1,0,0:0:0:0:
100,112,38442,1,0,0:0:0:0:
96,264,38604,2,0,L|80:316,2,55.0000016784668
240,312,38928,5,0,0:0:0:0:
240,312,39090,1,0,0:0:0:0:
348,312,39171,1,0,0:0:0:0:
456,312,39252,1,0,0:0:0:0:
456,72,39415,1,0,0:0:0:0:
304,84,39577,1,0,0:0:0:0:
221,86,39658,1,0,0:0:0:0:
160,140,39739,1,0,0:0:0:0:
16,196,39901,1,0,0:0:0:0:
99,194,39982,1,0,0:0:0:0:
160,140,40063,1,0,0:0:0:0:
172,360,40225,6,0,B|192:340|192:340|218:340,1,55.0000016784668
332,360,40387,2,0,B|312:340|312:340|285:340,1,55.0000016784668
140,292,40549,2,0,B|160:272|160:272|186:272,1,55.0000016784668
364,292,40711,2,0,B|344:272|344:272|317:272,1,55.0000016784668
112,220,40873,2,0,B|132:200|132:200|158:200,1,55.0000016784668
392,220,41036,2,0,B|372:200|372:200|345:200,1,55.0000016784668
80,152,41198,2,0,B|100:132|100:132|126:132,1,55.0000016784668
424,152,41361,2,0,B|404:132|404:132|377:132,1,55.0000016784668
256,0,41523,5,0,0:0:0:0:
256,76,41604,1,0,0:0:0:0:
256,152,41685,1,0,0:0:0:0:
96,320,41847,2,0,L|92:224,1,75.0000028610231
88,172,42009,1,0,0:0:0:0:
92,245,42090,2,0,L|96:320,1,75.0000028610231
368,192,42334,2,0,B|396:192|396:192|412:176|412:176|428:192|428:192|456:192,1,100
488,132,42496,2,0,B|474:107|474:107|452:101|452:101|457:80|457:80|444:56,1,100
376,56,42658,2,0,B|362:80|362:80|367:102|367:102|346:107|346:107|332:131,1,100
256,32,42820,5,0,0:0:0:0:
256,32,43793,1,0,0:0:0:0:
184,104,43955,1,0,0:0:0:0:
112,176,44117,1,0,0:0:0:0:
112,186,44442,1,0,0:0:0:0:
112,194,44766,1,0,0:0:0:0:
112,202,45090,1,0,0:0:0:0:
112,202,46388,5,0,0:0:0:0:
184,274,46550,1,0,0:0:0:0:
256,346,46712,1,0,0:0:0:0:
264,338,47036,1,0,0:0:0:0:
272,330,47361,1,0,0:0:0:0:
280,322,47685,1,0,0:0:0:0:
280,322,48982,5,0,0:0:0:0:
372,282,49144,1,0,0:0:0:0:
372,182,49306,1,0,0:0:0:0:
372,170,49631,1,0,0:0:0:0:
372,162,49955,1,0,0:0:0:0:
372,154,50279,1,0,0:0:0:0:
372,154,51415,5,0,0:0:0:0:
316,70,51577,1,0,0:0:0:0:
140,154,51739,1,0,0:0:0:0:
196,70,51901,1,0,0:0:0:0:
256,138,52225,1,0,0:0:0:0:
256,158,52550,1,0,0:0:0:0:
256,178,52874,1,0,0:0:0:0:
256,316,53198,6,0,B|160:260|160:260|144:260|144:260|43:199,1,239.999992675781
256,316,54171,1,0,0:0:0:0:
256,316,54334,1,0,0:0:0:0:
256,316,54496,2,0,B|352:260|352:260|368:260|368:260|468:199,1,239.999992675781
256,68,55469,1,0,0:0:0:0:
364,175,55793,2,0,P|364:67|256:67,1,239.999992675781
148,175,56766,1,0,0:0:0:0:
148,175,56928,1,0,0:0:0:0:
148,175,57090,2,0,P|148:67|256:67,1,239.999992675781
256,308,58063,1,0,0:0:0:0:
380,224,58388,6,0,L|256:308,1,150.000005722046
380,224,59036,2,0,L|256:308,1,150.000005722046
132,160,59685,2,0,L|256:76,1,150.000005722046
132,160,60333,2,0,L|256:76,1,150.000005722046
448,332,60982,6,0,B|412:332|412:332|404:324|404:324|368:324,1,80
371,164,61306,2,0,B|335:164|335:164|327:156|327:156|291:156,1,80
294,316,61631,2,0,B|257:316|257:316|249:307|249:307|213:307,1,85.0000016212464
217,148,61955,2,0,B|180:148|180:148|172:139|172:139|136:139,1,85.0000016212464
40,302,62279,6,0,L|93:296,1,44.999998626709
44,241,62442,2,0,L|97:235,1,44.999998626709
48,182,62604,2,0,L|101:176,1,44.999998626709
52,121,62767,2,0,L|105:115,1,44.999998626709
145,52,62928,6,0,L|156:74,1,22.4999993133545
155,72,63009,2,0,L|166:94,1,22.4999993133545
165,92,63090,2,0,L|176:114,1,22.4999993133545
175,112,63171,2,0,L|186:134,1,22.4999993133545
185,132,63252,2,0,L|196:154,1,22.4999993133545
195,152,63334,2,0,L|206:174,1,22.4999993133545
205,172,63415,2,0,L|216:194,1,22.4999993133545
215,192,63496,2,0,L|226:214,1,22.4999993133545
143,238,63577,6,0,P|203:295|291:158,1,300
145,52,63901,1,0,0:0:0:0:
284,317,64063,2,0,L|139:42,1,300
284,317,64388,6,0,L|307:320,1,21.8750002086163
317,278,64469,2,0,L|340:281,1,21.8750002086163
352,239,64550,2,0,L|375:242,1,21.8750002086163
383,199,64631,2,0,L|406:202,1,21.8750002086163
421,160,64712,2,0,L|444:163,1,21.8750002086163
455,121,64793,2,0,L|478:124,1,21.8750002086163
392,89,64874,6,0,B|244:237|244:237|198:157,1,300
288,2,65198,1,0,0:0:0:0:
231,359,65361,2,0,B|81:99,1,300
288,2,65685,6,0,L|264:2,1,21.8750002086163
260,46,65766,2,0,L|236:46,1,21.8750002086163
232,90,65847,2,0,L|208:90,1,21.8750002086163
208,134,65928,2,0,L|184:134,1,21.8750002086163
176,178,66009,2,0,L|152:178,1,21.8750002086163
148,222,66090,2,0,L|124:222,1,21.8750002086163
113,305,66171,6,0,P|45:253|181:159,1,300
254,304,66495,1,0,0:0:0:0:
375,54,66657,2,0,L|119:226,1,300
375,54,66982,6,0,L|395:66,1,21.8750002086163
376,106,67063,2,0,L|396:118,1,21.8750002086163
376,158,67144,2,0,L|396:170,1,21.8750002086163
373,208,67225,2,0,L|393:220,1,21.8750002086163
377,262,67306,2,0,L|397:274,1,21.8750002086163
378,314,67387,2,0,L|398:326,1,21.8750002086163
356,315,67469,5,0,0:0:0:0:
303,336,67550,1,0,0:0:0:0:
250,315,67631,1,0,0:0:0:0:
228,262,67712,1,0,0:0:0:0:
250,209,67793,1,0,0:0:0:0:
303,187,67874,1,0,0:0:0:0:
356,209,67955,1,0,0:0:0:0:
377,262,68036,1,0,0:0:0:0:
356,315,68117,5,0,0:0:0:0:
272,349,68198,1,0,0:0:0:0:
189,315,68279,1,0,0:0:0:0:
155,231,68361,1,0,0:0:0:0:
189,148,68442,1,0,0:0:0:0:
272,114,68523,1,0,0:0:0:0:
356,148,68604,1,0,0:0:0:0:
390,231,68685,1,0,0:0:0:0:
356,315,68766,6,0,B|256:304|256:304|184:233|184:233|2:216,1,300
31,74,69090,1,0,0:0:0:0:
86,313,69252,2,0,B|186:302|186:302|258:231|258:231|440:214,1,300
31,74,69577,6,0,L|46:90,1,22.4999993133545
77,117,69658,2,0,L|93:133,1,22.4999993133545
123,160,69739,2,0,L|139:176,1,22.4999993133545
179,173,69820,2,0,L|195:157,1,22.4999993133545
225,130,69901,2,0,L|241:114,1,22.4999993133545
271,87,69982,2,0,L|287:71,1,22.4999993133545
118,14,70063,6,0,B|253:45|253:45|274:42|274:42|413:73,1,300
413,254,70388,1,0,0:0:0:0:
65,344,70550,2,0,B|119:356|173:302|159:249|159:249|146:199|190:155|243:165,1,300
82,265,70874,6,0,L|72:244,1,22.4999993133545
82,265,70955,2,0,L|72:244,1,22.4999993133545
82,265,71036,2,0,L|72:244,1,22.4999993133545
94,209,71117,2,0,L|84:188,1,22.4999993133545
94,209,71198,2,0,L|84:188,1,22.4999993133545
94,209,71279,2,0,L|84:188,1,22.4999993133545
106,153,71361,6,0,P|193:67|193:186,1,300
287,339,71685,1,0,0:0:0:0:
459,68,71847,2,0,B|324:99|324:99|303:96|303:96|164:127,1,300
430,119,72171,6,0,L|440:140,1,22.4999993133545
430,119,72252,2,0,L|440:140,1,22.4999993133545
430,119,72333,2,0,L|440:140,1,22.4999993133545
418,175,72414,2,0,L|428:196,1,22.4999993133545
418,175,72495,2,0,L|428:196,1,22.4999993133545
418,175,72576,2,0,L|428:196,1,22.4999993133545
404,232,72658,5,0,0:0:0:0:
351,254,72739,1,0,0:0:0:0:
299,232,72820,1,0,0:0:0:0:
277,179,72901,1,0,0:0:0:0:
297,126,72982,1,0,0:0:0:0:
275,74,73063,1,0,0:0:0:0:
222,52,73144,1,0,0:0:0:0:
170,74,73225,1,0,0:0:0:0:
82,51,73306,5,0,0:0:0:0:
48,135,73387,1,0,0:0:0:0:
82,219,73468,1,0,0:0:0:0:
165,253,73549,1,0,0:0:0:0:
237,198,73631,1,0,0:0:0:0:
309,145,73712,1,0,0:0:0:0:
399,160,73793,1,0,0:0:0:0:
452,234,73874,1,0,0:0:0:0:
512,384,73955,6,0,B|427:384|427:384|416:379|416:379|330:378,1,179.999994506836
0,0,74604,2,0,B|85:0|85:0|96:5|96:5|182:6,1,179.999994506836
512,384,75252,2,0,B|512:299|512:299|507:288|507:288|506:202,1,179.999994506836
0,0,75901,2,0,B|0:85|0:85|5:96|5:96|6:182,1,179.999994506836
258,320,76388,1,0,0:0:0:0:
391,196,76550,6,0,B|403:154|403:154|391:110|391:110|403:66|403:66|391:22,1,179.999994506836
122,361,77198,2,0,B|110:317|110:317|122:273|122:273|110:229|110:229|121:188,1,179.999994506836
254,64,77685,1,0,0:0:0:0:
469,227,77847,2,0,B|421:267|421:267|365:267|365:267|317:227,1,179.999994506836
96,71,78334,5,0,0:0:0:0:
96,71,78415,1,0,0:0:0:0:
96,71,78496,2,0,B|11:193|111:173|111:328,2,225.000008583069
343,43,79144,5,0,0:0:0:0:
343,43,79225,1,0,0:0:0:0:
343,44,79306,2,0,B|355:64|355:64|353:89,1,50
170,340,79468,1,0,0:0:0:0:
170,340,79549,1,0,0:0:0:0:
170,340,79630,2,0,B|158:319|158:319|160:294,1,50
257,19,79793,5,0,0:0:0:0:
257,19,79874,1,0,0:0:0:0:
257,20,79955,2,0,B|279:32|279:32|289:54,1,50
256,364,80117,1,0,0:0:0:0:
256,364,80198,1,0,0:0:0:0:
256,363,80279,2,0,B|234:351|234:351|224:329,1,50
171,42,80442,5,0,0:0:0:0:
171,42,80523,1,0,0:0:0:0:
171,43,80604,2,0,B|196:42|196:42|216:57,1,50
342,341,80766,1,0,0:0:0:0:
342,341,80847,1,0,0:0:0:0:
342,340,80928,2,0,B|317:341|317:341|297:326,1,50
108,105,81090,5,0,0:0:0:0:
108,105,81171,1,0,0:0:0:0:
108,105,81252,2,0,B|129:93|129:93|154:95,1,50
405,278,81414,1,0,0:0:0:0:
405,278,81495,1,0,0:0:0:0:
405,278,81576,2,0,B|384:290|384:290|359:288,1,50
256,192,81739,6,0,B|244:170|244:170|222:160,1,50
256,192,81901,2,0,B|278:180|278:180|288:158,1,50
256,192,82063,2,0,B|268:214|268:214|290:224,1,50
256,192,82225,2,0,B|234:204|234:204|224:226,1,50
224,226,82388,6,0,B|234:204|234:204|256:192,1,50
290,224,82550,2,0,B|268:214|268:214|256:192,1,50
288,158,82712,2,0,B|278:180|278:180|256:192,1,50
222,160,82874,2,0,B|244:170|244:170|256:192,1,50
110,179,83037,5,0,0:0:0:0:
132,172,83118,1,0,0:0:0:0:
132,149,83199,1,0,0:0:0:0:
110,142,83280,1,0,0:0:0:0:
97,160,83361,5,0,0:0:0:0:
116,184,83442,1,0,0:0:0:0:
145,175,83523,1,0,0:0:0:0:
144,144,83604,1,0,0:0:0:0:
116,136,83685,5,0,0:0:0:0:
94,166,83766,1,0,0:0:0:0:
116,196,83847,1,0,0:0:0:0:
152,185,83928,1,0,0:0:0:0:
152,147,84009,5,0,0:0:0:0:
110,133,84090,1,0,0:0:0:0:
83,169,84171,1,0,0:0:0:0:
110,205,84252,1,0,0:0:0:0:
152,192,84334,6,0,L|164:192,1,12.5
155,218,84415,2,0,L|167:215,1,12.5
165,244,84496,2,0,L|176:238,1,12.5
182,265,84577,2,0,L|190:257,1,12.5
204,282,84658,2,0,L|210:271,1,12.5
229,292,84739,2,0,L|232:280,1,12.5
256,296,84820,2,0,L|256:284,1,12.5
282,292,84901,2,0,L|279:280,1,12.5
308,282,84982,2,0,L|302:271,1,12.5
329,265,85063,2,0,L|321:257,1,12.5
346,244,85144,2,0,L|335:238,1,12.5
356,218,85225,2,0,L|344:215,1,12.5
360,192,85306,2,0,L|348:191,1,12.5
356,165,85387,2,0,L|344:168,1,12.5
346,140,85468,2,0,L|335:146,1,12.5
329,118,85549,2,0,L|321:126,1,12.5
329,118,85631,6,0,L|279:118,1,50
229,118,86117,2,0,L|279:118,1,50
229,118,86604,2,0,L|199:118,1,30
329,118,86928,6,0,L|371:268,1,150.000005722046
434,171,87252,2,0,B|299:201|299:201|278:198|278:198|140:229,1,300.000011444092
56,354,87739,1,0,0:0:0:0:
161,164,87901,2,0,P|73:175|153:222,1,225.000008583069
161,164,88225,2,0,L|339:119,1,150.000005722046
134,74,88550,2,0,B|60:73|60:73|5:125|5:125|4:202,1,225.000008583069
145,172,88874,2,0,P|89:178|139:208,1,150.000005722046
4,200,89198,2,0,B|4:275|4:275|59:327|59:327|133:326,1,225.000008583069
161,326,89523,1,0,0:0:0:0:
297,350,89685,6,0,L|315:317,1,37.5000014305115
327,204,89847,2,0,L|345:171,1,37.5000014305115
357,58,90009,2,0,B|324:36|324:36|277:32,2,75.0000028610231
297,350,90334,2,0,L|315:317,1,37.5000014305115
327,204,90496,2,0,L|345:171,1,37.5000014305115
357,58,90658,2,0,B|390:36|390:36|437:32,2,75.0000028610231
132,47,90982,5,0,0:0:0:0:
132,47,91063,2,0,L|118:121,1,75.0000028610231
115,319,91306,1,0,0:0:0:0:
147,328,91387,1,0,0:0:0:0:
181,340,91468,1,0,0:0:0:0:
214,351,91549,1,0,0:0:0:0:
247,340,91630,1,0,0:0:0:0:
280,328,91711,1,0,0:0:0:0:
314,317,91792,1,0,0:0:0:0:
337,167,91955,1,0,0:0:0:0:
480,167,92036,1,0,0:0:0:0:
337,167,92117,6,0,B|407:143|407:143|478:167,2,150.000005722046
160,99,92604,1,0,0:0:0:0:
160,99,92685,1,0,0:0:0:0:
160,99,92766,2,0,B|137:199|137:199|139:215|139:215|116:318,1,225.000008583069
49,310,93090,2,0,P|56:358|116:317,1,150.000005722046
161,310,93334,1,0,0:0:0:0:
205,301,93415,2,0,L|366:264,2,150.000005722046
160,99,93901,1,0,0:0:0:0:
160,99,93982,1,0,0:0:0:0:
160,99,94063,2,0,B|123:75|123:75|226:96,2,150.000005722046
272,26,94550,1,0,0:0:0:0:
226,96,94631,1,0,0:0:0:0:
288,156,94712,6,0,P|311:85|258:19,2,150.000005722046
400,152,95158,2,0,L|425:258,2,75.0000028610231
308,316,95523,2,0,L|152:289,1,150.000005722046
308,316,95847,1,0,0:0:0:0:
234,303,95928,1,0,0:0:0:0:
160,290,96009,1,0,0:0:0:0:
94,154,96172,5,0,0:0:0:0:
104,154,96253,1,0,0:0:0:0:
113,154,96334,1,0,0:0:0:0:
123,154,96415,1,0,0:0:0:0:
133,154,96496,1,0,0:0:0:0:
145,154,96577,1,0,0:0:0:0:
154,154,96658,1,0,0:0:0:0:
164,154,96739,1,0,0:0:0:0:
174,154,96820,1,0,0:0:0:0:
185,154,96901,1,0,0:0:0:0:
196,154,96982,1,0,0:0:0:0:
206,154,97063,1,0,0:0:0:0:
206,154,97144,6,0,L|94:154,1,112.500004291535
95,154,97631,6,0,B|146:81|146:81|279:81|279:81|279:227|279:227|145:227|145:227|95:154,1,588.235294117647
206,154,98036,1,0,0:0:0:0:
206,154,98117,2,0,L|381:154,1,175.00000166893
465,308,98442,1,0,0:0:0:0:
386,273,98523,1,0,0:0:0:0:
314,316,98604,2,0,B|234:323|234:323|185:324|159:284|159:284|131:229,2,175.00000166893
386,273,99090,1,0,0:0:0:0:
430,191,99171,1,0,0:0:0:0:
369,123,99253,1,0,0:0:0:0:
283,160,99334,1,0,0:0:0:0:
234,232,99415,2,0,B|231:226|231:226|205:186|156:187|156:187|76:194,2,175.00000166893
303,255,99820,5,0,0:0:0:0:
369,123,99901,2,0,B|421:105|421:105|344:197,1,175.00000166893
344,197,100144,1,0,0:0:0:0:
344,197,100225,1,0,0:0:0:0:
395,255,100388,6,0,B|385:309|385:309|344:197,1,175.00000166893
344,197,100631,1,0,0:0:0:0:
344,197,100712,1,0,0:0:0:0:
267,212,100874,6,0,B|225:176|225:176|344:197,1,175.00000166893
344,197,101117,1,0,0:0:0:0:
344,197,101198,1,0,0:0:0:0:
369,123,101279,5,0,0:0:0:0:
369,123,101361,1,0,0:0:0:0:
369,123,101442,1,0,0:0:0:0:
331,89,101523,6,0,L|300:58,1,25
295,89,101604,2,0,L|264:58,1,25
259,89,101685,2,0,L|228:58,1,25
223,89,101766,2,0,L|192:58,1,25
197,152,101847,6,0,L|166:183,1,25
161,152,101928,2,0,L|130:183,1,25
125,152,102009,2,0,L|94:183,1,25
89,152,102090,2,0,L|58:183,1,25
53,152,102171,2,0,L|22:183,1,25
17,152,102252,2,0,L|-14:183,1,25
22,252,102334,6,0,B|167:252|167:252|232:252|265:174|265:174|436:175,1,450.000017166138
437,78,102982,1,0,0:0:0:0:
436,175,103063,1,0,0:0:0:0:
437,272,103144,1,0,0:0:0:0:
319,303,103306,2,0,B|319:229|319:229|237:145,1,150.000005722046
171,17,103631,6,0,B|211:17|211:17|261:67|261:67|155:173|155:173|247:265|247:265|248:344,1,450.000017166138
97,324,104279,1,0,0:0:0:0:
156,173,104442,2,0,L|102:119,1,75.0000028610231
260,66,104604,2,0,L|367:173,1,150.000005722046
247,324,104928,1,0,0:0:0:0:
247,324,105252,6,0,L|341:316,1,75.0000028610231
371,260,105415,1,0,0:0:0:0:
408,195,105496,1,0,0:0:0:0:
371,130,105577,1,0,0:0:0:0:
296,130,105658,1,0,0:0:0:0:
258,195,105739,1,0,0:0:0:0:
296,260,105820,1,0,0:0:0:0:
333,195,105901,1,0,0:0:0:0:
296,130,105982,1,0,0:0:0:0:
221,130,106063,2,0,P|184:197|223:260,1,150.000005722046
216,255,106550,6,0,L|301:222,1,75.0000028610231
213,331,106712,1,0,0:0:0:0:
159,309,106793,1,0,0:0:0:0:
138,256,106874,1,0,0:0:0:0:
160,203,106955,1,0,0:0:0:0:
212,180,107036,1,0,0:0:0:0:
233,128,107117,1,0,0:0:0:0:
211,75,107198,1,0,0:0:0:0:
212,180,107279,1,0,0:0:0:0:
296,214,107360,1,0,0:0:0:0:
380,180,107441,1,0,0:0:0:0:
414,97,107522,1,0,0:0:0:0:
414,97,107847,6,0,L|317:74,1,75.0000028610231
170,79,108009,2,0,L|98:97,1,75.0000028610231
139,162,108171,2,0,L|211:179,1,75.0000028610231
171,243,108334,2,0,L|98:260,1,75.0000028610231
139,325,108496,2,0,L|211:342,1,75.0000028610231
170,79,108658,2,0,L|187:151,1,75.0000028610231
98,260,108820,2,0,L|80:187,1,75.0000028610231
80,187,109144,6,0,L|104:189,17,16.6666666666667
129,170,109631,2,0,L|157:168,17,16.6666666666667
187,151,110117,2,0,P|253:136|298:72,1,150.000005722046
333,330,110442,6,0,L|197:267,2,150.000005722046
187,151,110928,2,0,B|122:193|122:193|91:256|91:256|102:332,2,225.000008583069
256,192,111496,12,0,112793,0:0:0:0:
125,63,112874,6,0,L|185:59,1,50
225,59,113198,2,0,L|285:55,1,50
387,321,114171,2,0,L|327:325,1,50
287,325,114495,2,0,L|227:329,1,50
147,218,115469,2,0,L|177:163,1,50
365,166,115793,2,0,L|335:221,1,50
143,304,116766,6,0,P|65:249|61:148,1,200
59,151,118247,5,0,0:0:0:0:
76,104,118436,1,0,0:0:0:0:
93,58,118626,1,0,0:0:0:0:
111,12,118816,1,0,0:0:0:0:
512,0,119617,6,0,L|503:51,1,50
438,97,120030,2,0,L|447:148,1,50
509,381,121139,6,0,L|446:367,1,50
421,306,121630,2,0,L|358:320,1,50
220,383,122245,2,0,L|103:376,1,100
96,216,123229,6,0,B|160:156|160:156|376:208,1,310
