osu file format v14

[General]
AudioFilename: audio.mp3
AudioLeadIn: 0
PreviewTime: 86117
Countdown: 0
SampleSet: Soft
StackLeniency: 0.7
Mode: 3
LetterboxInBreaks: 0
EpilepsyWarning: 1
SpecialStyle: 0
WidescreenStoryboard: 1

[Editor]
Bookmarks: 11685,32442,42820,63577,73955,86928,92117,97631,102334,105090
DistanceSpacing: 1
BeatDivisor: 4
GridSize: 4
TimelineZoom: 1.6

[Metadata]
Title:-+
TitleUnicode:-+
Artist:daisan
ArtistUnicode:daisan
Creator:PokeSky
Version:Hard
Source:
Tags:minus plus FAMoss BMS of Fighters BOF 2013 konzertsaal Dirt Art Color Teller rice jump stream streaming Instrumental keysound piano muse dash video rhythm game
BeatmapID:2241881
BeatmapSetID:1071024

[Difficulty]
HPDrainRate:7.4
CircleSize:4
OverallDifficulty:7.4
ApproachRate:5
SliderMultiplier:1.4
SliderTickRate:1

[Events]
//Background and Video events
0,0,"bg.jpg",0,0
//Break Periods
//Storyboard Layer 0 (Background)
//Storyboard Layer 1 (Fail)
//Storyboard Layer 2 (Pass)
//Storyboard Layer 3 (Foreground)
//Storyboard Layer 4 (Overlay)
//Storyboard Sound Samples
Sample,12334,0,"P1_001.wav",100
Sample,12982,0,"P1_002.wav",100
Sample,13631,0,"P1_003.wav",100
Sample,14279,0,"P1_004.wav",100
Sample,15577,0,"P1_005.wav",100
Sample,16874,0,"P1_006.wav",100
Sample,17523,0,"P1_007.wav",100
Sample,18171,0,"P1_008.wav",100
Sample,18820,0,"P1_009.wav",100
Sample,19469,0,"P1_010.wav",100
Sample,20766,0,"P1_012.wav",100
Sample,44279,0,"P5_000.wav",100
Sample,44604,0,"P5_000.wav",100
Sample,44928,0,"P5_000.wav",100
Sample,46874,0,"P5_001.wav",100
Sample,47198,0,"P5_001.wav",100
Sample,47523,0,"P5_001.wav",100
Sample,49469,0,"P5_000.wav",100
Sample,49793,0,"P5_000.wav",100
Sample,50117,0,"P5_000.wav",100
Sample,52063,0,"P5_001.wav",100
Sample,52388,0,"P5_001.wav",100
Sample,52712,0,"P5_001.wav",100
Sample,54496,0,"P5_004.wav",100
Sample,54658,0,"P5_000.wav",100
Sample,54982,0,"P5_000.wav",100
Sample,55144,0,"P5_002.wav",100
Sample,55306,0,"P5_000.wav",100
Sample,57090,0,"P5_007.wav",100
Sample,57252,0,"P5_001.wav",100
Sample,57577,0,"P5_001.wav",100
Sample,57739,0,"P5_004.wav",100
Sample,57901,0,"P5_001.wav",100
Sample,59361,0,"P5_004.wav",100
Sample,59685,0,"P5_008.wav",100
Sample,60009,0,"P5_011.wav",100
Sample,60334,0,"P5_015.wav",100
Sample,60658,0,"P5_011.wav",100
Sample,61955,0,"P5_013.wav",100
Sample,62117,0,"P5_014.wav",100
Sample,62604,0,"P5_013.wav",100
Sample,62685,0,"LR_Snare Drum.wav",50
Sample,62766,0,"P5_009.wav",100
Sample,62847,0,"LR_Snare Drum.wav",50
Sample,63009,0,"LR_Snare Drum 3.wav",50
Sample,63171,0,"LR_Snare Drum 3.wav",50
Sample,63577,0,"P2_000.wav",100
Sample,63577,0,"P2_001.wav",100
Sample,64063,0,"P2_002.wav",100
Sample,64063,0,"P2_003.wav",100
Sample,64874,0,"P2_004.wav",100
Sample,64874,0,"P2_005.wav",100
Sample,65361,0,"P2_006.wav",100
Sample,65361,0,"P2_007.wav",100
Sample,66171,0,"P2_008.wav",100
Sample,66171,0,"P2_009.wav",100
Sample,66658,0,"P2_010.wav",100
Sample,66658,0,"P2_011.wav",100
Sample,67469,0,"P2_013.wav",100
Sample,68117,0,"P2_015.wav",100
Sample,68766,0,"P2_016.wav",100
Sample,68766,0,"P2_017.wav",100
Sample,69252,0,"P2_018.wav",100
Sample,69252,0,"P2_019.wav",100
Sample,70063,0,"P2_020.wav",100
Sample,70063,0,"P2_021.wav",100
Sample,70550,0,"P2_022.wav",100
Sample,70550,0,"P2_023.wav",100
Sample,71361,0,"P2_024.wav",100
Sample,71361,0,"P2_025.wav",100
Sample,71847,0,"P2_026.wav",100
Sample,71847,0,"P2_027.wav",100
Sample,72658,0,"P2_029.wav",100
Sample,73306,0,"P2_031.wav",100
Sample,73955,0,"P3_001.wav",100
Sample,75252,0,"P3_003.wav",100
Sample,76550,0,"P3_006.wav",100
Sample,77198,0,"P3_008.wav",100
Sample,77847,0,"P3_010.wav",100
Sample,79144,0,"P3_013.wav",100
Sample,80442,0,"P3_015.wav",100
Sample,81739,0,"P3_018.wav",100
Sample,83685,0,"P3_020.wav",100
Sample,84334,0,"P3_022.wav",100
Sample,89685,0,"P6_005.wav",100
Sample,90334,0,"P6_008.wav",100
Sample,101361,0,"P7_036.wav",100
Sample,112901,0,"P8_001.wav",100
Sample,112928,0,"P8_002.wav",100
Sample,112955,0,"P8_003.wav",100
Sample,113036,0,"P8_004.wav",100
Sample,113198,0,"P8_005.wav",100
Sample,113361,0,"P8_006.wav",100
Sample,114198,0,"P8_008.wav",100
Sample,114225,0,"P8_009.wav",100
Sample,114252,0,"P8_010.wav",100
Sample,114334,0,"P8_011.wav",100
Sample,114496,0,"P8_012.wav",100
Sample,114658,0,"P8_013.wav",100
Sample,115496,0,"P8_015.wav",100
Sample,115523,0,"P8_016.wav",100
Sample,115550,0,"P8_017.wav",100
Sample,115631,0,"P8_018.wav",100
Sample,115793,0,"P8_019.wav",100
Sample,115955,0,"P8_020.wav",100
Sample,116766,0,"P8_022.wav",100
Sample,117506,0,"P8_025.wav",100
Sample,117537,0,"P8_024.wav",100
Sample,118278,0,"P8_027.wav",100
Sample,118310,0,"P8_028.wav",100
Sample,118341,0,"P8_029.wav",100
Sample,118436,0,"P8_030.wav",100
Sample,118658,0,"P8_031.wav",100
Sample,118911,0,"P8_032.wav",100
Sample,119651,0,"P8_034.wav",100
Sample,119685,0,"P8_035.wav",100
Sample,119720,0,"P8_036.wav",100
Sample,119823,0,"P8_037.wav",100
Sample,120030,0,"P8_038.wav",100
Sample,120237,0,"P8_039.wav",100
Sample,121179,0,"P8_041.wav",100
Sample,121220,0,"P8_042.wav",100
Sample,121261,0,"P8_043.wav",100
Sample,121384,0,"P8_044.wav",100
Sample,121630,0,"P8_045.wav",100
Sample,121876,0,"P8_046.wav",100
Sample,122286,0,"P8_047.wav",100
Sample,122696,0,"P8_048.wav",100
Sample,123311,0,"P8_050.wav",100
Sample,123352,0,"P8_051.wav",100
Sample,123393,0,"P8_052.wav",100

[TimingPoints]
1307,324.324324324324,4,2,1,10,1,0
11685,-100,4,2,1,30,0,0
22063,-100,4,2,1,50,0,1
42820,-100,4,2,1,30,0,0
86928,-100,4,2,1,50,0,1
97144,-100,4,2,1,50,0,0
97631,-100,4,2,1,50,0,1
112874,-100,4,2,1,50,0,0
116766,370.37037037037,4,2,1,50,1,0
116766,-87.719298245614,4,2,1,50,0,0
118247,379.746835443038,4,2,1,50,1,0
118247,-85.4700854700855,4,2,1,50,0,0
119617,413.793103448276,4,2,1,50,1,0
119617,-78.125,4,2,1,50,0,0
121139,491.803278688525,4,2,1,50,1,0
121139,-65.7894736842105,4,2,1,50,0,0

[HitObjects]
448,192,1307,5,0,0:0:0:100:P1_000.wav
64,192,1955,1,0,0:0:0:100:P1_001.wav
192,192,2604,1,0,0:0:0:100:P1_002.wav
448,192,3252,1,0,0:0:0:100:P1_003.wav
320,192,3901,1,0,0:0:0:100:P1_004.wav
320,192,5198,1,0,0:0:0:100:P1_005.wav
192,192,6496,1,0,0:0:0:100:P1_006.wav
64,192,7144,1,0,0:0:0:100:P1_007.wav
192,192,7793,1,0,0:0:0:100:P1_008.wav
320,192,8442,1,0,0:0:0:100:P1_009.wav
448,192,9090,1,0,0:0:0:100:P1_010.wav
64,192,10388,1,0,0:0:0:100:P1_011.wav
192,192,11685,1,6,0:0:0:0:
448,192,11685,1,0,0:0:0:100:P1_000.wav
64,192,12334,1,2,0:0:0:0:
192,192,12982,1,2,0:0:0:0:
448,192,13631,1,2,0:0:0:0:
320,192,14279,1,2,0:0:0:0:
320,192,15577,1,2,0:0:0:0:
192,192,16874,1,2,0:0:0:0:
64,192,17523,1,2,0:0:0:0:
192,192,18171,1,2,0:0:0:0:
320,192,18820,1,2,0:0:0:0:
448,192,19469,1,2,0:0:0:0:
64,192,20766,1,2,0:0:0:0:
192,192,21415,1,0,0:0:0:0:
320,192,21577,1,0,0:0:0:0:
64,192,21739,1,0,0:0:0:0:
192,192,21820,1,0,0:0:0:0:
448,192,21901,1,0,0:0:0:0:
320,192,21982,1,0,0:0:0:0:
64,192,22063,1,2,0:0:0:0:
192,192,22063,1,4,0:0:0:0:
64,192,22225,1,2,0:0:0:0:
320,192,22388,1,8,0:0:0:0:
448,192,22388,1,0,0:0:0:0:
192,192,22550,1,0,0:0:0:0:
320,192,22712,1,0,0:0:0:0:
64,192,22874,1,2,0:0:0:0:
192,192,23036,1,8,0:0:0:0:
448,192,23036,1,0,0:0:0:0:
320,192,23198,1,0,0:0:0:0:
64,192,23361,1,2,0:0:0:0:
64,192,23523,1,2,0:0:0:0:
320,192,23685,1,8,0:0:0:0:
192,192,23685,1,0,0:0:0:0:
448,192,23847,1,0,0:0:0:0:
64,192,24009,1,0,0:0:0:0:
320,192,24171,1,2,0:0:0:0:
192,192,24334,1,8,0:0:0:0:
448,192,24334,1,0,0:0:0:0:
64,192,24496,1,0,0:0:0:0:
320,192,24658,1,2,0:0:0:0:
320,192,24820,1,2,0:0:0:0:
448,192,24982,1,8,0:0:0:0:
64,192,24982,1,0,0:0:0:0:
192,192,25144,1,0,0:0:0:0:
320,192,25306,1,0,0:0:0:0:
448,192,25469,1,2,0:0:0:0:
64,192,25631,1,8,0:0:0:0:
192,192,25631,1,0,0:0:0:0:
320,192,25793,1,0,0:0:0:0:
192,192,25955,1,2,0:0:0:0:
192,192,26198,1,2,0:0:0:0:
448,192,26279,1,8,0:0:0:0:
320,192,26279,1,0,0:0:0:0:
64,192,26442,1,2,0:0:0:0:
192,192,26523,1,8,0:0:0:0:
320,192,26604,1,2,0:0:0:0:
448,192,26685,1,8,0:0:0:0:
192,192,26766,1,2,0:0:0:0:
320,192,26847,1,2,0:0:0:0:
64,192,26928,1,8,0:0:0:0:
448,192,26928,1,0,0:0:0:0:
192,192,27090,1,8,0:0:0:0:
320,192,27171,1,8,0:0:0:0:
448,192,27252,1,2,0:0:0:0:
448,192,27415,1,2,0:0:0:0:
64,192,27577,1,8,0:0:0:0:
192,192,27577,1,0,0:0:0:0:
320,192,27739,1,0,0:0:0:0:
64,192,27901,1,0,0:0:0:0:
448,192,28063,1,2,0:0:0:0:
192,192,28225,1,8,0:0:0:0:
320,192,28225,1,0,0:0:0:0:
64,192,28388,1,0,0:0:0:0:
448,192,28550,1,2,0:0:0:0:
448,192,28712,1,2,0:0:0:0:
64,192,28874,1,8,0:0:0:0:
192,192,28874,1,0,0:0:0:0:
448,192,29036,1,0,0:0:0:0:
192,192,29198,1,0,0:0:0:0:
64,192,29361,1,2,0:0:0:0:
320,192,29361,1,0,0:0:0:0:
192,192,29523,1,8,0:0:0:0:
448,192,29523,1,0,0:0:0:0:
64,192,29685,1,0,0:0:0:0:
320,192,29847,1,2,0:0:0:0:
320,192,30009,1,2,0:0:0:0:
192,192,30171,1,8,0:0:0:0:
448,192,30171,1,0,0:0:0:0:
64,192,30334,1,0,0:0:0:0:
320,192,30496,1,0,0:0:0:0:
192,192,30658,1,2,0:0:0:0:
448,192,30658,1,0,0:0:0:0:
64,192,30820,1,8,0:0:0:0:
320,192,30820,1,0,0:0:0:0:
192,192,30982,1,2,0:0:0:0:
448,192,31144,1,2,0:0:0:0:
320,192,31225,1,8,0:0:0:0:
64,192,31306,1,0,0:0:0:0:
192,192,31388,1,2,0:0:0:0:
320,192,31469,1,8,0:0:0:0:
448,192,31550,1,0,0:0:0:0:
64,192,31631,1,2,0:0:0:0:
192,192,31712,1,8,0:0:0:0:
448,192,31793,1,2,0:0:0:0:
320,192,31874,1,8,0:0:0:0:
192,192,31955,1,2,0:0:0:0:
448,192,32036,1,2,0:0:0:0:
320,192,32117,1,8,0:0:0:0:
64,192,32198,1,8,0:0:0:0:
192,192,32279,1,8,0:0:0:0:
320,192,32361,1,8,0:0:0:0:
64,192,32442,1,2,0:0:0:0:
448,192,32442,1,4,0:0:0:0:
64,192,32604,1,2,0:0:0:0:
192,192,32766,1,8,0:0:0:0:
448,192,32766,1,0,0:0:0:0:
320,192,32928,1,0,0:0:0:0:
64,192,33090,1,0,0:0:0:0:
448,192,33252,1,2,0:0:0:0:
64,192,33415,1,8,0:0:0:0:
192,192,33415,1,0,0:0:0:0:
320,192,33577,1,0,0:0:0:0:
448,192,33739,1,2,0:0:0:0:
448,192,33901,1,2,0:0:0:0:
64,192,34063,1,8,0:0:0:0:
320,192,34063,1,0,0:0:0:0:
192,192,34225,1,0,0:0:0:0:
448,192,34306,1,2,0:0:0:0:
320,192,34388,1,0,0:0:0:0:
64,192,34550,1,2,0:0:0:0:
320,192,34712,1,8,0:0:0:0:
448,192,34712,1,0,0:0:0:0:
192,192,34874,1,0,0:0:0:0:
64,192,34955,1,2,0:0:0:0:
448,192,35036,1,2,0:0:0:0:
448,192,35198,1,2,0:0:0:0:
192,192,35361,1,8,0:0:0:0:
320,192,35361,1,0,0:0:0:0:
64,192,35523,1,0,0:0:0:0:
192,192,35604,1,2,0:0:0:0:
320,192,35685,1,0,0:0:0:0:
64,192,35847,1,2,0:0:0:0:
320,192,36009,1,8,0:0:0:0:
448,192,36009,1,0,0:0:0:0:
192,192,36171,1,0,0:0:0:0:
448,192,36334,1,2,0:0:0:0:
64,192,36496,1,0,0:0:0:0:
192,192,36577,1,2,0:0:0:0:
320,192,36658,1,8,0:0:0:0:
448,192,36658,1,0,0:0:0:0:
64,192,36820,1,2,0:0:0:0:
192,192,36901,1,8,0:0:0:0:
448,192,36982,1,2,0:0:0:0:
320,192,37063,1,8,0:0:0:0:
192,192,37144,1,2,0:0:0:0:
64,192,37225,1,2,0:0:0:0:
320,192,37306,1,8,0:0:0:0:
448,192,37306,1,0,0:0:0:0:
64,192,37469,1,8,0:0:0:0:
192,192,37550,1,8,0:0:0:0:
320,192,37631,1,2,0:0:0:0:
448,192,37631,1,4,0:0:0:0:
448,192,37793,1,2,0:0:0:0:
64,192,37955,1,8,0:0:0:0:
192,192,37955,1,0,0:0:0:0:
320,192,38117,1,0,0:0:0:0:
192,192,38279,1,0,0:0:0:0:
448,192,38442,1,2,0:0:0:0:
64,192,38604,1,8,0:0:0:0:
320,192,38604,1,0,0:0:0:0:
192,192,38766,1,0,0:0:0:0:
448,192,38928,1,2,0:0:0:0:
448,192,39090,1,2,0:0:0:0:
64,192,39252,1,8,0:0:0:0:
320,192,39252,1,0,0:0:0:0:
192,192,39415,1,0,0:0:0:0:
320,192,39496,1,2,0:0:0:0:
448,192,39577,1,0,0:0:0:0:
192,192,39739,1,2,0:0:0:0:
64,192,39739,1,0,0:0:0:0:
320,192,39901,1,8,0:0:0:0:
448,192,39901,1,0,0:0:0:0:
64,192,40063,1,0,0:0:0:0:
192,192,40144,1,2,0:0:0:0:
320,192,40225,1,2,0:0:0:0:
448,192,40225,1,4,0:0:0:0:
448,192,40388,1,2,0:0:0:0:
64,192,40550,1,8,0:0:0:0:
192,192,40550,1,0,0:0:0:0:
64,192,40712,1,10,0:0:0:0:
192,192,40874,1,8,0:0:0:0:
448,192,40874,1,0,0:0:0:0:
448,192,41036,1,10,0:0:0:0:
64,192,41198,1,8,0:0:0:0:
320,192,41198,1,0,0:0:0:0:
64,192,41361,1,10,0:0:0:0:
448,192,41523,1,14,0:0:0:0:
320,192,41604,1,2,0:0:0:0:
192,192,41685,1,8,0:0:0:0:
448,192,41847,1,8,0:0:0:0:
320,192,41928,1,2,0:0:0:0:
64,192,42009,1,10,0:0:0:0:
192,192,42090,1,2,0:0:0:0:
320,192,42171,1,14,0:0:0:0:
448,192,42334,1,10,0:0:0:0:
320,192,42415,1,2,0:0:0:0:
192,192,42496,1,10,0:0:0:0:
64,192,42577,1,10,0:0:0:0:
448,192,42658,1,10,0:0:0:0:
320,192,42739,1,10,0:0:0:0:
64,192,42820,1,2,0:0:0:0:
192,192,42820,1,4,0:0:0:0:
64,192,43793,1,0,0:0:0:100:P5_002.wav
192,192,43955,1,0,0:0:0:100:P5_003.wav
320,192,44117,1,0,0:0:0:100:P5_004.wav
448,192,44442,1,0,0:0:0:100:P5_009.wav
320,192,44766,1,0,0:0:0:100:P5_003.wav
64,192,45090,1,0,0:0:0:100:P5_002.wav
64,192,46388,1,0,0:0:0:100:P5_004.wav
192,192,46550,1,0,0:0:0:100:P5_005.wav
320,192,46712,1,0,0:0:0:100:P5_007.wav
448,192,47036,1,0,0:0:0:100:P5_012.wav
320,192,47361,1,0,0:0:0:100:P5_005.wav
192,192,47685,1,0,0:0:0:100:P5_004.wav
64,192,48982,1,0,0:0:0:100:P5_004.wav
192,192,49144,1,0,0:0:0:100:P5_005.wav
320,192,49306,1,0,0:0:0:100:P5_007.wav
448,192,49631,1,0,0:0:0:100:P5_009.wav
320,192,49955,1,0,0:0:0:100:P5_004.wav
64,192,50279,1,0,0:0:0:100:P5_002.wav
64,192,51415,1,0,0:0:0:100:P5_007.wav
192,192,51577,1,0,0:0:0:100:P5_009.wav
320,192,51739,1,0,0:0:0:100:P5_010.wav
448,192,51901,1,0,0:0:0:100:P5_012.wav
320,192,52225,1,0,0:0:0:100:P5_005.wav
192,192,52550,1,0,0:0:0:100:P5_004.wav
320,192,52874,1,0,0:0:0:100:P5_005.wav
64,192,53198,1,2,0:0:0:0:
64,192,54171,1,0,0:0:0:100:P5_002.wav
192,192,54334,1,0,0:0:0:100:P5_003.wav
320,192,54496,1,2,0:0:0:0:
448,192,54820,1,0,0:0:0:100:P5_009.wav
64,192,55144,1,2,0:0:0:0:
192,192,55469,1,0,0:0:0:100:P5_003.wav
64,192,56766,1,0,0:0:0:100:P5_004.wav
192,192,56928,1,0,0:0:0:100:P5_005.wav
320,192,57090,1,2,0:0:0:0:
448,192,57415,1,0,0:0:0:100:P5_012.wav
192,192,57739,1,2,0:0:0:0:
320,192,58063,1,0,0:0:0:100:P5_005.wav
64,192,59361,1,2,0:0:0:0:
192,192,59523,1,0,0:0:0:100:P5_006.wav
448,192,59685,1,2,0:0:0:0:
320,192,59847,1,0,0:0:0:100:P5_004.wav
64,192,60009,1,2,0:0:0:0:
192,192,60171,1,0,0:0:0:100:P5_004.wav
448,192,60334,1,2,0:0:0:0:
64,192,60496,1,0,0:0:0:100:P5_004.wav
320,192,60658,1,2,0:0:0:0:
192,192,60982,1,2,0:0:0:0:
448,192,61306,1,2,0:0:0:0:
320,192,61631,1,2,0:0:0:0:
192,192,61955,1,2,0:0:0:0:
320,192,62117,1,2,0:0:0:0:
64,192,62279,1,0,0:0:0:100:P5_015.wav
448,192,62442,1,0,0:0:0:100:P5_009.wav
192,192,62604,1,0,0:0:0:50:LR_Snare Drum.wav
64,192,62766,1,0,0:0:0:50:LR_Snare Drum.wav
320,192,62928,1,0,0:0:0:50:LR_Snare Drum 3.wav
192,192,63090,1,0,0:0:0:50:LR_Snare Drum 3.wav
448,192,63252,1,0,0:0:0:0:
320,192,63334,1,0,0:0:0:0:
64,192,63415,1,0,0:0:0:0:
192,192,63496,1,0,0:0:0:0:
320,192,63577,1,2,0:0:0:0:
448,192,63577,1,0,0:0:0:70:CC_002.wav
320,192,64063,1,2,0:0:0:0:
448,192,64063,1,0,0:0:0:70:CC_002.wav
64,192,64388,128,0,64550:0:0:0:0:
448,192,64550,128,0,64712:0:0:0:0:
192,192,64712,128,0,64874:0:0:0:0:
320,192,64874,1,2,0:0:0:0:
448,192,64874,1,0,0:0:0:70:CC_002.wav
320,192,65361,1,2,0:0:0:0:
448,192,65361,1,0,0:0:0:70:CC_002.wav
448,192,65685,128,0,65847:0:0:0:0:
64,192,65847,128,0,66009:0:0:0:0:
320,192,66009,128,0,66171:0:0:0:0:
64,192,66171,1,2,0:0:0:0:
192,192,66171,1,0,0:0:0:70:CC_002.wav
64,192,66658,1,2,0:0:0:0:
192,192,66658,1,0,0:0:0:70:CC_002.wav
320,192,66982,128,0,67144:0:0:0:0:
192,192,67144,128,0,67306:0:0:0:0:
448,192,67306,128,0,67469:0:0:0:0:
64,192,67469,1,6,0:0:0:0:
192,192,67469,1,0,0:0:0:100:P2_012.wav
448,192,67631,1,0,0:0:0:0:
320,192,67712,1,0,0:0:0:0:
192,192,67793,1,0,0:0:0:0:
64,192,67874,1,0,0:0:0:0:
448,192,67955,1,0,0:0:0:0:
320,192,68036,1,0,0:0:0:0:
64,192,68117,1,6,0:0:0:0:
192,192,68117,1,0,0:0:0:100:P2_014.wav
448,192,68279,1,0,0:0:0:0:
320,192,68361,1,0,0:0:0:0:
192,192,68442,1,0,0:0:0:0:
448,192,68523,1,0,0:0:0:0:
320,192,68604,1,0,0:0:0:0:
192,192,68685,1,0,0:0:0:0:
64,192,68766,1,2,0:0:0:0:
448,192,68766,1,0,0:0:0:70:CC_002.wav
192,192,69252,1,2,0:0:0:0:
448,192,69252,1,0,0:0:0:70:CC_002.wav
448,192,69577,128,0,69739:0:0:0:0:
64,192,69739,128,0,69901:0:0:0:0:
320,192,69901,128,0,70063:0:0:0:0:
64,192,70063,1,2,0:0:0:0:
192,192,70063,1,0,0:0:0:70:CC_002.wav
64,192,70550,1,2,0:0:0:0:
192,192,70550,1,0,0:0:0:70:CC_002.wav
192,192,70874,128,0,71036:0:0:0:0:
320,192,71036,128,0,71198:0:0:0:0:
64,192,71198,128,0,71361:0:0:0:0:
320,192,71361,1,2,0:0:0:0:
448,192,71361,1,0,0:0:0:70:CC_002.wav
320,192,71847,1,2,0:0:0:0:
448,192,71847,1,0,0:0:0:70:CC_002.wav
192,192,72171,128,0,72334:0:0:0:0:
320,192,72334,128,0,72496:0:0:0:0:
64,192,72496,128,0,72658:0:0:0:0:
320,192,72658,1,6,0:0:0:0:
448,192,72658,1,0,0:0:0:100:P2_028.wav
64,192,72820,1,0,0:0:0:0:
192,192,72901,1,0,0:0:0:0:
320,192,72982,1,0,0:0:0:0:
64,192,73063,1,0,0:0:0:0:
192,192,73144,1,0,0:0:0:0:
320,192,73225,1,0,0:0:0:0:
64,192,73306,1,6,0:0:0:0:
448,192,73306,1,0,0:0:0:100:P2_030.wav
192,192,73469,1,2,0:0:0:0:
320,192,73550,1,2,0:0:0:0:
64,192,73631,1,2,0:0:0:0:
192,192,73712,1,2,0:0:0:0:
320,192,73793,1,2,0:0:0:0:
448,192,73874,1,2,0:0:0:0:
192,192,73955,1,6,0:0:0:0:
64,192,73955,1,0,0:0:0:100:P3_000.wav
320,192,74279,1,2,0:0:0:0:
320,192,74604,1,2,0:0:0:0:
320,192,74928,1,2,0:0:0:0:
64,192,75252,1,2,0:0:0:0:
448,192,75252,1,0,0:0:0:100:P3_002.wav
64,192,75577,1,2,0:0:0:0:
64,192,75901,1,2,0:0:0:0:
448,192,75901,1,0,0:0:0:100:P3_004.wav
64,192,76225,1,2,0:0:0:0:
448,192,76388,1,10,0:0:0:0:
192,192,76550,1,2,0:0:0:0:
320,192,76550,1,0,0:0:0:100:P3_005.wav
320,192,76874,1,10,0:0:0:0:
64,192,77198,1,2,0:0:0:0:
320,192,77198,1,0,0:0:0:100:P3_007.wav
320,192,77523,1,2,0:0:0:0:
64,192,77685,1,10,0:0:0:0:
192,192,77847,1,2,0:0:0:0:
448,192,77847,1,0,0:0:0:100:P3_009.wav
192,192,78171,1,10,0:0:0:0:
448,192,78334,1,10,0:0:0:0:
320,192,78415,1,8,0:0:0:0:
64,192,78496,1,10,0:0:0:0:
192,192,78496,1,0,0:0:0:100:P3_011.wav
448,192,78658,1,2,0:0:0:0:
320,192,78739,1,8,0:0:0:0:
192,192,78820,1,2,0:0:0:0:
64,192,78982,1,10,0:0:0:0:
192,192,79144,1,6,0:0:0:0:
448,192,79144,1,0,0:0:0:100:P3_012.wav
320,192,79306,1,2,0:0:0:0:
192,192,79469,1,10,0:0:0:0:
448,192,79631,1,2,0:0:0:0:
64,192,79793,1,2,0:0:0:0:
192,192,79955,1,2,0:0:0:0:
320,192,80117,1,2,0:0:0:0:
64,192,80279,1,10,0:0:0:0:
192,192,80442,1,6,0:0:0:0:
448,192,80442,1,0,0:0:0:100:P3_014.wav
320,192,80604,1,2,0:0:0:0:
64,192,80766,1,10,0:0:0:0:
448,192,80928,1,2,0:0:0:0:
192,192,81090,1,10,0:0:0:0:
320,192,81090,1,0,0:0:0:100:P3_016.wav
64,192,81252,1,2,0:0:0:0:
192,192,81334,1,8,0:0:0:0:
320,192,81415,1,10,0:0:0:0:
64,192,81577,1,10,0:0:0:0:
320,192,81739,1,6,0:0:0:0:
448,192,81739,1,0,0:0:0:100:P3_017.wav
448,192,81901,1,2,0:0:0:0:
192,192,82063,1,10,0:0:0:0:
192,192,82225,1,2,0:0:0:0:
448,192,82388,1,2,0:0:0:0:
448,192,82550,1,2,0:0:0:0:
64,192,82712,1,10,0:0:0:0:
64,192,82874,1,2,0:0:0:0:
448,192,83036,1,6,0:0:0:0:
320,192,83036,1,0,0:0:0:100:P3_019.wav
192,192,83198,1,2,0:0:0:0:
320,192,83279,1,2,0:0:0:0:
448,192,83361,1,14,0:0:0:0:
64,192,83442,1,2,0:0:0:0:
192,192,83523,1,14,0:0:0:0:
320,192,83604,1,14,0:0:0:0:
64,192,83685,1,10,0:0:0:0:
448,192,83685,1,4,0:0:0:0:
192,192,83847,1,14,0:0:0:0:
64,192,83928,1,14,0:0:0:0:
448,192,84009,1,14,0:0:0:0:
320,192,84090,1,2,0:0:0:0:
192,192,84171,1,14,0:0:0:0:
448,192,84252,1,2,0:0:0:0:
64,192,84334,1,6,0:0:0:0:
320,192,84334,1,0,0:0:0:100:P3_021.wav
192,192,84496,1,2,0:0:0:0:
320,192,84577,1,2,0:0:0:0:
448,192,84658,1,2,0:0:0:0:
64,192,84739,1,2,0:0:0:0:
192,192,84820,1,2,0:0:0:0:
448,192,84901,1,2,0:0:0:0:
320,192,84982,1,2,0:0:0:0:
192,192,85063,1,2,0:0:0:0:
64,192,85144,1,2,0:0:0:0:
448,192,85225,1,2,0:0:0:0:
320,192,85306,1,2,0:0:0:0:
192,192,85388,1,2,0:0:0:0:
64,192,85469,1,2,0:0:0:0:
320,192,85550,1,2,0:0:0:0:
192,192,85631,1,2,0:0:0:0:
448,192,85631,1,4,0:0:0:0:
448,192,86117,128,0,86604:0:0:0:0:
64,192,86604,128,0,86928:0:0:0:0:
320,192,86928,1,4,0:0:0:0:
448,192,86928,1,2,0:0:0:0:
448,192,87090,1,2,0:0:0:0:
64,192,87252,1,8,0:0:0:0:
192,192,87252,1,0,0:0:0:0:
320,192,87415,1,0,0:0:0:0:
192,192,87577,1,0,0:0:0:0:
192,192,87739,1,2,0:0:0:0:
64,192,87901,1,8,0:0:0:0:
320,192,87901,1,0,0:0:0:0:
192,192,88063,1,0,0:0:0:0:
448,192,88225,1,2,0:0:0:0:
448,192,88388,1,2,0:0:0:0:
192,192,88550,1,8,0:0:0:0:
320,192,88550,1,0,0:0:0:0:
64,192,88712,1,0,0:0:0:0:
448,192,88793,1,2,0:0:0:0:
192,192,88874,1,2,0:0:0:0:
192,192,89036,1,2,0:0:0:0:
320,192,89198,1,8,0:0:0:0:
448,192,89198,1,0,0:0:0:0:
64,192,89361,1,0,0:0:0:0:
192,192,89442,1,2,0:0:0:0:
448,192,89523,1,2,0:0:0:0:
448,192,89685,1,2,0:0:0:0:
192,192,89847,1,8,0:0:0:0:
320,192,89847,1,0,0:0:0:100:P6_006.wav
64,192,90009,1,0,0:0:0:100:P6_007.wav
448,192,90090,1,2,0:0:0:0:
192,192,90171,1,2,0:0:0:0:
192,192,90334,1,2,0:0:0:0:
64,192,90496,1,8,0:0:0:0:
320,192,90496,1,0,0:0:0:100:P6_009.wav
448,192,90658,1,0,0:0:0:100:P6_010.wav
192,192,90820,1,2,0:0:0:0:
192,192,91063,1,2,0:0:0:0:
320,192,91144,1,8,0:0:0:0:
448,192,91144,1,0,0:0:0:0:
64,192,91306,1,2,0:0:0:0:
192,192,91388,1,8,0:0:0:0:
320,192,91469,1,2,0:0:0:0:
64,192,91550,1,8,0:0:0:0:
448,192,91631,1,2,0:0:0:0:
320,192,91712,1,2,0:0:0:0:
192,192,91793,1,8,0:0:0:0:
64,192,91955,1,8,0:0:0:0:
192,192,92036,1,8,0:0:0:0:
448,192,92117,1,2,0:0:0:0:
448,192,92279,1,2,0:0:0:0:
64,192,92442,1,8,0:0:0:0:
320,192,92442,1,0,0:0:0:0:
448,192,92604,1,0,0:0:0:0:
192,192,92766,1,0,0:0:0:0:
192,192,92928,1,2,0:0:0:0:
320,192,93090,1,8,0:0:0:0:
448,192,93090,1,0,0:0:0:0:
64,192,93252,1,0,0:0:0:0:
320,192,93415,1,2,0:0:0:0:
320,192,93577,1,2,0:0:0:0:
192,192,93739,1,8,0:0:0:0:
448,192,93739,1,0,0:0:0:0:
320,192,93901,1,0,0:0:0:0:
192,192,93982,1,2,0:0:0:0:
64,192,94063,1,2,0:0:0:0:
64,192,94225,1,2,0:0:0:0:
192,192,94388,1,8,0:0:0:0:
320,192,94388,1,0,0:0:0:0:
448,192,94550,1,0,0:0:0:0:
64,192,94631,1,2,0:0:0:0:
320,192,94712,1,2,0:0:0:0:
320,192,94874,1,2,0:0:0:0:
64,192,95036,1,8,0:0:0:0:
192,192,95036,1,0,0:0:0:0:
448,192,95198,1,0,0:0:0:0:
320,192,95279,1,2,0:0:0:0:
192,192,95361,1,2,0:0:0:0:
192,192,95523,1,2,0:0:0:0:
64,192,95685,1,8,0:0:0:0:
320,192,95685,1,0,0:0:0:0:
448,192,95847,1,2,0:0:0:0:
320,192,95928,1,8,0:0:0:0:
64,192,96009,1,2,0:0:0:0:
192,192,96009,1,4,0:0:0:0:
448,192,96171,1,8,0:0:0:0:
320,192,96252,1,8,0:0:0:0:
64,192,96334,1,8,0:0:0:0:
192,192,96415,1,8,0:0:0:0:
320,192,96496,1,8,0:0:0:0:
448,192,96577,1,8,0:0:0:0:
192,192,96658,1,2,0:0:0:0:
64,192,96658,1,4,0:0:0:0:
448,192,96820,1,8,0:0:0:0:
320,192,96901,1,8,0:0:0:0:
192,192,96982,1,10,0:0:0:0:
64,192,97063,1,0,0:0:0:0:
448,192,97144,128,8,97306:0:0:0:0:
64,192,97631,1,4,0:0:0:0:
192,192,97631,1,2,0:0:0:0:
448,192,97631,1,0,0:0:0:0:
448,192,97955,1,0,0:0:0:0:
320,192,98036,1,8,0:0:0:0:
192,192,98117,1,8,0:0:0:0:
64,192,98198,1,0,0:0:0:0:
320,192,98279,1,8,0:0:0:0:
448,192,98279,1,0,0:0:0:0:
192,192,98442,1,0,0:0:0:0:
320,192,98523,1,0,0:0:0:0:
64,192,98604,1,4,0:0:0:0:
448,192,98604,1,2,0:0:0:0:
448,192,98766,1,2,0:0:0:0:
64,192,98928,1,8,0:0:0:0:
192,192,98928,1,0,0:0:0:0:
320,192,99090,1,2,0:0:0:0:
448,192,99171,1,8,0:0:0:0:
192,192,99252,1,0,0:0:0:0:
320,192,99334,1,8,0:0:0:0:
64,192,99415,1,2,0:0:0:0:
320,192,99577,1,8,0:0:0:0:
448,192,99577,1,0,0:0:0:0:
192,192,99739,1,8,0:0:0:0:
64,192,99820,1,8,0:0:0:0:
320,192,99901,1,2,0:0:0:0:
448,192,99901,1,4,0:0:0:0:
64,192,100063,1,8,0:0:0:0:
192,192,100144,1,8,0:0:0:0:
320,192,100225,1,8,0:0:0:0:
64,192,100388,1,4,0:0:0:0:
448,192,100388,1,8,0:0:0:0:
320,192,100550,1,8,0:0:0:0:
192,192,100631,1,8,0:0:0:0:
64,192,100712,1,8,0:0:0:0:
320,192,100874,1,10,0:0:0:0:
448,192,100874,1,4,0:0:0:0:
64,192,101036,1,8,0:0:0:0:
192,192,101117,1,8,0:0:0:0:
448,192,101198,1,8,0:0:0:0:
320,192,101279,1,0,0:0:0:100:P7_037.wav
192,192,101361,1,14,0:0:0:0:
64,192,101442,1,0,0:0:0:100:P7_035.wav
448,192,101523,1,8,0:0:0:0:
320,192,101604,1,8,0:0:0:0:
192,192,101685,1,8,0:0:0:0:
64,192,101766,1,8,0:0:0:0:
320,192,101847,1,2,0:0:0:0:
448,192,101847,1,4,0:0:0:0:
192,192,102009,1,2,0:0:0:0:
320,192,102090,1,2,0:0:0:0:
448,192,102171,1,2,0:0:0:0:
64,192,102334,1,2,0:0:0:0:
192,192,102334,1,4,0:0:0:0:
320,192,102496,1,0,0:0:0:0:
192,192,102658,1,0,0:0:0:0:
64,192,102820,1,8,0:0:0:0:
448,192,102820,1,0,0:0:0:0:
320,192,102982,1,2,0:0:0:0:
192,192,103144,1,2,0:0:0:0:
448,192,103306,1,2,0:0:0:0:
64,192,103469,1,8,0:0:0:0:
192,192,103469,1,0,0:0:0:0:
64,192,103631,1,2,0:0:0:0:
320,192,103631,1,4,0:0:0:0:
448,192,103793,1,0,0:0:0:0:
64,192,103955,1,2,0:0:0:0:
192,192,104117,1,8,0:0:0:0:
320,192,104117,1,0,0:0:0:0:
448,192,104279,1,2,0:0:0:0:
64,192,104442,1,2,0:0:0:0:
192,192,104523,1,8,0:0:0:0:
448,192,104604,1,0,0:0:0:0:
64,192,104766,1,8,0:0:0:0:
320,192,104766,1,0,0:0:0:0:
192,192,104928,1,2,0:0:0:0:
320,192,104928,1,4,0:0:0:0:
448,192,105090,1,2,0:0:0:0:
64,192,105252,1,2,0:0:0:0:
192,192,105415,1,8,0:0:0:0:
320,192,105415,1,0,0:0:0:0:
448,192,105577,1,2,0:0:0:0:
64,192,105739,1,2,0:0:0:0:
192,192,105901,1,2,0:0:0:0:
320,192,106063,1,8,0:0:0:0:
448,192,106063,1,0,0:0:0:0:
64,192,106225,1,2,0:0:0:0:
448,192,106225,1,4,0:0:0:0:
192,192,106388,1,2,0:0:0:0:
320,192,106550,1,2,0:0:0:0:
192,192,106631,1,2,0:0:0:0:
64,192,106712,1,8,0:0:0:0:
448,192,106712,1,0,0:0:0:0:
320,192,106874,1,2,0:0:0:0:
448,192,106955,1,8,0:0:0:0:
64,192,107036,1,2,0:0:0:0:
192,192,107117,1,8,0:0:0:0:
320,192,107198,1,2,0:0:0:0:
64,192,107361,1,8,0:0:0:0:
192,192,107361,1,0,0:0:0:0:
192,192,107523,1,2,0:0:0:0:
448,192,107523,1,4,0:0:0:0:
320,192,107685,1,0,0:0:0:0:
64,192,107847,1,2,0:0:0:0:
192,192,107928,1,2,0:0:0:0:
448,192,108009,1,8,0:0:0:0:
320,192,108090,1,8,0:0:0:0:
64,192,108171,1,2,0:0:0:0:
192,192,108252,1,2,0:0:0:0:
320,192,108334,1,2,0:0:0:0:
448,192,108415,1,2,0:0:0:0:
64,192,108496,1,2,0:0:0:0:
192,192,108577,1,2,0:0:0:0:
448,192,108658,1,8,0:0:0:0:
320,192,108739,1,8,0:0:0:0:
64,192,108820,1,2,0:0:0:0:
192,192,108820,1,4,0:0:0:0:
448,192,108982,1,0,0:0:0:0:
320,192,109063,1,0,0:0:0:0:
64,192,109144,1,0,0:0:0:0:
192,192,109225,1,0,0:0:0:0:
320,192,109306,1,8,0:0:0:0:
64,192,109388,1,8,0:0:0:0:
192,192,109469,1,2,0:0:0:0:
320,192,109550,1,2,0:0:0:0:
64,192,109631,1,8,0:0:0:0:
448,192,109631,1,4,0:0:0:0:
448,192,109793,1,2,0:0:0:0:
64,192,110117,1,8,0:0:0:0:
320,192,110117,1,4,0:0:0:0:
192,192,110442,1,10,0:0:0:0:
320,192,110442,1,4,0:0:0:0:
192,192,110604,1,10,0:0:0:0:
320,192,110604,1,4,0:0:0:0:
64,192,110766,1,10,0:0:0:0:
448,192,110766,1,4,0:0:0:0:
64,192,110928,1,10,0:0:0:0:
448,192,110928,1,4,0:0:0:0:
192,192,111171,1,10,0:0:0:0:
448,192,111171,1,4,0:0:0:0:
192,192,111415,1,10,0:0:0:0:
320,192,111415,1,4,0:0:0:0:
64,192,112874,1,6,0:0:0:0:
448,192,112874,1,0,0:0:0:100:P8_000.wav
320,192,114171,1,0,0:0:0:100:P8_007.wav
192,192,115469,1,0,0:0:0:100:P8_014.wav
448,192,116766,1,0,0:0:0:100:P8_021.wav
64,192,117506,1,0,0:0:0:100:P8_023.wav
192,192,118247,1,0,0:0:0:100:P8_026.wav
64,192,119617,1,0,0:0:0:100:P8_033.wav
320,192,121139,1,0,0:0:0:100:P8_040.wav
192,192,123270,1,0,0:0:0:100:P8_049.wav
