osu file format v14

[General]
AudioFilename: audio.mp3
AudioLeadIn: 0
PreviewTime: 86117
Countdown: 0
SampleSet: Soft
StackLeniency: 0.7
Mode: 3
LetterboxInBreaks: 0
EpilepsyWarning: 1
SpecialStyle: 0
WidescreenStoryboard: 1

[Editor]
Bookmarks: 11685,32442,42820,63577,73955,86928,92117,97631,102334,105090
DistanceSpacing: 1
BeatDivisor: 8
GridSize: 4
TimelineZoom: 1.6

[Metadata]
Title:-+
TitleUnicode:-+
Artist:daisan
ArtistUnicode:daisan
Creator:PokeSky
Version:Disagreeable
Source:
Tags:minus plus FAMoss BMS of Fighters BOF 2013 konzertsaal Dirt Art Color Teller rice jump stream streaming Instrumental keysound piano muse dash video rhythm game
BeatmapID:2241878
BeatmapSetID:1071024

[Difficulty]
HPDrainRate:8.5
CircleSize:4
OverallDifficulty:8.5
ApproachRate:5
SliderMultiplier:1.4
SliderTickRate:1

[Events]
//Background and Video events
0,0,"bg.jpg",0,0
//Break Periods
//Storyboard Layer 0 (Background)
//Storyboard Layer 1 (Fail)
//Storyboard Layer 2 (Pass)
//Storyboard Layer 3 (Foreground)
//Storyboard Layer 4 (Overlay)
//Storyboard Sound Samples
Sample,54496,0,"P5_004.wav",100
Sample,55144,0,"P5_002.wav",100
Sample,57090,0,"P5_007.wav",100
Sample,57739,0,"P5_004.wav",100
Sample,59361,0,"P5_004.wav",100
Sample,59685,0,"P5_008.wav",100
Sample,60009,0,"P5_011.wav",100
Sample,60334,0,"P5_015.wav",100
Sample,60658,0,"P5_011.wav",100
Sample,63009,0,"LR_Snare Drum 3.wav",50
Sample,63171,0,"LR_Snare Drum 3.wav",50
Sample,63577,0,"P2_000.wav",100
Sample,63577,0,"P2_001.wav",100
Sample,64063,0,"P2_003.wav",100
Sample,64874,0,"P2_005.wav",100
Sample,64874,0,"P2_004.wav",100
Sample,65361,0,"P2_007.wav",100
Sample,66171,0,"P2_008.wav",100
Sample,66171,0,"P2_009.wav",100
Sample,66658,0,"P2_011.wav",100
Sample,67469,0,"P2_013.wav",100
Sample,68766,0,"P2_017.wav",100
Sample,69252,0,"P2_019.wav",100
Sample,70063,0,"P2_020.wav",100
Sample,70063,0,"P2_021.wav",100
Sample,70550,0,"P2_023.wav",100
Sample,71361,0,"P2_025.wav",100
Sample,71361,0,"P2_024.wav",100
Sample,71847,0,"P2_027.wav",100
Sample,72658,0,"P2_029.wav",100
Sample,73306,0,"P2_031.wav",100
Sample,75252,0,"P3_003.wav",100
Sample,76550,0,"P3_006.wav",100
Sample,77198,0,"P3_008.wav",100
Sample,77847,0,"P3_010.wav",100
Sample,83685,0,"P3_020.wav",100
Sample,84334,0,"P3_022.wav",100
Sample,112928,0,"P8_002.wav",100
Sample,114225,0,"P8_009.wav",100
Sample,115523,0,"P8_016.wav",100
Sample,116766,0,"P8_022.wav",100
Sample,117506,0,"P8_025.wav",100
Sample,118310,0,"P8_028.wav",100
Sample,119685,0,"P8_035.wav",100
Sample,121220,0,"P8_042.wav",100
Sample,123393,0,"P8_052.wav",100

[TimingPoints]
1307,324.324324324324,4,2,1,10,1,0
11685,-100,4,2,1,30,0,0
22063,-100,4,2,1,50,0,1
42820,-100,4,2,1,30,0,0
86928,-100,4,2,1,50,0,1
97144,-100,4,2,1,50,0,0
97306,-333.333333333333,4,2,1,50,0,0
97469,-58.8235294117647,4,2,1,50,0,0
97631,-100,4,2,1,50,0,1
112874,-100,4,2,1,50,0,0
116766,370.37037037037,4,2,1,50,1,0
116766,-87.719298245614,4,2,1,50,0,0
118247,379.746835443038,4,2,1,50,1,0
118247,-85.4700854700855,4,2,1,50,0,0
119617,413.793103448276,4,2,1,50,1,0
119617,-78.125,4,2,1,50,0,0
121139,491.803278688525,4,2,1,50,1,0
121139,-65.7894736842105,4,2,1,50,0,0

[HitObjects]
64,192,1307,5,0,0:0:0:100:P1_000.wav
448,192,1307,1,0,0:0:0:0:
64,192,1955,1,0,0:0:0:100:P1_001.wav
320,192,1955,1,0,0:0:0:0:
192,192,2604,1,0,0:0:0:100:P1_002.wav
320,192,2604,1,0,0:0:0:0:
192,192,3252,1,0,0:0:0:100:P1_003.wav
448,192,3252,1,0,0:0:0:0:
64,192,3901,1,0,0:0:0:100:P1_004.wav
448,192,3901,1,0,0:0:0:0:
64,192,5198,1,0,0:0:0:100:P1_005.wav
320,192,5198,1,0,0:0:0:0:
64,192,6496,1,0,0:0:0:100:P1_006.wav
192,192,6496,1,0,0:0:0:0:
64,192,7144,1,0,0:0:0:100:P1_007.wav
320,192,7144,1,0,0:0:0:0:
192,192,7793,1,0,0:0:0:100:P1_008.wav
320,192,7793,1,0,0:0:0:0:
320,192,8442,1,0,0:0:0:100:P1_009.wav
448,192,8442,1,0,0:0:0:0:
64,192,9090,1,0,0:0:0:100:P1_010.wav
448,192,9090,1,0,0:0:0:0:
64,192,10388,1,0,0:0:0:100:P1_011.wav
320,192,10388,1,0,0:0:0:0:
64,192,11685,1,2,0:0:0:0:
192,192,11685,1,4,0:0:0:0:
448,192,11685,1,0,0:0:0:100:P1_000.wav
64,192,12334,1,2,0:0:0:0:
320,192,12334,1,0,0:0:0:100:P1_001.wav
192,192,12982,1,2,0:0:0:0:
320,192,12982,1,0,0:0:0:100:P1_002.wav
192,192,13631,1,2,0:0:0:0:
448,192,13631,1,0,0:0:0:100:P1_003.wav
64,192,14279,1,2,0:0:0:0:
448,192,14279,1,0,0:0:0:100:P1_004.wav
320,192,14928,1,2,0:0:0:0:
64,192,15577,1,2,0:0:0:0:
192,192,15577,1,0,0:0:0:100:P1_005.wav
448,192,16225,1,2,0:0:0:0:
192,192,16874,1,2,0:0:0:0:
320,192,16874,1,0,0:0:0:100:P1_006.wav
448,192,17198,1,2,0:0:0:0:
64,192,17523,1,2,0:0:0:0:
192,192,17523,1,0,0:0:0:100:P1_007.wav
320,192,17847,1,2,0:0:0:0:
192,192,18171,1,2,0:0:0:0:
448,192,18171,1,0,0:0:0:100:P1_008.wav
64,192,18496,1,2,0:0:0:0:
320,192,18820,1,2,0:0:0:0:
448,192,18820,1,0,0:0:0:100:P1_009.wav
192,192,19144,1,2,0:0:0:0:
64,192,19469,1,2,0:0:0:0:
448,192,19469,1,0,0:0:0:100:P1_010.wav
448,192,19631,1,2,0:0:0:0:
192,192,19793,1,2,0:0:0:0:
192,192,19955,1,2,0:0:0:0:
320,192,20117,1,2,0:0:0:0:
320,192,20279,1,2,0:0:0:0:
64,192,20442,1,2,0:0:0:0:
64,192,20604,1,2,0:0:0:0:
192,192,20766,1,2,0:0:0:0:
448,192,20766,1,0,0:0:0:100:P1_012.wav
320,192,21415,1,0,0:0:0:0:
448,192,21496,1,0,0:0:0:0:
192,192,21577,1,0,0:0:0:0:
64,192,21658,1,0,0:0:0:0:
448,192,21739,1,0,0:0:0:0:
320,192,21779,1,0,0:0:0:0:
64,192,21820,1,0,0:0:0:0:
192,192,21861,1,0,0:0:0:0:
320,192,21901,1,0,0:0:0:0:
448,192,21942,1,0,0:0:0:0:
192,192,21982,1,0,0:0:0:0:
64,192,22023,1,0,0:0:0:0:
320,192,22063,1,2,0:0:0:0:
448,192,22063,1,4,0:0:0:0:
64,192,22225,1,2,0:0:0:0:
448,192,22225,1,0,0:0:0:0:
192,192,22388,1,8,0:0:0:0:
320,192,22388,1,0,0:0:0:0:
448,192,22469,1,0,0:0:0:0:
64,192,22550,1,0,0:0:0:0:
192,192,22631,1,0,0:0:0:0:
320,192,22712,1,0,0:0:0:0:
448,192,22793,1,0,0:0:0:0:
64,192,22874,1,2,0:0:0:0:
320,192,22874,1,0,0:0:0:0:
448,192,22955,1,0,0:0:0:0:
64,192,23036,1,8,0:0:0:0:
192,192,23036,1,0,0:0:0:0:
320,192,23117,1,0,0:0:0:0:
192,192,23198,1,0,0:0:0:0:
448,192,23279,1,0,0:0:0:0:
64,192,23361,1,2,0:0:0:0:
320,192,23361,1,0,0:0:0:0:
192,192,23442,1,0,0:0:0:0:
64,192,23523,1,2,0:0:0:0:
448,192,23523,1,0,0:0:0:0:
320,192,23604,1,0,0:0:0:0:
192,192,23685,1,8,0:0:0:0:
448,192,23685,1,0,0:0:0:0:
64,192,23766,1,0,0:0:0:0:
448,192,23847,1,0,0:0:0:0:
64,192,23928,1,2,0:0:0:0:
192,192,23928,1,0,0:0:0:0:
320,192,24009,1,0,0:0:0:0:
448,192,24090,1,0,0:0:0:0:
192,192,24171,1,2,0:0:0:0:
320,192,24171,1,0,0:0:0:0:
448,192,24252,1,0,0:0:0:0:
64,192,24334,1,8,0:0:0:0:
192,192,24334,1,0,0:0:0:0:
320,192,24415,1,0,0:0:0:0:
64,192,24496,1,0,0:0:0:0:
192,192,24577,1,2,0:0:0:0:
448,192,24577,1,0,0:0:0:0:
64,192,24658,1,2,0:0:0:0:
320,192,24658,1,0,0:0:0:0:
64,192,24820,1,2,0:0:0:0:
448,192,24820,1,0,0:0:0:0:
192,192,24874,1,0,0:0:0:0:
320,192,24928,1,0,0:0:0:0:
64,192,24982,1,8,0:0:0:0:
448,192,24982,1,0,0:0:0:0:
320,192,25144,1,0,0:0:0:0:
448,192,25198,1,0,0:0:0:0:
192,192,25252,1,0,0:0:0:0:
64,192,25306,1,0,0:0:0:0:
192,192,25469,1,2,0:0:0:0:
448,192,25469,1,0,0:0:0:0:
320,192,25509,1,0,0:0:0:0:
64,192,25550,1,0,0:0:0:0:
192,192,25590,1,0,0:0:0:0:
320,192,25631,1,8,0:0:0:0:
448,192,25631,1,0,0:0:0:0:
64,192,25712,1,0,0:0:0:0:
192,192,25793,1,0,0:0:0:0:
64,192,25874,1,0,0:0:0:0:
320,192,25955,1,2,0:0:0:0:
448,192,25955,1,0,0:0:0:0:
192,192,26036,1,0,0:0:0:0:
320,192,26117,1,0,0:0:0:0:
64,192,26198,1,2,0:0:0:0:
448,192,26198,1,0,0:0:0:0:
192,192,26279,1,8,0:0:0:0:
320,192,26279,1,0,0:0:0:0:
448,192,26361,1,0,0:0:0:0:
64,192,26442,1,2,0:0:0:0:
192,192,26442,1,0,0:0:0:0:
320,192,26523,1,8,0:0:0:0:
448,192,26523,1,0,0:0:0:0:
64,192,26604,1,2,0:0:0:0:
192,192,26604,1,0,0:0:0:0:
320,192,26685,1,8,0:0:0:0:
448,192,26685,1,0,0:0:0:0:
64,192,26766,1,2,0:0:0:0:
192,192,26766,1,0,0:0:0:0:
64,192,26847,1,2,0:0:0:0:
192,192,26847,1,0,0:0:0:0:
320,192,26928,1,8,0:0:0:0:
448,192,26928,1,0,0:0:0:0:
192,192,27009,1,0,0:0:0:0:
64,192,27090,1,8,0:0:0:0:
448,192,27090,1,0,0:0:0:0:
192,192,27171,1,8,0:0:0:0:
320,192,27171,1,0,0:0:0:0:
64,192,27252,1,2,0:0:0:0:
448,192,27252,1,0,0:0:0:0:
320,192,27334,1,0,0:0:0:0:
64,192,27415,1,2,0:0:0:0:
448,192,27415,1,0,0:0:0:0:
192,192,27496,1,0,0:0:0:0:
320,192,27577,1,8,0:0:0:0:
448,192,27577,1,0,0:0:0:0:
192,192,27658,1,0,0:0:0:0:
64,192,27739,1,0,0:0:0:0:
448,192,27820,1,0,0:0:0:0:
64,192,27901,1,0,0:0:0:0:
320,192,27982,1,0,0:0:0:0:
64,192,28063,1,2,0:0:0:0:
448,192,28063,1,0,0:0:0:0:
192,192,28144,1,0,0:0:0:0:
320,192,28225,1,8,0:0:0:0:
448,192,28225,1,0,0:0:0:0:
64,192,28306,1,0,0:0:0:0:
320,192,28388,1,0,0:0:0:0:
64,192,28469,1,0,0:0:0:0:
192,192,28550,1,2,0:0:0:0:
448,192,28550,1,0,0:0:0:0:
320,192,28631,1,0,0:0:0:0:
64,192,28712,1,2,0:0:0:0:
448,192,28712,1,0,0:0:0:0:
192,192,28793,1,0,0:0:0:0:
320,192,28874,1,8,0:0:0:0:
448,192,28874,1,0,0:0:0:0:
192,192,28955,1,0,0:0:0:0:
64,192,29036,1,0,0:0:0:0:
320,192,29117,1,2,0:0:0:0:
448,192,29117,1,0,0:0:0:0:
64,192,29198,1,0,0:0:0:0:
320,192,29279,1,0,0:0:0:0:
64,192,29361,1,2,0:0:0:0:
448,192,29361,1,0,0:0:0:0:
192,192,29442,1,0,0:0:0:0:
320,192,29523,1,8,0:0:0:0:
448,192,29523,1,0,0:0:0:0:
64,192,29604,1,0,0:0:0:0:
320,192,29685,1,0,0:0:0:0:
192,192,29766,1,2,0:0:0:0:
448,192,29766,1,0,0:0:0:0:
64,192,29847,1,2,0:0:0:0:
320,192,29847,1,0,0:0:0:0:
192,192,29928,1,0,0:0:0:0:
64,192,30009,1,2,0:0:0:0:
448,192,30009,1,0,0:0:0:0:
192,192,30090,1,0,0:0:0:0:
320,192,30171,1,8,0:0:0:0:
448,192,30171,1,0,0:0:0:0:
64,192,30252,1,0,0:0:0:0:
448,192,30334,1,0,0:0:0:0:
192,192,30415,1,2,0:0:0:0:
320,192,30415,1,0,0:0:0:0:
448,192,30496,1,0,0:0:0:0:
320,192,30577,1,0,0:0:0:0:
64,192,30658,1,2,0:0:0:0:
192,192,30658,1,0,0:0:0:0:
448,192,30739,1,0,0:0:0:0:
64,192,30820,1,8,0:0:0:0:
320,192,30820,1,0,0:0:0:0:
192,192,30901,1,0,0:0:0:0:
320,192,30982,1,2,0:0:0:0:
64,192,31063,1,8,0:0:0:0:
448,192,31063,1,0,0:0:0:0:
192,192,31144,1,2,0:0:0:0:
320,192,31144,1,0,0:0:0:0:
64,192,31225,1,8,0:0:0:0:
448,192,31225,1,0,0:0:0:0:
192,192,31306,1,0,0:0:0:0:
320,192,31388,1,2,0:0:0:0:
448,192,31388,1,0,0:0:0:0:
64,192,31469,1,8,0:0:0:0:
192,192,31469,1,0,0:0:0:0:
448,192,31550,1,0,0:0:0:0:
64,192,31631,1,2,0:0:0:0:
320,192,31631,1,0,0:0:0:0:
192,192,31712,1,8,0:0:0:0:
448,192,31712,1,0,0:0:0:0:
64,192,31793,1,2,0:0:0:0:
320,192,31874,1,8,0:0:0:0:
448,192,31874,1,0,0:0:0:0:
64,192,31955,1,2,0:0:0:0:
192,192,31955,1,0,0:0:0:0:
320,192,32036,1,2,0:0:0:0:
192,192,32117,1,8,0:0:0:0:
448,192,32117,1,0,0:0:0:0:
64,192,32198,1,8,0:0:0:0:
320,192,32198,1,0,0:0:0:0:
192,192,32279,1,8,0:0:0:0:
448,192,32279,1,0,0:0:0:0:
64,192,32361,1,8,0:0:0:0:
192,192,32442,1,2,0:0:0:0:
320,192,32442,1,4,0:0:0:0:
448,192,32442,1,0,0:0:0:0:
64,192,32604,1,2,0:0:0:0:
448,192,32604,1,0,0:0:0:0:
64,192,32766,1,8,0:0:0:0:
192,192,32766,1,0,0:0:0:0:
448,192,32766,1,0,0:0:0:0:
320,192,32928,1,0,0:0:0:0:
448,192,32928,1,0,0:0:0:0:
64,192,33090,1,0,0:0:0:0:
448,192,33090,1,0,0:0:0:0:
192,192,33252,1,2,0:0:0:0:
448,192,33252,1,0,0:0:0:0:
64,192,33415,1,8,0:0:0:0:
320,192,33415,1,0,0:0:0:0:
448,192,33415,1,0,0:0:0:0:
192,192,33577,1,0,0:0:0:0:
448,192,33577,1,0,0:0:0:0:
64,192,33739,1,2,0:0:0:0:
448,192,33739,1,0,0:0:0:0:
64,192,33901,1,2,0:0:0:0:
192,192,33901,1,0,0:0:0:0:
64,192,34063,1,8,0:0:0:0:
320,192,34063,1,0,0:0:0:0:
448,192,34063,1,0,0:0:0:0:
64,192,34225,1,0,0:0:0:0:
192,192,34225,1,0,0:0:0:0:
320,192,34306,1,2,0:0:0:0:
448,192,34306,1,0,0:0:0:0:
64,192,34388,1,0,0:0:0:0:
192,192,34388,1,0,0:0:0:0:
64,192,34550,1,2,0:0:0:0:
448,192,34550,1,0,0:0:0:0:
64,192,34712,1,8,0:0:0:0:
192,192,34712,1,0,0:0:0:0:
320,192,34712,1,0,0:0:0:0:
64,192,34874,1,0,0:0:0:0:
448,192,34874,1,0,0:0:0:0:
192,192,34955,1,2,0:0:0:0:
320,192,34955,1,0,0:0:0:0:
64,192,35036,1,2,0:0:0:0:
448,192,35036,1,0,0:0:0:0:
192,192,35198,1,2,0:0:0:0:
448,192,35198,1,0,0:0:0:0:
64,192,35361,1,8,0:0:0:0:
320,192,35361,1,0,0:0:0:0:
448,192,35361,1,0,0:0:0:0:
320,192,35523,1,0,0:0:0:0:
448,192,35523,1,0,0:0:0:0:
64,192,35604,1,2,0:0:0:0:
192,192,35604,1,0,0:0:0:0:
320,192,35685,1,0,0:0:0:0:
448,192,35685,1,0,0:0:0:0:
64,192,35847,1,2,0:0:0:0:
448,192,35847,1,0,0:0:0:0:
64,192,36009,1,8,0:0:0:0:
192,192,36009,1,0,0:0:0:0:
448,192,36009,1,0,0:0:0:0:
320,192,36171,1,0,0:0:0:0:
448,192,36171,1,0,0:0:0:0:
64,192,36334,1,2,0:0:0:0:
448,192,36334,1,0,0:0:0:0:
64,192,36496,1,0,0:0:0:0:
192,192,36496,1,0,0:0:0:0:
320,192,36577,1,2,0:0:0:0:
448,192,36577,1,0,0:0:0:0:
64,192,36658,1,8,0:0:0:0:
192,192,36658,1,0,0:0:0:0:
64,192,36820,1,2,0:0:0:0:
448,192,36820,1,0,0:0:0:0:
192,192,36901,1,8,0:0:0:0:
320,192,36901,1,0,0:0:0:0:
64,192,36982,1,2,0:0:0:0:
448,192,36982,1,0,0:0:0:0:
320,192,37063,1,8,0:0:0:0:
64,192,37144,1,2,0:0:0:0:
192,192,37144,1,0,0:0:0:0:
320,192,37225,1,2,0:0:0:0:
448,192,37225,1,0,0:0:0:0:
64,192,37306,1,8,0:0:0:0:
192,192,37306,1,0,0:0:0:0:
64,192,37469,1,8,0:0:0:0:
192,192,37469,1,0,0:0:0:0:
320,192,37550,1,8,0:0:0:0:
64,192,37631,1,2,0:0:0:0:
192,192,37631,1,4,0:0:0:0:
448,192,37631,1,0,0:0:0:0:
448,192,37712,1,0,0:0:0:0:
192,192,37793,1,2,0:0:0:0:
320,192,37793,1,0,0:0:0:0:
64,192,37874,1,0,0:0:0:0:
192,192,37955,1,8,0:0:0:0:
320,192,37955,1,0,0:0:0:0:
448,192,37955,1,0,0:0:0:0:
64,192,38117,1,0,0:0:0:0:
448,192,38117,1,0,0:0:0:0:
64,192,38198,1,0,0:0:0:0:
192,192,38279,1,0,0:0:0:0:
320,192,38279,1,0,0:0:0:0:
448,192,38361,1,0,0:0:0:0:
64,192,38442,1,2,0:0:0:0:
320,192,38442,1,0,0:0:0:0:
64,192,38604,1,8,0:0:0:0:
192,192,38604,1,0,0:0:0:0:
448,192,38604,1,0,0:0:0:0:
448,192,38685,1,0,0:0:0:0:
64,192,38766,1,0,0:0:0:0:
320,192,38766,1,0,0:0:0:0:
192,192,38928,1,2,0:0:0:0:
320,192,38928,1,0,0:0:0:0:
64,192,39090,1,2,0:0:0:0:
448,192,39090,1,0,0:0:0:0:
64,192,39171,1,0,0:0:0:0:
192,192,39252,1,8,0:0:0:0:
320,192,39252,1,0,0:0:0:0:
448,192,39252,1,0,0:0:0:0:
64,192,39415,1,0,0:0:0:0:
192,192,39415,1,0,0:0:0:0:
320,192,39496,1,2,0:0:0:0:
448,192,39496,1,0,0:0:0:0:
64,192,39577,1,0,0:0:0:0:
192,192,39577,1,0,0:0:0:0:
192,192,39658,1,0,0:0:0:0:
320,192,39739,1,2,0:0:0:0:
448,192,39739,1,0,0:0:0:0:
64,192,39901,1,8,0:0:0:0:
192,192,39901,1,0,0:0:0:0:
320,192,39901,1,0,0:0:0:0:
64,192,39982,1,0,0:0:0:0:
192,192,40063,1,0,0:0:0:0:
448,192,40063,1,0,0:0:0:0:
320,192,40144,1,2,0:0:0:0:
64,192,40225,1,2,0:0:0:0:
192,192,40225,1,4,0:0:0:0:
448,192,40225,1,0,0:0:0:0:
320,192,40306,1,0,0:0:0:0:
64,192,40388,1,2,0:0:0:0:
320,192,40388,1,0,0:0:0:0:
192,192,40550,1,8,0:0:0:0:
320,192,40550,1,0,0:0:0:0:
448,192,40550,1,0,0:0:0:0:
192,192,40631,1,0,0:0:0:0:
64,192,40712,1,2,0:0:0:0:
448,192,40712,1,8,0:0:0:0:
320,192,40793,1,0,0:0:0:0:
64,192,40874,1,8,0:0:0:0:
192,192,40874,1,0,0:0:0:0:
448,192,40874,1,0,0:0:0:0:
320,192,40955,1,0,0:0:0:0:
64,192,41036,1,2,0:0:0:0:
192,192,41036,1,8,0:0:0:0:
448,192,41036,1,0,0:0:0:0:
64,192,41198,1,8,0:0:0:0:
320,192,41198,1,0,0:0:0:0:
448,192,41198,1,0,0:0:0:0:
320,192,41279,1,0,0:0:0:0:
64,192,41361,1,2,0:0:0:0:
192,192,41361,1,8,0:0:0:0:
448,192,41361,1,0,0:0:0:0:
64,192,41523,1,2,0:0:0:0:
320,192,41523,1,4,0:0:0:0:
448,192,41523,1,8,0:0:0:0:
64,192,41604,1,2,0:0:0:0:
192,192,41604,1,0,0:0:0:0:
320,192,41685,1,8,0:0:0:0:
448,192,41685,1,0,0:0:0:0:
64,192,41847,1,8,0:0:0:0:
192,192,41847,1,0,0:0:0:0:
320,192,41928,1,2,0:0:0:0:
448,192,41928,1,0,0:0:0:0:
64,192,42009,1,2,0:0:0:0:
192,192,42009,1,8,0:0:0:0:
320,192,42090,1,2,0:0:0:0:
64,192,42171,1,2,0:0:0:0:
192,192,42171,1,8,0:0:0:0:
448,192,42171,1,4,0:0:0:0:
64,192,42334,1,2,0:0:0:0:
448,192,42334,1,8,0:0:0:0:
192,192,42415,1,2,0:0:0:0:
320,192,42415,1,0,0:0:0:0:
64,192,42496,1,8,0:0:0:0:
448,192,42496,1,2,0:0:0:0:
192,192,42577,1,8,0:0:0:0:
320,192,42577,1,2,0:0:0:0:
64,192,42658,1,8,0:0:0:0:
448,192,42658,1,2,0:0:0:0:
192,192,42739,1,10,0:0:0:0:
64,192,42820,1,2,0:0:0:0:
320,192,42820,1,4,0:0:0:0:
448,192,42820,1,0,0:0:0:0:
64,192,43793,128,0,43874:0:0:0:100:P5_002.wav
192,192,43955,128,0,44036:0:0:0:100:P5_003.wav
320,192,44117,128,0,44198:0:0:0:100:P5_004.wav
320,192,44279,1,0,0:0:0:100:P5_000.wav
448,192,44442,128,0,44523:0:0:0:100:P5_009.wav
448,192,44604,1,0,0:0:0:100:P5_000.wav
320,192,44766,128,0,44847:0:0:0:100:P5_003.wav
320,192,44928,1,0,0:0:0:100:P5_000.wav
192,192,45090,128,0,45171:0:0:0:100:P5_002.wav
64,192,46388,128,0,46469:0:0:0:100:P5_004.wav
192,192,46550,128,0,46631:0:0:0:100:P5_005.wav
320,192,46712,128,0,46793:0:0:0:100:P5_007.wav
320,192,46874,1,0,0:0:0:100:P5_001.wav
448,192,47036,128,0,47117:0:0:0:100:P5_012.wav
448,192,47198,1,0,0:0:0:100:P5_001.wav
320,192,47361,128,0,47442:0:0:0:100:P5_005.wav
320,192,47523,1,0,0:0:0:100:P5_001.wav
192,192,47685,128,0,47766:0:0:0:100:P5_004.wav
64,192,48982,128,0,49063:0:0:0:100:P5_004.wav
192,192,49144,128,0,49225:0:0:0:100:P5_005.wav
320,192,49306,128,0,49388:0:0:0:100:P5_007.wav
320,192,49469,1,0,0:0:0:100:P5_000.wav
448,192,49631,128,0,49712:0:0:0:100:P5_009.wav
448,192,49793,1,0,0:0:0:100:P5_000.wav
320,192,49955,128,0,50036:0:0:0:100:P5_004.wav
320,192,50117,1,0,0:0:0:100:P5_000.wav
64,192,50279,128,0,50361:0:0:0:100:P5_002.wav
64,192,51415,128,0,51496:0:0:0:100:P5_007.wav
192,192,51577,128,0,51658:0:0:0:100:P5_009.wav
320,192,51739,128,0,51820:0:0:0:100:P5_010.wav
448,192,51901,128,0,51982:0:0:0:100:P5_012.wav
448,192,52063,1,0,0:0:0:100:P5_001.wav
320,192,52225,128,0,52306:0:0:0:100:P5_005.wav
320,192,52388,1,0,0:0:0:100:P5_001.wav
192,192,52550,128,0,52631:0:0:0:100:P5_004.wav
192,192,52712,1,0,0:0:0:100:P5_001.wav
320,192,52874,128,0,52955:0:0:0:100:P5_005.wav
64,192,53198,1,2,0:0:0:0:
192,192,53198,1,0,0:0:0:0:
448,192,53847,1,2,0:0:0:0:
64,192,54171,128,0,54252:0:0:0:100:P5_002.wav
192,192,54334,128,0,54415:0:0:0:100:P5_003.wav
320,192,54496,128,2,54577:0:0:0:0:
320,192,54658,1,0,0:0:0:100:P5_000.wav
448,192,54820,128,0,54901:0:0:0:100:P5_009.wav
448,192,54982,1,0,0:0:0:100:P5_000.wav
64,192,55144,128,2,55225:0:0:0:0:
64,192,55306,1,0,0:0:0:100:P5_000.wav
192,192,55469,128,0,55550:0:0:0:100:P5_003.wav
448,192,55793,1,2,0:0:0:0:
320,192,56442,1,2,0:0:0:0:
64,192,56766,128,0,56847:0:0:0:100:P5_004.wav
192,192,56928,128,0,57009:0:0:0:100:P5_005.wav
320,192,57090,128,2,57171:0:0:0:0:
320,192,57252,1,0,0:0:0:100:P5_001.wav
448,192,57415,128,0,57496:0:0:0:100:P5_012.wav
448,192,57577,1,0,0:0:0:100:P5_001.wav
192,192,57739,128,2,57820:0:0:0:0:
192,192,57901,1,0,0:0:0:100:P5_001.wav
320,192,58063,128,0,58144:0:0:0:100:P5_005.wav
64,192,58388,1,2,0:0:0:0:
448,192,58712,1,2,0:0:0:0:
320,192,59036,1,2,0:0:0:0:
64,192,59361,128,2,59442:0:0:0:0:
192,192,59523,128,0,59604:0:0:0:100:P5_006.wav
320,192,59685,128,2,59766:0:0:0:0:
320,192,59847,128,0,59928:0:0:0:100:P5_004.wav
448,192,60009,128,2,60090:0:0:0:0:
448,192,60171,128,0,60252:0:0:0:100:P5_004.wav
64,192,60334,128,2,60415:0:0:0:0:
64,192,60496,128,0,60577:0:0:0:100:P5_004.wav
320,192,60658,128,2,60739:0:0:0:0:
192,192,60982,1,2,0:0:0:0:
448,192,61144,1,2,0:0:0:0:
64,192,61306,1,2,0:0:0:0:
192,192,61306,1,0,0:0:0:0:
320,192,61469,1,2,0:0:0:0:
448,192,61469,1,0,0:0:0:0:
64,192,61631,1,2,0:0:0:0:
320,192,61631,1,0,0:0:0:0:
64,192,61793,1,2,0:0:0:0:
448,192,61793,1,0,0:0:0:0:
192,192,61955,1,2,0:0:0:0:
320,192,61955,1,0,0:0:0:100:P5_013.wav
192,192,62117,1,2,0:0:0:0:
64,192,62117,1,0,0:0:0:100:P5_014.wav
64,192,62279,1,0,0:0:0:100:P5_015.wav
448,192,62279,1,0,0:0:0:0:
320,192,62361,1,0,0:0:0:0:
192,192,62442,1,0,0:0:0:100:P5_009.wav
448,192,62442,1,0,0:0:0:0:
320,192,62523,1,0,0:0:0:0:
64,192,62604,1,0,0:0:0:50:LR_Snare Drum.wav
192,192,62604,1,0,0:0:0:100:P5_013.wav
448,192,62685,1,0,0:0:0:50:LR_Snare Drum.wav
192,192,62766,1,0,0:0:0:50:LR_Snare Drum.wav
320,192,62766,1,0,0:0:0:100:P5_009.wav
64,192,62847,1,0,0:0:0:50:LR_Snare Drum.wav
448,192,62928,1,0,0:0:0:50:LR_Snare Drum 3.wav
320,192,62982,1,0,0:0:0:0:
192,192,63036,1,0,0:0:0:0:
448,192,63090,1,0,0:0:0:50:LR_Snare Drum 3.wav
64,192,63144,1,0,0:0:0:0:
192,192,63198,1,0,0:0:0:0:
320,192,63252,1,0,0:0:0:0:
64,192,63306,1,0,0:0:0:0:
448,192,63361,1,0,0:0:0:0:
320,192,63415,1,0,0:0:0:0:
192,192,63469,1,0,0:0:0:0:
448,192,63523,1,0,0:0:0:0:
64,192,63577,1,2,0:0:0:0:
192,192,63577,1,0,0:0:0:70:CC_002.wav
64,192,64063,1,2,0:0:0:0:
320,192,64063,1,0,0:0:0:70:CC_002.wav
448,192,64063,1,0,0:0:0:100:P2_002.wav
64,192,64388,1,0,0:0:0:0:
192,192,64428,1,0,0:0:0:0:
320,192,64469,1,0,0:0:0:0:
448,192,64509,1,0,0:0:0:0:
64,192,64550,1,0,0:0:0:0:
192,192,64590,1,0,0:0:0:0:
448,192,64631,1,0,0:0:0:0:
320,192,64671,1,0,0:0:0:0:
192,192,64712,1,0,0:0:0:0:
64,192,64752,1,0,0:0:0:0:
448,192,64793,1,0,0:0:0:0:
320,192,64834,1,0,0:0:0:0:
64,192,64874,1,2,0:0:0:0:
192,192,64874,1,0,0:0:0:70:CC_002.wav
64,192,65361,1,2,0:0:0:0:
192,192,65361,1,0,0:0:0:70:CC_002.wav
448,192,65361,1,0,0:0:0:100:P2_006.wav
448,192,65685,1,0,0:0:0:0:
320,192,65725,1,0,0:0:0:0:
192,192,65766,1,0,0:0:0:0:
64,192,65806,1,0,0:0:0:0:
448,192,65847,1,0,0:0:0:0:
320,192,65888,1,0,0:0:0:0:
64,192,65928,1,0,0:0:0:0:
192,192,65969,1,0,0:0:0:0:
320,192,66009,1,0,0:0:0:0:
448,192,66050,1,0,0:0:0:0:
64,192,66090,1,0,0:0:0:0:
192,192,66131,1,0,0:0:0:0:
320,192,66171,1,2,0:0:0:0:
448,192,66171,1,0,0:0:0:70:CC_002.wav
64,192,66658,1,2,0:0:0:0:
320,192,66658,1,0,0:0:0:70:CC_002.wav
448,192,66658,1,0,0:0:0:100:P2_010.wav
64,192,66982,1,0,0:0:0:0:
192,192,67023,1,0,0:0:0:0:
448,192,67063,1,0,0:0:0:0:
320,192,67104,1,0,0:0:0:0:
64,192,67144,1,0,0:0:0:0:
192,192,67185,1,0,0:0:0:0:
320,192,67225,1,0,0:0:0:0:
448,192,67266,1,0,0:0:0:0:
64,192,67306,1,0,0:0:0:0:
192,192,67347,1,0,0:0:0:0:
448,192,67388,1,0,0:0:0:0:
320,192,67428,1,0,0:0:0:0:
64,192,67469,1,6,0:0:0:0:
192,192,67469,1,0,0:0:0:100:P2_012.wav
320,192,67550,1,0,0:0:0:0:
64,192,67631,1,0,0:0:0:0:
320,192,67712,1,0,0:0:0:0:
192,192,67793,1,0,0:0:0:0:
448,192,67874,1,0,0:0:0:0:
64,192,67955,1,0,0:0:0:0:
320,192,68036,1,0,0:0:0:0:
64,192,68117,1,6,0:0:0:0:
192,192,68117,1,0,0:0:0:100:P2_014.wav
448,192,68117,1,0,0:0:0:100:P2_015.wav
320,192,68198,1,0,0:0:0:0:
64,192,68279,1,0,0:0:0:0:
448,192,68279,1,0,0:0:0:0:
192,192,68361,1,0,0:0:0:0:
320,192,68442,1,0,0:0:0:0:
448,192,68442,1,0,0:0:0:0:
64,192,68523,1,0,0:0:0:0:
192,192,68604,1,0,0:0:0:0:
320,192,68604,1,0,0:0:0:0:
448,192,68685,1,0,0:0:0:0:
64,192,68766,1,2,0:0:0:0:
192,192,68766,1,0,0:0:0:70:CC_002.wav
320,192,68766,1,0,0:0:0:100:P2_016.wav
64,192,69252,1,2,0:0:0:0:
192,192,69252,1,0,0:0:0:70:CC_002.wav
448,192,69252,1,0,0:0:0:100:P2_018.wav
448,192,69577,1,0,0:0:0:0:
320,192,69617,1,0,0:0:0:0:
192,192,69658,1,0,0:0:0:0:
64,192,69698,1,0,0:0:0:0:
448,192,69739,1,0,0:0:0:0:
320,192,69779,1,0,0:0:0:0:
64,192,69820,1,0,0:0:0:0:
192,192,69861,1,0,0:0:0:0:
320,192,69901,1,0,0:0:0:0:
448,192,69942,1,0,0:0:0:0:
64,192,69982,1,0,0:0:0:0:
192,192,70023,1,0,0:0:0:0:
320,192,70063,1,2,0:0:0:0:
448,192,70063,1,0,0:0:0:70:CC_002.wav
64,192,70550,1,2,0:0:0:0:
320,192,70550,1,0,0:0:0:70:CC_002.wav
448,192,70550,1,0,0:0:0:100:P2_022.wav
64,192,70874,1,0,0:0:0:0:
192,192,70915,1,0,0:0:0:0:
320,192,70955,1,0,0:0:0:0:
448,192,70996,1,0,0:0:0:0:
64,192,71036,1,0,0:0:0:0:
192,192,71077,1,0,0:0:0:0:
448,192,71117,1,0,0:0:0:0:
320,192,71158,1,0,0:0:0:0:
192,192,71198,1,0,0:0:0:0:
64,192,71239,1,0,0:0:0:0:
448,192,71279,1,0,0:0:0:0:
320,192,71320,1,0,0:0:0:0:
64,192,71361,1,2,0:0:0:0:
192,192,71361,1,0,0:0:0:70:CC_002.wav
64,192,71847,1,2,0:0:0:0:
192,192,71847,1,0,0:0:0:70:CC_002.wav
448,192,71847,1,0,0:0:0:100:P2_026.wav
448,192,72171,1,0,0:0:0:0:
320,192,72212,1,0,0:0:0:0:
64,192,72252,1,0,0:0:0:0:
192,192,72293,1,0,0:0:0:0:
448,192,72334,1,0,0:0:0:0:
320,192,72374,1,0,0:0:0:0:
192,192,72415,1,0,0:0:0:0:
64,192,72455,1,0,0:0:0:0:
448,192,72496,1,0,0:0:0:0:
320,192,72536,1,0,0:0:0:0:
64,192,72577,1,0,0:0:0:0:
192,192,72617,1,0,0:0:0:0:
320,192,72658,1,6,0:0:0:0:
448,192,72658,1,0,0:0:0:100:P2_028.wav
64,192,72739,1,0,0:0:0:0:
320,192,72820,1,0,0:0:0:0:
192,192,72901,1,0,0:0:0:0:
64,192,72982,1,0,0:0:0:0:
320,192,73063,1,0,0:0:0:0:
448,192,73144,1,0,0:0:0:0:
192,192,73225,1,0,0:0:0:0:
320,192,73306,1,6,0:0:0:0:
448,192,73306,1,0,0:0:0:100:P2_030.wav
64,192,73388,1,2,0:0:0:0:
192,192,73388,1,0,0:0:0:0:
320,192,73469,1,2,0:0:0:0:
448,192,73469,1,0,0:0:0:0:
64,192,73550,1,2,0:0:0:0:
192,192,73550,1,0,0:0:0:0:
320,192,73631,1,2,0:0:0:0:
448,192,73631,1,0,0:0:0:0:
64,192,73712,1,2,0:0:0:0:
192,192,73712,1,0,0:0:0:0:
320,192,73793,1,2,0:0:0:0:
448,192,73793,1,0,0:0:0:0:
192,192,73874,1,2,0:0:0:0:
64,192,73955,1,6,0:0:0:0:
320,192,73955,1,0,0:0:0:100:P3_000.wav
448,192,73955,1,0,0:0:0:100:P3_001.wav
320,192,74117,1,2,0:0:0:0:
64,192,74279,1,2,0:0:0:0:
192,192,74279,1,0,0:0:0:0:
64,192,74442,1,2,0:0:0:0:
192,192,74604,1,2,0:0:0:0:
320,192,74604,1,0,0:0:0:0:
320,192,74766,1,2,0:0:0:0:
64,192,74928,1,2,0:0:0:0:
448,192,74928,1,0,0:0:0:0:
64,192,75090,1,2,0:0:0:0:
320,192,75252,1,2,0:0:0:0:
448,192,75252,1,0,0:0:0:100:P3_002.wav
448,192,75415,1,2,0:0:0:0:
192,192,75577,1,2,0:0:0:0:
320,192,75577,1,0,0:0:0:0:
192,192,75739,1,2,0:0:0:0:
64,192,75901,1,2,0:0:0:0:
448,192,75901,1,0,0:0:0:100:P3_004.wav
64,192,76063,1,2,0:0:0:0:
192,192,76225,1,2,0:0:0:0:
320,192,76225,1,0,0:0:0:0:
64,192,76388,1,2,0:0:0:0:
320,192,76388,1,8,0:0:0:0:
448,192,76388,1,0,0:0:0:0:
64,192,76550,1,2,0:0:0:0:
192,192,76550,1,0,0:0:0:100:P3_005.wav
192,192,76712,1,2,0:0:0:0:
64,192,76874,1,2,0:0:0:0:
320,192,76874,1,8,0:0:0:0:
448,192,76874,1,0,0:0:0:0:
320,192,77036,1,2,0:0:0:0:
192,192,77198,1,2,0:0:0:0:
448,192,77198,1,0,0:0:0:100:P3_007.wav
192,192,77361,1,2,0:0:0:0:
64,192,77523,1,2,0:0:0:0:
448,192,77523,1,0,0:0:0:0:
64,192,77685,1,2,0:0:0:0:
320,192,77685,1,8,0:0:0:0:
448,192,77685,1,0,0:0:0:0:
192,192,77847,1,2,0:0:0:0:
320,192,77847,1,0,0:0:0:100:P3_009.wav
192,192,78009,1,2,0:0:0:0:
64,192,78171,1,2,0:0:0:0:
320,192,78171,1,8,0:0:0:0:
448,192,78171,1,0,0:0:0:0:
64,192,78334,1,2,0:0:0:0:
192,192,78334,1,8,0:0:0:0:
320,192,78415,1,8,0:0:0:0:
448,192,78415,1,0,0:0:0:0:
64,192,78496,1,10,0:0:0:0:
192,192,78496,1,0,0:0:0:100:P3_011.wav
320,192,78658,1,2,0:0:0:0:
448,192,78658,1,0,0:0:0:0:
64,192,78739,1,8,0:0:0:0:
192,192,78739,1,0,0:0:0:0:
320,192,78820,1,2,0:0:0:0:
448,192,78820,1,0,0:0:0:0:
64,192,78982,1,2,0:0:0:0:
192,192,78982,1,8,0:0:0:0:
448,192,78982,1,0,0:0:0:0:
64,192,79144,1,6,0:0:0:0:
320,192,79144,1,0,0:0:0:100:P3_012.wav
448,192,79144,1,0,0:0:0:100:P3_013.wav
192,192,79225,1,0,0:0:0:0:
64,192,79306,1,2,0:0:0:0:
192,192,79388,1,0,0:0:0:0:
64,192,79469,1,2,0:0:0:0:
448,192,79469,1,8,0:0:0:0:
320,192,79550,1,0,0:0:0:0:
448,192,79631,1,2,0:0:0:0:
320,192,79712,1,0,0:0:0:0:
448,192,79793,1,2,0:0:0:0:
64,192,79874,1,0,0:0:0:0:
320,192,79955,1,2,0:0:0:0:
192,192,80036,1,0,0:0:0:0:
448,192,80117,1,2,0:0:0:0:
64,192,80198,1,0,0:0:0:0:
192,192,80279,1,2,0:0:0:0:
448,192,80279,1,8,0:0:0:0:
320,192,80361,1,0,0:0:0:0:
64,192,80442,1,6,0:0:0:0:
192,192,80442,1,0,0:0:0:100:P3_014.wav
448,192,80442,1,0,0:0:0:100:P3_015.wav
320,192,80523,1,0,0:0:0:0:
64,192,80604,1,2,0:0:0:0:
192,192,80685,1,0,0:0:0:0:
320,192,80766,1,2,0:0:0:0:
448,192,80766,1,8,0:0:0:0:
64,192,80847,1,0,0:0:0:0:
192,192,80928,1,2,0:0:0:0:
448,192,81009,1,0,0:0:0:0:
64,192,81090,1,10,0:0:0:0:
320,192,81090,1,0,0:0:0:100:P3_016.wav
192,192,81171,1,0,0:0:0:0:
320,192,81252,1,2,0:0:0:0:
448,192,81252,1,0,0:0:0:0:
64,192,81334,1,8,0:0:0:0:
192,192,81334,1,0,0:0:0:0:
320,192,81415,1,2,0:0:0:0:
448,192,81415,1,8,0:0:0:0:
192,192,81496,1,0,0:0:0:0:
64,192,81577,1,2,0:0:0:0:
448,192,81577,1,8,0:0:0:0:
320,192,81658,1,0,0:0:0:0:
64,192,81739,1,6,0:0:0:0:
192,192,81739,1,0,0:0:0:100:P3_017.wav
448,192,81739,1,0,0:0:0:100:P3_018.wav
320,192,81820,1,2,0:0:0:0:
64,192,81901,1,2,0:0:0:0:
192,192,81901,1,0,0:0:0:0:
448,192,81982,1,2,0:0:0:0:
64,192,82063,1,2,0:0:0:0:
192,192,82063,1,8,0:0:0:0:
320,192,82063,1,0,0:0:0:0:
448,192,82144,1,2,0:0:0:0:
192,192,82225,1,2,0:0:0:0:
320,192,82225,1,0,0:0:0:0:
64,192,82306,1,2,0:0:0:0:
448,192,82306,1,0,0:0:0:0:
192,192,82388,1,2,0:0:0:0:
320,192,82388,1,0,0:0:0:0:
64,192,82469,1,2,0:0:0:0:
448,192,82469,1,0,0:0:0:0:
192,192,82550,1,2,0:0:0:0:
320,192,82550,1,0,0:0:0:0:
64,192,82631,1,2,0:0:0:0:
192,192,82712,1,2,0:0:0:0:
320,192,82712,1,8,0:0:0:0:
448,192,82712,1,0,0:0:0:0:
64,192,82793,1,2,0:0:0:0:
448,192,82874,1,2,0:0:0:0:
320,192,82874,1,0,0:0:0:0:
192,192,82955,1,2,0:0:0:0:
448,192,83036,1,2,0:0:0:0:
64,192,83036,1,4,0:0:0:0:
320,192,83036,1,0,0:0:0:100:P3_019.wav
192,192,83117,1,2,0:0:0:0:
64,192,83198,1,2,0:0:0:0:
320,192,83198,1,0,0:0:0:0:
448,192,83279,1,2,0:0:0:0:
192,192,83361,1,2,0:0:0:0:
64,192,83361,1,4,0:0:0:0:
320,192,83361,1,8,0:0:0:0:
448,192,83442,1,2,0:0:0:0:
192,192,83523,1,10,0:0:0:0:
64,192,83523,1,4,0:0:0:0:
320,192,83604,1,14,0:0:0:0:
448,192,83685,1,8,0:0:0:0:
64,192,83685,1,4,0:0:0:0:
192,192,83685,1,2,0:0:0:0:
320,192,83766,1,2,0:0:0:0:
192,192,83847,1,10,0:0:0:0:
448,192,83847,1,4,0:0:0:0:
64,192,83928,1,14,0:0:0:0:
320,192,84009,1,2,0:0:0:0:
448,192,84009,1,4,0:0:0:0:
192,192,84009,1,8,0:0:0:0:
64,192,84090,1,2,0:0:0:0:
448,192,84171,1,10,0:0:0:0:
320,192,84171,1,4,0:0:0:0:
192,192,84252,1,2,0:0:0:0:
64,192,84252,1,0,0:0:0:0:
448,192,84334,1,6,0:0:0:0:
320,192,84334,1,0,0:0:0:100:P3_021.wav
64,192,84374,1,2,0:0:0:0:
192,192,84415,1,2,0:0:0:0:
448,192,84455,1,2,0:0:0:0:
320,192,84496,1,2,0:0:0:0:
64,192,84536,1,2,0:0:0:0:
192,192,84577,1,2,0:0:0:0:
448,192,84617,1,2,0:0:0:0:
320,192,84658,1,2,0:0:0:0:
64,192,84698,1,2,0:0:0:0:
192,192,84739,1,2,0:0:0:0:
448,192,84779,1,2,0:0:0:0:
320,192,84820,1,2,0:0:0:0:
64,192,84861,1,2,0:0:0:0:
192,192,84901,1,2,0:0:0:0:
448,192,84942,1,2,0:0:0:0:
320,192,84982,1,2,0:0:0:0:
64,192,84982,1,0,0:0:0:0:
192,192,85023,1,2,0:0:0:0:
448,192,85063,1,2,0:0:0:0:
320,192,85104,1,2,0:0:0:0:
64,192,85144,1,2,0:0:0:0:
192,192,85185,1,2,0:0:0:0:
448,192,85225,1,2,0:0:0:0:
320,192,85266,1,2,0:0:0:0:
64,192,85306,1,2,0:0:0:0:
192,192,85347,1,2,0:0:0:0:
448,192,85388,1,2,0:0:0:0:
320,192,85428,1,2,0:0:0:0:
64,192,85469,1,2,0:0:0:0:
192,192,85509,1,2,0:0:0:0:
448,192,85550,1,2,0:0:0:0:
320,192,85590,1,2,0:0:0:0:
192,192,85631,1,2,0:0:0:0:
64,192,85631,1,4,0:0:0:0:
448,192,86117,128,0,86766:0:0:0:0:
64,192,86604,128,0,86847:0:0:0:0:
192,192,86766,128,0,86928:0:0:0:0:
64,192,86928,1,4,0:0:0:0:
320,192,86928,1,2,0:0:0:0:
448,192,86928,1,0,0:0:0:0:
192,192,87090,1,2,0:0:0:0:
448,192,87090,1,0,0:0:0:0:
64,192,87252,1,8,0:0:0:0:
192,192,87252,1,0,0:0:0:0:
320,192,87252,1,0,0:0:0:0:
448,192,87334,1,0,0:0:0:0:
320,192,87415,1,0,0:0:0:0:
64,192,87496,1,0,0:0:0:0:
192,192,87577,1,0,0:0:0:0:
448,192,87577,1,0,0:0:0:0:
192,192,87739,1,2,0:0:0:0:
320,192,87739,1,0,0:0:0:0:
64,192,87901,1,8,0:0:0:0:
320,192,87901,1,0,0:0:0:0:
448,192,87901,1,0,0:0:0:0:
192,192,88063,1,0,0:0:0:0:
448,192,88144,1,0,0:0:0:0:
64,192,88225,1,2,0:0:0:0:
320,192,88225,1,0,0:0:0:0:
64,192,88388,1,2,0:0:0:0:
448,192,88388,1,0,0:0:0:0:
192,192,88550,1,8,0:0:0:0:
320,192,88550,1,0,0:0:0:0:
448,192,88550,1,0,0:0:0:0:
64,192,88712,1,0,0:0:0:0:
320,192,88793,1,2,0:0:0:0:
448,192,88793,1,0,0:0:0:0:
320,192,88874,1,2,0:0:0:0:
448,192,88874,1,0,0:0:0:0:
64,192,89036,1,2,0:0:0:0:
192,192,89036,1,0,0:0:0:0:
64,192,89198,1,8,0:0:0:0:
320,192,89198,1,0,0:0:0:0:
448,192,89198,1,0,0:0:0:0:
192,192,89361,1,0,0:0:0:0:
320,192,89442,1,2,0:0:0:0:
448,192,89442,1,0,0:0:0:0:
320,192,89523,1,2,0:0:0:0:
448,192,89523,1,0,0:0:0:0:
64,192,89685,1,2,0:0:0:0:
192,192,89685,1,0,0:0:0:100:P6_005.wav
192,192,89847,1,8,0:0:0:0:
320,192,89847,1,0,0:0:0:100:P6_006.wav
448,192,89847,1,0,0:0:0:0:
64,192,90009,1,0,0:0:0:100:P6_007.wav
320,192,90090,1,2,0:0:0:0:
448,192,90090,1,0,0:0:0:0:
320,192,90171,1,2,0:0:0:0:
448,192,90171,1,0,0:0:0:0:
64,192,90334,1,2,0:0:0:0:
192,192,90334,1,0,0:0:0:100:P6_008.wav
64,192,90496,1,8,0:0:0:0:
320,192,90496,1,0,0:0:0:100:P6_009.wav
448,192,90496,1,0,0:0:0:0:
192,192,90658,1,0,0:0:0:100:P6_010.wav
320,192,90739,1,0,0:0:0:0:
64,192,90820,1,2,0:0:0:0:
448,192,90820,1,0,0:0:0:0:
320,192,90982,1,0,0:0:0:0:
64,192,91063,1,2,0:0:0:0:
192,192,91063,1,0,0:0:0:0:
320,192,91144,1,8,0:0:0:0:
448,192,91144,1,0,0:0:0:0:
64,192,91306,1,2,0:0:0:0:
192,192,91306,1,0,0:0:0:0:
320,192,91388,1,8,0:0:0:0:
448,192,91388,1,0,0:0:0:0:
64,192,91469,1,2,0:0:0:0:
192,192,91469,1,0,0:0:0:0:
320,192,91550,1,8,0:0:0:0:
448,192,91550,1,0,0:0:0:0:
64,192,91631,1,2,0:0:0:0:
192,192,91631,1,0,0:0:0:0:
64,192,91712,1,2,0:0:0:0:
192,192,91712,1,0,0:0:0:0:
320,192,91793,1,8,0:0:0:0:
448,192,91793,1,0,0:0:0:0:
64,192,91955,1,8,0:0:0:0:
448,192,91955,1,0,0:0:0:0:
192,192,92036,1,8,0:0:0:0:
320,192,92036,1,0,0:0:0:0:
64,192,92117,1,2,0:0:0:0:
448,192,92117,1,0,0:0:0:0:
192,192,92279,1,2,0:0:0:0:
448,192,92279,1,0,0:0:0:0:
64,192,92442,1,8,0:0:0:0:
192,192,92442,1,0,0:0:0:0:
320,192,92442,1,0,0:0:0:0:
448,192,92604,1,0,0:0:0:0:
64,192,92685,1,0,0:0:0:0:
192,192,92766,1,0,0:0:0:0:
320,192,92766,1,0,0:0:0:0:
192,192,92928,1,2,0:0:0:0:
448,192,92928,1,0,0:0:0:0:
64,192,93090,1,8,0:0:0:0:
320,192,93090,1,0,0:0:0:0:
448,192,93090,1,0,0:0:0:0:
192,192,93252,1,0,0:0:0:0:
320,192,93334,1,0,0:0:0:0:
64,192,93415,1,2,0:0:0:0:
448,192,93415,1,0,0:0:0:0:
192,192,93577,1,2,0:0:0:0:
448,192,93577,1,0,0:0:0:0:
64,192,93739,1,8,0:0:0:0:
192,192,93739,1,0,0:0:0:0:
320,192,93739,1,0,0:0:0:0:
448,192,93901,1,0,0:0:0:0:
64,192,93982,1,2,0:0:0:0:
192,192,93982,1,0,0:0:0:0:
64,192,94063,1,2,0:0:0:0:
192,192,94063,1,0,0:0:0:0:
320,192,94225,1,2,0:0:0:0:
448,192,94225,1,0,0:0:0:0:
64,192,94388,1,8,0:0:0:0:
192,192,94388,1,0,0:0:0:0:
448,192,94388,1,0,0:0:0:0:
320,192,94550,1,0,0:0:0:0:
64,192,94631,1,2,0:0:0:0:
192,192,94631,1,0,0:0:0:0:
64,192,94712,1,2,0:0:0:0:
192,192,94712,1,0,0:0:0:0:
320,192,94874,1,2,0:0:0:0:
448,192,94874,1,0,0:0:0:0:
64,192,95036,1,8,0:0:0:0:
192,192,95036,1,0,0:0:0:0:
320,192,95036,1,0,0:0:0:0:
448,192,95198,1,0,0:0:0:0:
64,192,95279,1,2,0:0:0:0:
192,192,95279,1,0,0:0:0:0:
64,192,95361,1,2,0:0:0:0:
192,192,95361,1,0,0:0:0:0:
192,192,95523,1,2,0:0:0:0:
448,192,95523,1,0,0:0:0:0:
64,192,95685,1,8,0:0:0:0:
320,192,95685,1,0,0:0:0:0:
448,192,95685,1,0,0:0:0:0:
64,192,95847,1,2,0:0:0:0:
192,192,95847,1,0,0:0:0:0:
320,192,95928,1,8,0:0:0:0:
64,192,96009,1,2,0:0:0:0:
192,192,96009,1,4,0:0:0:0:
448,192,96009,1,0,0:0:0:0:
320,192,96090,1,2,0:0:0:0:
64,192,96171,1,8,0:0:0:0:
192,192,96171,1,0,0:0:0:0:
320,192,96252,1,8,0:0:0:0:
448,192,96252,1,0,0:0:0:0:
64,192,96334,1,8,0:0:0:0:
192,192,96334,1,0,0:0:0:0:
320,192,96415,1,8,0:0:0:0:
448,192,96415,1,0,0:0:0:0:
64,192,96496,1,8,0:0:0:0:
192,192,96496,1,0,0:0:0:0:
320,192,96577,1,8,0:0:0:0:
64,192,96658,1,2,0:0:0:0:
192,192,96658,1,4,0:0:0:0:
448,192,96658,1,0,0:0:0:0:
320,192,96739,1,2,0:0:0:0:
64,192,96820,1,8,0:0:0:0:
448,192,96820,1,0,0:0:0:0:
192,192,96901,1,8,0:0:0:0:
320,192,96901,1,0,0:0:0:0:
64,192,96982,1,8,0:0:0:0:
448,192,96982,1,2,0:0:0:0:
192,192,97063,1,0,0:0:0:0:
320,192,97144,1,8,0:0:0:0:
448,192,97144,128,0,97306:0:0:0:0:
64,192,97631,1,4,0:0:0:0:
192,192,97631,1,2,0:0:0:0:
320,192,97631,1,0,0:0:0:0:
448,192,97955,1,0,0:0:0:0:
64,192,98036,1,8,0:0:0:0:
192,192,98036,1,0,0:0:0:0:
320,192,98117,1,8,0:0:0:0:
448,192,98117,1,0,0:0:0:0:
64,192,98198,1,0,0:0:0:0:
320,192,98279,1,8,0:0:0:0:
448,192,98279,1,0,0:0:0:0:
192,192,98361,1,0,0:0:0:0:
64,192,98442,1,0,0:0:0:0:
448,192,98523,1,0,0:0:0:0:
64,192,98604,1,4,0:0:0:0:
192,192,98604,1,2,0:0:0:0:
320,192,98604,1,0,0:0:0:0:
448,192,98685,1,0,0:0:0:0:
64,192,98766,1,2,0:0:0:0:
192,192,98766,1,0,0:0:0:0:
320,192,98847,1,0,0:0:0:0:
192,192,98928,1,8,0:0:0:0:
448,192,98928,1,0,0:0:0:0:
64,192,99009,1,0,0:0:0:0:
320,192,99090,1,2,0:0:0:0:
448,192,99090,1,0,0:0:0:0:
64,192,99171,1,8,0:0:0:0:
192,192,99171,1,0,0:0:0:0:
448,192,99252,1,0,0:0:0:0:
64,192,99334,1,8,0:0:0:0:
320,192,99334,1,0,0:0:0:0:
192,192,99415,1,2,0:0:0:0:
448,192,99415,1,0,0:0:0:0:
64,192,99496,1,0,0:0:0:0:
320,192,99577,1,8,0:0:0:0:
448,192,99577,1,0,0:0:0:0:
192,192,99658,1,0,0:0:0:0:
64,192,99739,1,8,0:0:0:0:
448,192,99739,1,0,0:0:0:0:
320,192,99820,1,8,0:0:0:0:
64,192,99901,1,2,0:0:0:0:
192,192,99901,1,4,0:0:0:0:
448,192,99901,1,0,0:0:0:0:
320,192,99982,1,0,0:0:0:0:
64,192,100063,1,8,0:0:0:0:
192,192,100063,1,0,0:0:0:0:
64,192,100144,1,8,0:0:0:0:
192,192,100144,1,0,0:0:0:0:
320,192,100225,1,8,0:0:0:0:
448,192,100225,1,0,0:0:0:0:
192,192,100306,1,0,0:0:0:0:
64,192,100388,1,4,0:0:0:0:
320,192,100388,1,8,0:0:0:0:
448,192,100388,1,0,0:0:0:0:
192,192,100469,1,0,0:0:0:0:
320,192,100550,1,8,0:0:0:0:
448,192,100550,1,0,0:0:0:0:
320,192,100631,1,8,0:0:0:0:
448,192,100631,1,0,0:0:0:0:
64,192,100712,1,8,0:0:0:0:
192,192,100712,1,0,0:0:0:0:
320,192,100793,1,0,0:0:0:0:
64,192,100874,1,8,0:0:0:0:
192,192,100874,1,2,0:0:0:0:
448,192,100874,1,4,0:0:0:0:
320,192,100955,1,0,0:0:0:0:
64,192,101036,1,8,0:0:0:0:
192,192,101036,1,0,0:0:0:0:
64,192,101117,1,8,0:0:0:0:
192,192,101117,1,0,0:0:0:0:
320,192,101198,1,8,0:0:0:0:
448,192,101198,1,0,0:0:0:0:
192,192,101279,1,0,0:0:0:100:P7_037.wav
64,192,101361,1,10,0:0:0:0:
320,192,101361,1,4,0:0:0:0:
448,192,101361,1,0,0:0:0:100:P7_036.wav
192,192,101442,1,0,0:0:0:100:P7_035.wav
448,192,101523,1,8,0:0:0:0:
320,192,101577,1,0,0:0:0:0:
192,192,101631,1,0,0:0:0:0:
64,192,101685,1,8,0:0:0:0:
448,192,101739,1,0,0:0:0:0:
320,192,101793,1,0,0:0:0:0:
192,192,101847,1,6,0:0:0:0:
64,192,101847,1,0,0:0:0:0:
448,192,101888,1,0,0:0:0:0:
320,192,101928,1,0,0:0:0:0:
64,192,101969,1,0,0:0:0:0:
192,192,102009,1,2,0:0:0:0:
448,192,102050,1,0,0:0:0:0:
320,192,102090,1,2,0:0:0:0:
64,192,102131,1,0,0:0:0:0:
448,192,102171,1,2,0:0:0:0:
192,192,102171,1,0,0:0:0:0:
64,192,102334,1,2,0:0:0:0:
320,192,102334,1,4,0:0:0:0:
448,192,102334,1,0,0:0:0:0:
192,192,102415,1,2,0:0:0:0:
320,192,102496,1,0,0:0:0:0:
448,192,102496,1,0,0:0:0:0:
64,192,102658,1,0,0:0:0:0:
192,192,102820,1,8,0:0:0:0:
320,192,102820,1,0,0:0:0:0:
448,192,102820,1,0,0:0:0:0:
64,192,102982,1,2,0:0:0:0:
192,192,102982,1,0,0:0:0:0:
320,192,103063,1,0,0:0:0:0:
64,192,103144,1,2,0:0:0:0:
448,192,103144,1,0,0:0:0:0:
320,192,103225,1,0,0:0:0:0:
64,192,103306,1,2,0:0:0:0:
192,192,103306,1,0,0:0:0:0:
192,192,103469,1,8,0:0:0:0:
320,192,103469,1,0,0:0:0:0:
448,192,103469,1,0,0:0:0:0:
64,192,103631,1,2,0:0:0:0:
320,192,103631,1,4,0:0:0:0:
448,192,103631,1,0,0:0:0:0:
192,192,103712,1,2,0:0:0:0:
320,192,103793,1,0,0:0:0:0:
448,192,103793,1,0,0:0:0:0:
192,192,103874,1,0,0:0:0:0:
64,192,103955,1,2,0:0:0:0:
320,192,103955,1,0,0:0:0:0:
192,192,104117,1,8,0:0:0:0:
320,192,104117,1,0,0:0:0:0:
448,192,104117,1,0,0:0:0:0:
64,192,104279,1,2,0:0:0:0:
448,192,104279,1,0,0:0:0:0:
320,192,104361,1,0,0:0:0:0:
64,192,104442,1,2,0:0:0:0:
192,192,104442,1,0,0:0:0:0:
320,192,104523,1,8,0:0:0:0:
448,192,104523,1,0,0:0:0:0:
192,192,104604,1,0,0:0:0:0:
64,192,104766,1,8,0:0:0:0:
320,192,104766,1,0,0:0:0:0:
448,192,104766,1,0,0:0:0:0:
64,192,104928,1,2,0:0:0:0:
192,192,104928,1,4,0:0:0:0:
448,192,104928,1,0,0:0:0:0:
320,192,105009,1,2,0:0:0:0:
64,192,105090,1,2,0:0:0:0:
192,192,105090,1,0,0:0:0:0:
320,192,105252,1,2,0:0:0:0:
448,192,105252,1,0,0:0:0:0:
64,192,105334,1,0,0:0:0:0:
192,192,105415,1,8,0:0:0:0:
448,192,105415,1,0,0:0:0:0:
64,192,105496,1,0,0:0:0:0:
192,192,105577,1,2,0:0:0:0:
320,192,105577,1,0,0:0:0:0:
448,192,105658,1,0,0:0:0:0:
64,192,105739,1,2,0:0:0:0:
320,192,105739,1,0,0:0:0:0:
448,192,105820,1,0,0:0:0:0:
192,192,105901,1,2,0:0:0:0:
320,192,105901,1,0,0:0:0:0:
64,192,105982,1,0,0:0:0:0:
192,192,106063,1,8,0:0:0:0:
448,192,106063,1,0,0:0:0:0:
320,192,106144,1,0,0:0:0:0:
64,192,106225,1,2,0:0:0:0:
192,192,106225,1,4,0:0:0:0:
448,192,106225,1,0,0:0:0:0:
320,192,106306,1,2,0:0:0:0:
64,192,106388,1,2,0:0:0:0:
192,192,106388,1,0,0:0:0:0:
448,192,106469,1,0,0:0:0:0:
64,192,106550,1,2,0:0:0:0:
320,192,106550,1,0,0:0:0:0:
64,192,106631,1,2,0:0:0:0:
320,192,106631,1,0,0:0:0:0:
192,192,106712,1,8,0:0:0:0:
448,192,106712,1,0,0:0:0:0:
64,192,106793,1,0,0:0:0:0:
320,192,106874,1,2,0:0:0:0:
448,192,106874,1,0,0:0:0:0:
64,192,106955,1,8,0:0:0:0:
192,192,106955,1,0,0:0:0:0:
320,192,107036,1,2,0:0:0:0:
448,192,107036,1,0,0:0:0:0:
64,192,107117,1,8,0:0:0:0:
192,192,107117,1,0,0:0:0:0:
320,192,107198,1,2,0:0:0:0:
448,192,107198,1,0,0:0:0:0:
192,192,107279,1,2,0:0:0:0:
64,192,107361,1,8,0:0:0:0:
448,192,107361,1,0,0:0:0:0:
320,192,107442,1,2,0:0:0:0:
64,192,107523,1,2,0:0:0:0:
192,192,107523,1,4,0:0:0:0:
448,192,107523,1,0,0:0:0:0:
320,192,107604,1,2,0:0:0:0:
192,192,107685,1,0,0:0:0:0:
448,192,107685,1,0,0:0:0:0:
64,192,107766,1,0,0:0:0:0:
448,192,107847,1,2,0:0:0:0:
192,192,107847,1,0,0:0:0:0:
192,192,107928,1,2,0:0:0:0:
448,192,107928,1,0,0:0:0:0:
64,192,108009,1,8,0:0:0:0:
320,192,108009,1,0,0:0:0:0:
448,192,108090,1,8,0:0:0:0:
64,192,108171,1,2,0:0:0:0:
192,192,108171,1,0,0:0:0:0:
320,192,108252,1,2,0:0:0:0:
448,192,108252,1,0,0:0:0:0:
64,192,108334,1,2,0:0:0:0:
192,192,108334,1,0,0:0:0:0:
320,192,108415,1,2,0:0:0:0:
448,192,108415,1,0,0:0:0:0:
64,192,108496,1,2,0:0:0:0:
192,192,108496,1,0,0:0:0:0:
320,192,108577,1,2,0:0:0:0:
448,192,108577,1,0,0:0:0:0:
64,192,108658,1,8,0:0:0:0:
192,192,108658,1,0,0:0:0:0:
320,192,108739,1,8,0:0:0:0:
64,192,108820,1,2,0:0:0:0:
192,192,108820,1,4,0:0:0:0:
448,192,108820,1,0,0:0:0:0:
320,192,108901,1,2,0:0:0:0:
64,192,108982,1,0,0:0:0:0:
448,192,108982,1,0,0:0:0:0:
192,192,109063,1,0,0:0:0:0:
448,192,109144,1,0,0:0:0:0:
320,192,109185,1,0,0:0:0:0:
64,192,109225,1,0,0:0:0:0:
192,192,109266,1,0,0:0:0:0:
448,192,109306,1,8,0:0:0:0:
320,192,109306,1,0,0:0:0:0:
64,192,109388,1,8,0:0:0:0:
192,192,109388,1,0,0:0:0:0:
448,192,109469,1,2,0:0:0:0:
320,192,109509,1,2,0:0:0:0:
64,192,109550,1,2,0:0:0:0:
192,192,109590,1,2,0:0:0:0:
320,192,109631,1,8,0:0:0:0:
448,192,109631,1,4,0:0:0:0:
64,192,109671,1,0,0:0:0:0:
192,192,109712,1,0,0:0:0:0:
448,192,109752,1,0,0:0:0:0:
320,192,109793,1,2,0:0:0:0:
64,192,109834,1,0,0:0:0:0:
192,192,109874,1,0,0:0:0:0:
448,192,109915,1,0,0:0:0:0:
320,192,109955,1,8,0:0:0:0:
64,192,109996,1,0,0:0:0:0:
192,192,110036,1,2,0:0:0:0:
448,192,110077,1,0,0:0:0:0:
64,192,110117,1,8,0:0:0:0:
320,192,110117,1,4,0:0:0:0:
192,192,110442,1,8,0:0:0:0:
320,192,110442,1,2,0:0:0:0:
448,192,110442,1,4,0:0:0:0:
192,192,110604,1,8,0:0:0:0:
320,192,110604,1,2,0:0:0:0:
448,192,110604,1,4,0:0:0:0:
64,192,110766,1,8,0:0:0:0:
192,192,110766,1,2,0:0:0:0:
448,192,110766,1,4,0:0:0:0:
64,192,110928,1,8,0:0:0:0:
192,192,110928,1,2,0:0:0:0:
448,192,110928,1,4,0:0:0:0:
64,192,111171,1,8,0:0:0:0:
192,192,111171,1,2,0:0:0:0:
320,192,111171,1,4,0:0:0:0:
64,192,111415,1,2,0:0:0:0:
320,192,111415,1,8,0:0:0:0:
448,192,111415,1,4,0:0:0:0:
64,192,112874,1,6,0:0:0:0:
448,192,112874,1,0,0:0:0:100:P8_000.wav
320,192,112901,1,0,0:0:0:100:P8_001.wav
192,192,112955,1,0,0:0:0:100:P8_003.wav
320,192,113036,1,0,0:0:0:100:P8_004.wav
448,192,113198,1,0,0:0:0:100:P8_005.wav
64,192,113361,1,0,0:0:0:100:P8_006.wav
64,192,114171,1,0,0:0:0:100:P8_007.wav
448,192,114198,1,0,0:0:0:100:P8_008.wav
320,192,114252,1,0,0:0:0:100:P8_010.wav
192,192,114334,1,0,0:0:0:100:P8_011.wav
320,192,114496,1,0,0:0:0:100:P8_012.wav
448,192,114658,1,0,0:0:0:100:P8_013.wav
448,192,115469,1,0,0:0:0:100:P8_014.wav
64,192,115496,1,0,0:0:0:100:P8_015.wav
192,192,115550,1,0,0:0:0:100:P8_017.wav
320,192,115631,1,0,0:0:0:100:P8_018.wav
192,192,115793,1,0,0:0:0:100:P8_019.wav
64,192,115955,1,0,0:0:0:100:P8_020.wav
448,192,116766,1,0,0:0:0:100:P8_021.wav
192,192,117506,1,0,0:0:0:100:P8_023.wav
320,192,117537,1,0,0:0:0:100:P8_024.wav
64,192,118247,1,0,0:0:0:100:P8_026.wav
320,192,118278,1,0,0:0:0:100:P8_027.wav
192,192,118341,1,0,0:0:0:100:P8_029.wav
448,192,118436,1,0,0:0:0:100:P8_030.wav
64,192,118658,1,0,0:0:0:100:P8_031.wav
320,192,118911,1,0,0:0:0:100:P8_032.wav
64,192,119617,1,0,0:0:0:100:P8_033.wav
320,192,119651,1,0,0:0:0:100:P8_034.wav
192,192,119720,1,0,0:0:0:100:P8_036.wav
448,192,119823,1,0,0:0:0:100:P8_037.wav
192,192,120030,1,0,0:0:0:100:P8_038.wav
448,192,120237,1,0,0:0:0:100:P8_039.wav
320,192,121139,1,0,0:0:0:100:P8_040.wav
192,192,121179,1,0,0:0:0:100:P8_041.wav
64,192,121261,1,0,0:0:0:100:P8_043.wav
448,192,121384,1,0,0:0:0:100:P8_044.wav
64,192,121630,1,0,0:0:0:100:P8_045.wav
192,192,121876,1,0,0:0:0:100:P8_046.wav
320,192,122286,1,0,0:0:0:100:P8_047.wav
448,192,122696,1,0,0:0:0:100:P8_048.wav
64,192,123270,1,0,0:0:0:100:P8_049.wav
192,192,123311,1,0,0:0:0:100:P8_050.wav
448,192,123352,1,0,0:0:0:100:P8_051.wav
