osu file format v14

[General]
AudioFilename: audio.mp3
AudioLeadIn: 0
PreviewTime:86919
Countdown: 0
SampleSet: Soft
StackLeniency: 0.4
Mode: 0
LetterboxInBreaks: 0
WidescreenStoryboard: 1

[Editor]
Bookmarks: 12973,20757,22054,23351,33730,44108,46703,49297,51892,54486,64865,70054,75243,80432,84324,88216,98594,111405,114162
DistanceSpacing: 0.4
BeatDivisor: 4
GridSize: 32
TimelineZoom: 2

[Metadata]
Title:-+
TitleUnicode:-+
Artist:daisan
ArtistUnicode:daisan
Creator:My Angel Jeremy
Version:Hyper
Source:BOF2013
Tags:Aurorance iRedi Vanya2 Take minus plus bms of fighters bof 2013 electronic instrumental konzertsaal THE BMS OF FIGHTERS Dirt Art Color muse dash vanya
BeatmapID:3765628
BeatmapSetID:1834005

[Difficulty]
HPDrainRate:4
CircleSize:3.8
OverallDifficulty:6.5
ApproachRate:8
SliderMultiplier:1.38
SliderTickRate:1

[Events]
//Background and Video events
0,0,"anime-boys-piano-music-sky-5200x4000-wallpaper-md6djm--wallhavencc-anime-scenery-piano-anime-sky-anime (1).jpg",0,0
//Break Periods
2,44308,53661
//Storyboard Layer 0 (Background)
//Storyboard Layer 1 (Fail)
//Storyboard Layer 2 (Pass)
//Storyboard Layer 3 (Foreground)
//Storyboard Layer 4 (Overlay)
//Storyboard Sound Samples

[TimingPoints]
2595,324.324324324324,4,2,2,40,1,0
2595,-100,4,2,2,40,0,0
6162,-100,4,2,2,5,0,0
6486,-100,4,2,2,40,0,0
7459,-100,4,2,2,5,0,0
7784,-100,4,2,2,40,0,0
8270,-100,4,2,2,5,0,0
8432,-100,4,2,2,40,0,0
8919,-100,4,2,2,5,0,0
9081,-100,4,2,2,40,0,0
9567,-100,4,2,2,5,0,0
9730,-100,4,2,2,40,0,0
10216,-100,4,2,2,5,0,0
10378,-100,4,2,2,40,0,0
12973,-200,4,2,2,50,0,0
18162,-142.857142857143,4,2,2,55,0,0
20757,-117.647058823529,4,2,2,60,0,0
23027,-100,4,2,2,60,0,0
23351,-83.3333333333333,4,2,2,75,0,0
33730,-100,4,2,2,70,0,0
41513,-83.3333333333333,4,2,2,70,0,0
44108,-83.3333333333333,4,2,2,50,0,0
45081,-166.666666666667,4,2,2,50,0,0
54486,-166.666666666667,4,2,2,55,0,0
59676,-166.666666666667,4,2,2,60,0,0
60649,-125,4,2,2,60,0,0
62270,-125,4,2,2,65,0,0
64216,-100,4,2,2,65,0,0
64865,-100,4,2,2,70,0,0
70054,-83.3333333333333,4,2,2,75,0,0
75243,-142.857142857143,4,2,2,60,0,0
77838,-142.857142857143,4,2,2,65,0,0
80432,-100,4,2,2,70,0,0
83027,-83.3333333333333,4,2,2,75,0,0
84324,-83.3333333333333,4,2,2,80,0,0
85622,-71.4285714285714,4,2,2,85,0,0
86919,-71.4285714285714,4,2,2,55,0,0
88216,-83.3333333333333,4,2,2,75,0,0
98594,-83.3333333333333,4,2,2,80,0,0
103622,324.324324324324,4,2,2,65,1,0
103622,-100,4,2,2,65,0,0
104919,-95.2380952380952,4,2,2,70,0,0
106216,-90.9090909090909,4,2,2,75,0,0
107513,-86.9565217391304,4,2,2,80,0,0
108811,-83.3333333333333,4,2,2,85,0,0
110108,-80,4,2,2,85,0,0
111770,-80,4,2,2,5,0,0
111892,-80,4,2,2,85,0,0
111932,-80,4,2,2,5,0,0
112054,-80,4,2,2,85,0,0
112094,-80,4,2,2,5,0,0
112216,-80,4,2,2,85,0,0
112378,-80,4,2,2,5,0,0
112459,-80,4,2,2,85,0,0
112621,-80,4,2,2,5,0,0
112703,-80,4,2,2,85,0,0
114162,324.324324324324,4,2,2,25,1,0
114162,-100,4,2,2,25,0,0
118066,370.37037037037,4,2,2,25,1,0
118066,-100,4,2,2,25,0,0
119454,-100,4,2,2,5,0,0
119547,379.746835443038,4,2,2,25,1,0
119547,-100,4,2,2,25,0,0
120917,413.793103448276,4,2,2,25,1,0
120917,-100,4,2,2,25,0,0
122439,491.803278688525,4,2,2,25,1,0
122439,-100,4,2,2,25,0,0
123588,821.917808219178,4,2,2,25,1,0
123588,-100,4,2,2,25,0,0
123998,606.060606060606,4,2,2,25,1,0
123998,-100,4,2,2,25,0,0
127201,-100,4,2,2,5,0,0

[Colours]
Combo1 : 240,0,0
Combo2 : 28,255,255
Combo3 : 255,106,34
Combo4 : 0,255,0

[HitObjects]
31,55,12973,5,6,3:2:0:0:
132,12,13622,1,2,3:2:0:0:
225,81,14270,1,2,3:2:0:0:
214,190,14919,1,2,3:2:0:0:
130,268,15567,6,0,P|202:282|238:345,1,138,2|0,3:2|3:2,0:0:0:0:
361,377,16865,2,0,P|433:363|469:300,1,138,2|0,3:2|3:2,0:0:0:0:
466,312,18162,6,0,L|478:206,1,96.599997052002,2|0,3:2|3:2,0:0:0:0:
408,177,18811,2,0,L|396:71,1,96.599997052002,2|0,3:2|3:2,0:0:0:0:
453,18,19459,1,2,3:2:0:0:
363,0,19784,1,0,3:2:0:0:
309,76,20108,1,2,3:2:0:0:
367,147,20432,1,0,3:2:0:0:
314,235,20757,6,0,P|278:215|241:219,1,58.65000111866,2|0,3:2|3:2,0:0:0:0:
201,148,21081,2,0,P|165:168|128:164,1,58.65000111866,0|0,3:2|3:2,0:0:0:0:
78,114,21405,6,0,L|69:48,2,58.65000111866,2|0|0,3:2|3:2|3:2,0:0:0:0:
53,201,21892,1,0,3:2:0:0:
53,201,22054,1,2,3:2:0:0:
53,201,22703,6,0,L|101:192,1,29.32500055933,2|2,0:0|0:0,0:0:0:0:
116,218,22865,2,0,L|148:222,1,29.32500055933,2|2,0:0|0:0,0:0:0:0:
180,205,23027,6,0,L|186:177,6,17.25,2|2|2|2|2|0|2,0:0|0:0|0:0|0:0|0:0|0:0|0:0,0:0:0:0:
217,230,23351,6,0,P|264:236|270:292,1,82.7999974731446,6|0,3:2|3:2,0:0:0:0:
310,348,23676,2,0,B|407:366|369:293|474:313,1,165.599994946289,8|2,0:2|0:0,0:0:0:0:
496,236,24162,1,2,3:2:0:0:
431,183,24324,2,0,L|446:86,1,82.7999974731446,10|2,0:2|0:0,0:0:0:0:
440,10,24649,1,2,3:2:0:0:
440,10,24811,1,2,3:2:0:0:
365,57,24973,6,0,B|300:68|300:68|283:98|283:98|199:120,1,165.599994946289,10|2,0:2|3:2,0:0:0:0:
149,58,25459,1,2,3:2:0:0:
149,58,25622,1,10,0:2:0:0:
111,131,25784,1,2,0:0:0:0:
109,142,25865,1,2,3:2:0:0:
107,157,25946,6,0,L|88:274,1,82.7999974731446,2|2,3:2|3:2,0:0:0:0:
187,196,26270,2,0,L|169:313,1,82.7999974731446,10|2,0:2|0:0,0:0:0:0:
181,298,26513,1,0,0:0:0:0:
180,315,26594,2,0,L|268:324,1,82.7999974731446,2|2,3:2|3:2,0:0:0:0:
325,266,26919,2,0,P|368:267|402:303,1,82.7999974731446,8|2,0:2|0:0,0:0:0:0:
496,341,27243,6,0,L|481:229,1,82.7999974731446,2|2,3:2|0:0,0:0:0:0:
427,203,27567,2,0,L|436:106,1,82.7999974731446,10|2,0:2|3:2,0:0:0:0:
475,107,27811,1,10,0:2:0:0:
475,92,27892,2,0,L|465:51,3,41.3999987365723,2|10|2|2,3:2|0:2|3:2|3:2,0:0:0:0:
455,42,28216,2,0,P|417:23|363:33,1,82.7999974731446,10|10,0:2|0:2,0:0:0:0:
367,59,28459,1,10,0:2:0:0:
360,68,28540,2,0,P|311:87|267:63,1,82.7999974731446,2|2,3:2|3:2,0:0:0:0:
215,13,28865,6,0,B|122:15|179:98|65:92,1,165.599994946289,10|2,0:2|0:0,0:0:0:0:
0,68,29351,1,2,3:2:0:0:
0,153,29513,2,0,P|26:194|47:252,1,82.7999974731446,8|0,0:2|0:0,0:0:0:0:
51,248,29757,1,0,0:0:0:0:
60,264,29838,2,0,P|34:305|13:363,1,82.7999974731446,2|2,3:2|3:2,0:0:0:0:
97,383,30162,6,0,L|195:370,1,82.7999974731446,10|2,0:2|0:0,0:0:0:0:
198,352,30405,1,0,0:0:0:0:
209,341,30486,2,0,L|306:358,1,82.7999974731446,2|2,0:0|3:2,0:0:0:0:
370,381,30811,1,10,0:2:0:0:
418,315,30973,1,2,0:0:0:0:
350,260,31135,6,0,P|303:246|272:277,1,82.7999974731446,2|2,3:2|3:2,0:0:0:0:
190,230,31459,2,0,B|156:115|156:115|195:63,1,165.599994946289,10|2,0:2|0:0,0:0:0:0:
218,2,31946,1,2,3:2:0:0:
274,68,32108,2,0,P|315:67|352:28,1,82.7999974731446,10|2,0:2|0:0,0:0:0:0:
423,14,32432,5,2,3:2:0:0:
429,6,32513,2,0,L|518:17,1,82.7999974731446,10|2,0:2|3:2,0:0:0:0:
506,65,32757,2,0,L|491:173,1,82.7999974731446,10|2,0:2|0:0,0:0:0:0:
494,169,33000,1,10,0:2:0:0:
492,184,33081,2,0,L|475:281,1,82.7999974731446,2|2,3:2|3:2,0:0:0:0:
419,342,33405,2,0,L|365:328,3,41.3999987365723,10|10|10|10,0:2|0:2|0:2|0:2,0:0:0:0:
359,314,33730,6,0,P|319:309|284:332,1,69,6|2,3:2|3:2,0:0:0:0:
211,379,34054,2,0,P|171:384|136:361,1,69,10|2,0:2|0:0,0:0:0:0:
82,312,34378,2,0,L|89:232,1,69,2|2,0:0|3:2,0:0:0:0:
158,198,34703,2,0,L|148:112,1,69,10|2,0:2|0:0,0:0:0:0:
102,52,35027,6,0,P|144:41|187:56,1,69,2|2,3:2|3:2,0:0:0:0:
232,96,35351,2,0,P|274:107|317:92,1,69,10|2,0:2|0:0,0:0:0:0:
366,148,35676,2,0,L|381:242,1,69,2|2,0:0|3:2,0:0:0:0:
295,238,36000,2,0,L|283:321,1,69,10|2,0:2|0:0,0:0:0:0:
336,370,36324,6,0,P|368:371|395:345,1,69,2|2,3:2|3:2,0:0:0:0:
470,370,36649,2,0,P|486:342|477:306,1,69,10|2,0:2|0:0,0:0:0:0:
456,223,36973,2,0,L|466:147,1,69,2|2,0:0|3:2,0:0:0:0:
375,212,37297,2,0,L|388:141,1,69,10|2,0:2|0:0,0:0:0:0:
320,91,37622,6,0,P|282:91|247:131,1,69,2|2,3:2|0:0,0:0:0:0:
243,131,37865,1,0,3:2:0:0:
236,139,37946,2,0,P|193:143|160:109,1,69,10|0,0:2|3:2,0:0:0:0:
115,67,38270,1,2,3:2:0:0:
37,98,38432,1,2,3:2:0:0:
16,182,38594,2,0,L|37:269,1,69,10|10,0:2|0:2,0:0:0:0:
43,276,38838,1,8,0:2:0:0:
51,287,38919,6,0,P|88:271|131:295,1,69,6|2,3:2|3:2,0:0:0:0:
172,212,39243,2,0,P|204:236|205:285,1,69,10|2,0:2|0:0,0:0:0:0:
260,332,39567,2,0,L|342:322,1,69,2|2,0:0|3:2,0:0:0:0:
413,313,39892,1,10,0:2:0:0:
413,313,40054,1,2,0:0:0:0:
455,236,40216,6,0,P|480:199|471:161,1,69,2|2,3:2|3:2,0:0:0:0:
400,138,40540,2,0,P|375:101|384:63,1,69,10|2,0:2|0:0,0:0:0:0:
303,26,40865,2,0,L|212:13,1,69,2|2,3:2|3:2,0:0:0:0:
153,58,41189,1,10,0:2:0:0:
153,58,41351,1,2,0:0:0:0:
206,123,41513,6,0,P|229:167|221:204,1,82.7999974731446,6|0,3:2|3:2,0:0:0:0:
304,233,41838,2,0,P|277:275|241:287,1,82.7999974731446,10|10,0:2|0:2,0:0:0:0:
186,353,42162,1,10,0:2:0:0:
186,353,42324,1,10,0:2:0:0:
104,328,42486,1,10,0:2:0:0:
104,328,42649,1,10,0:2:0:0:
70,247,42811,6,0,L|94:163,1,82.7999974731446,10|10,0:2|0:2,0:0:0:0:
106,144,43054,1,0,0:0:0:0:
110,134,43135,2,0,L|98:72,3,41.3999987365723,10|10|10|10,0:2|0:2|0:2|0:2,0:0:0:0:
84,52,43459,6,0,P|128:28|187:47,1,82.7999974731446,10|10,0:2|0:2,0:0:0:0:
188,50,43703,1,8,0:2:0:0:
201,59,43784,2,0,L|265:51,1,41.3999987365723,10|8,0:2|0:2,0:0:0:0:
270,29,43946,2,0,L|347:41,1,41.3999987365723,10|8,0:2|0:2,0:0:0:0:
339,64,44108,5,6,3:2:0:0:
296,240,54486,6,0,P|225:258|203:346,1,165.599994946289,2|2,3:2|3:2,0:0:0:0:
201,340,55459,1,2,0:0:0:0:
210,348,55622,1,2,0:0:0:0:
217,354,55784,2,0,L|263:347,1,41.3999987365723,2|2,3:2|0:0,0:0:0:0:
290,345,56108,2,0,L|336:338,1,41.3999987365723,2|2,0:0|0:0,0:0:0:0:
355,332,56432,5,2,3:2:0:0:
424,279,56757,1,2,0:0:0:0:
368,218,57081,2,0,B|353:120|425:147|418:59,1,165.599994946289,2|2,3:2|3:2,0:0:0:0:
418,67,58054,5,2,0:0:0:0:
407,56,58216,1,2,0:0:0:0:
396,45,58378,2,0,L|338:41,1,41.3999987365723,2|2,3:2|0:0,0:0:0:0:
321,38,58703,2,0,L|263:34,1,41.3999987365723,2|2,0:0|0:0,0:0:0:0:
261,52,59027,1,2,3:2:0:0:
190,8,59351,1,2,0:0:0:0:
122,57,59676,5,0,3:2:0:0:
110,138,60000,1,0,3:2:0:0:
193,184,60324,1,0,3:2:0:0:
179,265,60649,2,0,P|166:300|161:325,1,55.2,2|2,3:2|0:0,0:0:0:0:
233,382,60973,6,0,L|312:371,1,55.2,2|2,3:2|0:0,0:0:0:0:
338,300,61297,2,0,L|413:309,1,55.2,2|2,3:2|0:0,0:0:0:0:
470,360,61622,2,0,P|492:326|485:293,1,55.2,2|2,3:2|0:0,0:0:0:0:
442,242,61946,1,2,3:2:0:0:
442,242,62270,6,0,L|430:171,1,55.2,0|0,3:2|3:2,0:0:0:0:
367,138,62594,2,0,L|375:77,1,55.2,8|0,0:3|3:2,0:0:0:0:
375,61,62838,1,0,3:2:0:0:
366,53,62919,2,0,L|303:47,1,55.2,0|0,3:2|0:2,0:0:0:0:
243,101,63243,1,0,3:2:0:0:
192,36,63405,1,0,0:2:0:0:
182,31,63486,1,0,0:0:0:0:
172,23,63567,2,0,L|135:17,3,27.6,0|0|0|0,3:2|3:2|3:2|3:2,0:0:0:0:
113,54,63892,2,0,L|76:60,3,27.6,0|0|0|0,3:2|3:2|3:2|3:2,0:0:0:0:
44,54,64216,6,0,L|30:86,4,23,2|0|0|2|0,3:2|0:0|0:0|0:0|0:0,0:0:0:0:
92,140,64540,2,0,L|100:181,4,23,2|2|2|2|2,0:0|0:0|0:0|0:0|0:0,0:0:0:0:
44,229,64865,6,0,P|124:266|179:304,1,138,6|0,3:2|0:0,0:0:0:0:
236,352,65351,2,0,P|282:335|296:300,1,69,6|0,3:2|0:0,0:0:0:0:
241,235,65676,2,0,L|245:209,7,23,2|0|0|2|0|0|0|0,0:0|0:0|0:0|0:0|0:0|0:0|0:0|0:0,0:0:0:0:
297,152,66162,6,0,B|372:149|340:210|441:196,1,138,6|0,3:2|0:0,0:0:0:0:
479,132,66649,2,0,P|484:98|495:38,1,69,6|0,3:2|0:0,0:0:0:0:
413,11,66973,2,0,L|405:38,7,23,2|0|0|2|0|0|0|0,0:0|0:0|0:0|0:0|0:0|0:0|0:0|0:0,0:0:0:0:
337,72,67459,6,0,B|262:75|294:14|193:28,1,138,6|0,3:2|0:0,0:0:0:0:
147,85,67946,2,0,P|152:119|163:179,1,69,6|0,3:2|0:0,0:0:0:0:
204,224,68270,2,0,L|198:254,7,23,2|0|0|0|0|0|0|0,0:0|0:0|0:0|0:0|0:0|0:0|0:0|0:0,0:0:0:0:
152,315,68757,6,0,L|89:304,3,34.5,6|2|2|2,3:2|0:0|0:0|0:0,0:0:0:0:
91,278,69081,2,0,L|36:288,3,34.5,2|2|2|2,0:0|0:0|0:0|0:0,0:0:0:0:
18,278,69405,6,0,L|11:235,3,34.5,6|2|2|2,3:2|0:0|0:0|0:0,0:0:0:0:
36,206,69730,2,0,L|26:159,3,34.5,2|2|2|2,0:0|0:0|0:0|0:0,0:0:0:0:
42,123,70054,6,0,B|112:117|112:117|133:139|133:139|227:130,1,165.599994946289,6|0,3:2|0:0,0:0:0:0:
254,61,70540,2,0,P|300:78|317:128,1,82.7999974731446,6|0,3:2|0:0,0:0:0:0:
274,179,70865,2,0,L|266:228,7,27.5999991577149,2|0|0|2|0|0|0|0,0:0|0:0|0:0|0:0|0:0|0:0|0:0|0:0,0:0:0:0:
213,274,71351,6,0,B|299:270|262:340|378:324,1,165.599994946289,6|0,3:2|0:0,0:0:0:0:
450,261,71838,2,0,P|493:228|498:179,1,82.7999974731446,6|0,3:2|0:0,0:0:0:0:
439,126,72162,2,0,L|430:158,9,20.6999993682862,2|0|0|0|2|0|0|0|0|0,0:0|0:0|0:0|0:0|0:0|0:0|0:0|0:0|0:0|0:0,0:0:0:0:
381,64,72649,6,0,B|271:56|271:56|232:102,1,165.599994946289,6|0,3:2|0:0,0:0:0:0:
182,155,73135,2,0,P|166:198|199:241,1,82.7999974731446,6|0,3:2|0:0,0:0:0:0:
252,283,73459,2,0,L|246:313,7,27.5999991577149,2|0|0|2|0|0|2|0,0:0|0:0|0:0|0:0|0:0|0:0|0:0|0:0,0:0:0:0:
181,362,73946,6,0,L|118:351,3,41.3999987365723,6|2|2|2,3:2|0:0|0:0|0:0,0:0:0:0:
115,323,74270,2,0,L|55:336,3,41.3999987365723,2|2|2|2,0:0|0:0|0:0|0:0,0:0:0:0:
49,303,74594,6,0,L|59:245,3,41.3999987365723,14|2|10|10,0:2|3:2|0:2|0:2,0:0:0:0:
51,234,74919,2,0,L|60:178,1,41.3999987365723,10|10,0:2|0:2,0:0:0:0:
85,166,75081,2,0,L|76:92,1,41.3999987365723,10|10,0:2|0:0,0:0:0:0:
69,93,75243,5,14,0:2:0:0:
153,42,75567,1,8,0:3:0:0:
237,106,75892,1,8,0:3:0:0:
188,194,76216,1,8,0:3:0:0:
251,281,76540,5,10,0:3:0:0:
352,279,76865,1,8,0:3:0:0:
402,190,77189,1,8,0:3:0:0:
391,69,77513,1,8,0:3:0:0:
391,69,77676,1,8,0:2:0:0:
303,89,77838,6,0,L|235:98,1,48.299998526001,8|0,0:3|0:0,0:0:0:0:
226,104,78162,1,8,0:2:0:0:
145,154,78486,1,8,0:3:0:0:
69,261,78811,1,8,0:3:0:0:
69,261,78973,1,8,0:2:0:0:
42,182,79135,6,0,L|26:118,1,48.299998526001,8|0,0:3|0:0,0:0:0:0:
76,61,79459,2,0,P|103:61|120:81,1,48.299998526001,8|8,0:2|0:2,0:0:0:0:
139,89,79703,1,8,0:2:0:0:
148,97,79784,2,0,L|133:10,2,72.4499977890015,8|8|8,0:2|0:2|0:2,0:0:0:0:
214,146,80432,6,0,P|262:145|278:163,1,69,6|2,3:2|3:2,0:0:0:0:
325,223,80757,2,0,P|373:224|389:206,1,69,10|2,0:2|3:2,0:0:0:0:
455,164,81081,1,2,3:2:0:0:
455,164,81243,1,2,3:2:0:0:
481,240,81405,2,0,L|470:323,1,69,2|10,3:2|0:2,0:0:0:0:
408,355,81730,6,0,P|368:331|316:341,1,69,6|6,3:2|3:2,0:0:0:0:
268,364,82054,2,0,P|244:376|185:352,1,69,10|2,0:2|3:2,0:0:0:0:
131,310,82378,2,0,B|78:309|92:353|23:349,2,103.5,10|10|8,0:2|0:2|0:2,0:0:0:0:
182,246,83027,6,0,P|171:179|154:118,1,124.199996209717,6|2,3:2|0:0,0:0:0:0:
132,111,83351,2,0,P|87:101|52:137,1,82.7999974731446,10|2,0:2|0:0,0:0:0:0:
10,187,83676,2,0,L|-3:285,1,82.7999974731446,2|2,0:0|0:0,0:0:0:0:
76,298,84000,2,0,L|94:384,1,82.7999974731446,10|10,0:2|0:2,0:0:0:0:
176,336,84324,6,0,P|224:277|292:286,1,124.199996209717,6|2,3:2|0:0,0:0:0:0:
291,300,84649,2,0,L|389:313,1,82.7999974731446,10|10,0:2|0:2,0:0:0:0:
398,321,84892,1,10,0:2:0:0:
408,332,84973,2,0,P|431:283|417:234,1,82.7999974731446,14|2,0:2|0:0,0:0:0:0:
408,235,85216,2,0,P|385:186|399:137,1,82.7999974731446,10|2,0:0|0:0,0:0:0:0:
417,132,85459,1,10,0:2:0:0:
352,73,85622,6,0,L|358:50,30,24.1499992630005,6|2|2|2|0|2|2|2|2|2|2|2|2|2|2|2|2|2|2|2|2|2|2|2|2|2|2|2|2|2|2,0:0|0:0|0:0|0:0|0:0|0:0|0:0|0:0|0:0|0:0|0:0|0:0|0:0|0:0|0:0|0:0|0:0|0:0|0:0|0:0|0:0|0:0|0:0|0:0|0:0|0:0|0:0|0:0|0:0|0:0|0:0,0:0:0:0:
334,93,86919,5,6,3:2:0:0:
334,93,88216,6,0,P|298:64|235:69,1,82.7999974731446,6|0,3:2|3:2,0:0:0:0:
180,20,88540,1,10,0:2:0:0:
133,95,88703,2,0,B|125:183|186:144|178:256,1,165.599994946289,2|0,0:0|3:2,0:0:0:0:
135,324,89189,2,0,P|95:336|47:312,1,82.7999974731446,8|2,0:2|0:0,0:0:0:0:
8,251,89513,6,0,L|21:170,1,82.7999974731446,2|0,3:2|3:2,0:0:0:0:
88,111,89838,2,0,L|177:122,1,82.7999974731446,10|2,0:2|0:0,0:0:0:0:
188,147,90081,1,2,3:2:0:0:
197,154,90162,2,0,L|281:147,1,82.7999974731446,2|0,3:2|3:2,0:0:0:0:
339,209,90486,2,0,P|351:261|322:304,1,82.7999974731446,8|2,0:2|0:0,0:0:0:0:
322,306,90730,1,2,3:2:0:0:
314,310,90811,5,2,3:2:0:0:
369,381,90973,1,2,3:2:0:0:
455,366,91135,1,10,0:2:0:0:
494,292,91297,2,0,P|480:209|453:118,1,165.599994946289,2|2,0:0|3:2,0:0:0:0:
415,60,91784,1,10,0:2:0:0:
415,60,91946,1,2,0:0:0:0:
368,127,92108,6,0,P|315:124|299:97,1,82.7999974731446,2|2,3:2|0:0,0:0:0:0:
282,64,92351,1,2,3:2:0:0:
272,56,92432,2,0,L|169:73,1,82.7999974731446,8|0,0:2|3:2,0:0:0:0:
171,92,92676,1,8,0:2:0:0:
163,100,92757,2,0,L|116:92,3,41.3999987365723,2|8|0|0,3:2|0:2|3:2|3:2,0:0:0:0:
94,107,93081,2,0,P|60:149|83:203,1,82.7999974731446,10|8,0:2|0:2,0:0:0:0:
68,198,93324,1,8,0:2:0:0:
72,209,93405,6,0,L|51:301,1,82.7999974731446,6|0,3:2|3:2,0:0:0:0:
77,370,93730,1,10,0:2:0:0:
141,307,93892,2,0,B|242:293|187:360|321:354,1,165.599994946289,2|0,0:0|3:2,0:0:0:0:
346,282,94378,2,0,P|394:275|435:318,1,82.7999974731446,8|2,0:2|0:0,0:0:0:0:
512,334,94703,6,0,L|498:230,1,82.7999974731446,2|0,3:2|3:2,0:0:0:0:
434,205,95027,1,8,0:2:0:0:
434,205,95189,2,0,L|445:118,1,82.7999974731446,2|0,0:0|0:0,0:0:0:0:
464,44,95513,1,2,3:2:0:0:
387,10,95676,2,0,P|347:19|323:60,1,82.7999974731446,8|2,0:2|0:0,0:0:0:0:
262,110,96000,6,0,L|276:195,1,82.7999974731446,2|0,3:2|3:2,0:0:0:0:
335,250,96324,1,8,0:2:0:0:
267,302,96486,2,0,B|205:309|205:309|184:337|184:337|109:346,1,165.599994946289,2|0,0:0|3:2,0:0:0:0:
37,303,96973,2,0,P|16:268|33:208,1,82.7999974731446,10|8,0:2|0:2,0:0:0:0:
54,209,97216,1,8,0:2:0:0:
49,200,97297,5,4,3:2:0:0:
30,126,97459,2,0,L|41:55,3,41.3999987365723,8|8|8|8,0:2|0:2|0:2|0:2,0:0:0:0:
65,55,97784,2,0,L|127:65,1,41.3999987365723,8|8,0:2|0:2,0:0:0:0:
140,93,97946,2,0,L|235:74,1,82.7999974731446,6|8,3:2|0:2,0:0:0:0:
266,72,98189,1,8,0:2:0:0:
273,79,98270,1,8,0:2:0:0:
333,22,98432,1,6,3:2:0:0:
333,22,98919,6,0,P|427:37|448:129,1,165.599994946289,6|0,3:2|3:2,0:0:0:0:
503,164,99405,1,2,3:2:0:0:
438,222,99567,2,0,L|345:207,1,82.7999974731446,14|2,0:2|0:0,0:0:0:0:
290,270,99892,6,0,B|224:283|224:283|209:311|209:311|111:331,1,165.599994946289,6|10,3:2|0:2,0:0:0:0:
63,299,100378,1,2,3:2:0:0:
56,306,100459,1,10,0:2:0:0:
52,316,100540,2,0,L|60:365,2,41.3999987365723,2|10|2,3:2|0:2|3:2,0:0:0:0:
115,247,100865,2,0,P|124:202|103:161,1,82.7999974731446,10|10,0:2|0:2,0:0:0:0:
86,156,101108,1,10,0:2:0:0:
76,149,101189,6,0,P|67:104|88:63,1,82.7999974731446,4|14,3:2|0:2,0:0:0:0:
93,55,101432,1,10,0:2:0:0:
105,48,101513,1,10,0:2:0:0:
169,100,101676,2,0,L|211:95,3,41.3999987365723,4|0|10|10,3:2|0:0|0:2|0:2,0:0:0:0:
227,89,102000,1,10,0:2:0:0:
275,160,102162,2,0,L|260:255,1,82.7999974731446,6|10,3:2|0:2,0:0:0:0:
256,256,102405,1,10,0:2:0:0:
255,273,102486,2,0,L|270:368,1,82.7999974731446,10|6,0:2|3:2,0:0:0:0:
354,383,102811,6,0,L|423:370,3,41.3999987365723,10|0|10|0,0:2|0:0|0:2|0:0,0:0:0:0:
428,364,103135,2,0,P|449:317|433:259,1,82.7999974731446,6|2,3:2|0:0,0:0:0:0:
430,271,103378,1,0,0:0:0:0:
419,260,103459,1,2,0:0:0:0:
490,200,103622,6,0,B|494:131|416:159|420:68,1,138,6|0,3:2|0:0,0:0:0:0:
365,24,104108,1,8,0:2:0:0:
365,24,104270,2,0,P|322:28|299:61,1,69,2|2,0:0|3:2,0:0:0:0:
257,116,104594,1,2,0:0:0:0:
257,116,104757,1,10,0:2:0:0:
208,42,104919,6,0,B|147:51|147:51|131:77|131:77|54:90,1,144.899995578003,6|0,3:2|3:2,0:0:0:0:
20,148,105405,2,0,P|59:227|77:289,1,144.899995578003,8|2,0:2|0:0,0:0:0:0:
61,374,105892,1,2,0:0:0:0:
61,374,106054,1,10,0:2:0:0:
143,334,106216,6,0,B|236:320|192:389|318:377,1,151.800004632568,6|0,3:2|3:2,0:0:0:0:
363,337,106703,1,10,0:2:0:0:
363,337,106865,2,0,L|382:240,1,75.9000023162842,0|2,0:0|0:0,0:0:0:0:
332,195,107189,1,2,3:2:0:0:
277,251,107351,1,10,0:2:0:0:
213,184,107513,6,0,B|234:74|234:74|274:41,1,158.700003026962,6|2,3:2|0:0,0:0:0:0:
296,32,107919,1,2,3:2:0:0:
311,41,108000,2,0,P|353:61|405:40,1,79.3500015134812,10|2,0:2|3:2,0:0:0:0:
416,49,108243,1,2,3:2:0:0:
429,46,108324,2,0,L|438:7,2,39.6750007567406,2|2|2,3:2|3:2|3:2,0:0:0:0:
486,106,108649,1,10,0:2:0:0:
417,170,108811,6,0,B|409:270|480:215|476:324,1,165.599994946289,6|2,3:2|3:2,0:0:0:0:
460,338,109216,1,2,3:2:0:0:
452,348,109297,2,0,P|404:356|362:320,1,82.7999974731446,10|0,0:2|0:0,0:0:0:0:
317,265,109622,1,2,0:0:0:0:
244,308,109784,1,0,0:0:0:0:
238,319,109865,1,2,0:0:0:0:
234,333,109946,1,10,0:2:0:0:
160,282,110108,6,0,B|147:215|147:215|113:201|113:201|92:107,1,172.5,6|2,3:2|0:0,0:0:0:0:
132,56,110594,1,10,0:2:0:0:
143,43,110676,1,2,3:2:0:0:
154,33,110757,2,0,L|216:40,1,43.125,2|2,3:2|3:2,0:0:0:0:
213,61,110919,2,0,L|316:46,1,86.25,10|2,0:2|3:2,0:0:0:0:
358,103,111243,1,8,0:2:0:0:
293,165,111405,6,0,B|286:247|342:215|330:309,1,129.375,10|0,0:2|0:0,0:0:0:0:
324,310,111730,1,14,0:2:0:0:
253,361,111892,1,14,0:2:0:0:
173,334,112054,1,14,0:2:0:0:
142,257,112216,6,0,L|156:153,1,86.25,14|0,0:2|0:0,0:0:0:0:
185,159,112459,2,0,L|171:55,1,86.25,14|0,0:2|0:0,0:0:0:0:
163,54,112703,5,14,0:2:0:0:
163,54,114162,5,6,3:2:0:0:
