osu file format v14

[General]
AudioFilename: audio.mp3
AudioLeadIn: 0
PreviewTime: 50573
Countdown: 1
SampleSet: Soft
StackLeniency: 0.7
Mode: 0
LetterboxInBreaks: 0
WidescreenStoryboard: 0

[Editor]
Bookmarks: 28338,39632,45279,50926,67867,70691,73514,75279,96102,107397,138455,141279,158220,161044,175161,186455,197749
DistanceSpacing: 1.3
BeatDivisor: 4
GridSize: 4
TimelineZoom: 1.6

[Metadata]
Title:Minigun
TitleUnicode:Minigun
Artist:daPlague
ArtistUnicode:daPlague
Creator:Minorsonek
Version:Extra
Source:youtube
Tags:electronic dubstep
BeatmapID:1226390
BeatmapSetID:579159

[Difficulty]
HPDrainRate:6
CircleSize:5
OverallDifficulty:8
ApproachRate:9.4
SliderMultiplier:2.2
SliderTickRate:1

[Events]
//Background and Video events
0,0,"maxresdefault.jpg",0,0
//Break Periods
2,49361,50386
2,68067,70151
2,94538,95562
2,139714,140739
2,158420,160504
2,184891,185915
//Storyboard Layer 0 (Background)
//Storyboard Layer 1 (Fail)
//Storyboard Layer 2 (Pass)
//Storyboard Layer 3 (Foreground)
//Storyboard Sound Samples

[TimingPoints]
5750,352.941176470588,4,2,0,60,1,0
23573,-66.6666666666667,4,2,0,100,0,0
24102,-100,4,2,0,100,0,0
26308,-100,4,2,0,5,0,0
26397,-100,4,2,0,100,0,0
26485,-100,4,2,0,5,0,0
26573,-100,4,2,0,100,0,0
26661,-100,4,2,0,5,0,0
26749,-100,4,2,0,100,0,0
26838,-100,4,2,0,5,0,0
26926,-100,4,2,0,100,0,0
45279,-133.333333333333,4,2,0,100,0,0
46691,-86.9565217391304,4,2,0,100,0,0
50926,-66.6666666666667,4,2,0,100,0,1
51808,-100,4,2,0,100,0,1
52691,-66.6666666666667,4,2,0,100,0,1
53044,-100,4,2,0,100,0,1
53749,-66.6666666666667,4,2,0,100,0,1
57279,-100,4,2,0,100,0,1
58338,-66.6666666666667,4,2,0,100,0,1
62220,-50,4,2,0,100,0,1
62749,-100,4,2,0,100,0,1
67867,-100,4,2,0,100,0,0
70691,-100,4,2,0,100,0,1
72632,-90.9090909090909,4,2,0,100,0,1
74220,-133.333333333333,4,2,0,100,0,1
75279,-90.9090909090909,4,2,0,100,0,1
75455,-133.333333333333,4,2,0,100,0,1
76338,-90.9090909090909,4,2,0,100,0,1
76514,-133.333333333333,4,2,0,100,0,1
77397,-90.9090909090909,4,2,0,100,0,1
77661,-133.333333333333,4,2,0,100,0,1
78808,-90.9090909090909,4,2,0,100,0,1
79073,-90.9090909090909,4,2,0,100,0,1
84455,-100,4,2,0,60,0,1
84808,-83.3333333333333,4,2,0,100,0,1
86220,-133.333333333333,4,2,0,100,0,1
86573,-90.9090909090909,4,2,0,60,0,1
87985,-133.333333333333,4,2,0,60,0,1
88691,-90.9090909090909,4,2,0,60,0,1
89044,-133.333333333333,4,2,0,60,0,1
90455,-200,4,2,0,70,0,0
92926,-100,4,2,0,100,0,1
96102,-100,4,2,0,60,0,0
132808,-100,4,2,0,100,0,0
135632,-133.333333333333,4,2,0,100,0,0
137044,-86.9565217391304,4,2,0,100,0,0
141279,-66.6666666666667,4,2,0,100,0,1
145867,-90.9090909090909,4,2,0,100,0,1
146926,-66.6666666666667,4,2,0,100,0,1
151161,-90.9090909090909,4,2,0,100,0,1
152573,-50,4,2,0,100,0,1
153279,-100,4,2,0,100,0,1
155397,-66.6666666666667,4,2,0,100,0,1
156279,-100,4,2,0,60,0,1
156808,-66.6666666666667,4,2,0,100,0,1
158220,-66.6666666666667,4,2,0,100,0,0
161044,-100,4,2,0,100,0,1
163867,-90.9090909090909,4,2,0,100,0,1
164573,-133.333333333333,4,2,0,100,0,1
165632,-90.9090909090909,4,2,0,100,0,1
165985,-133.333333333333,4,2,0,100,0,1
166691,-90.9090909090909,4,2,0,100,0,1
167044,-133.333333333333,4,2,0,100,0,1
167749,-90.9090909090909,4,2,0,100,0,1
168102,-133.333333333333,4,2,0,100,0,1
169161,-90.9090909090909,4,2,0,100,0,1
170220,-133.333333333333,4,2,0,100,0,1
171279,-90.9090909090909,4,2,0,100,0,1
171632,-133.333333333333,4,2,0,100,0,1
172338,-90.9090909090909,4,2,0,100,0,1
172691,-133.333333333333,4,2,0,100,0,1
173397,-90.9090909090909,4,2,0,100,0,1
173749,-133.333333333333,4,2,0,100,0,1
174808,-90.9090909090909,4,2,0,100,0,1
175161,-83.3333333333333,4,2,0,100,0,1
176573,-133.333333333333,4,2,0,100,0,1
176926,-90.9090909090909,4,2,0,100,0,1
177279,-133.333333333333,4,2,0,100,0,1
177985,-90.9090909090909,4,2,0,100,0,1
178338,-133.333333333333,4,2,0,100,0,1
179044,-90.9090909090909,4,2,0,100,0,1
180808,-133.333333333333,4,2,0,70,0,0
181514,-133.333333333333,4,2,0,70,0,0
183279,-133.333333333333,4,2,0,100,0,1
186455,-133.333333333333,4,2,0,60,0,0
197749,-100,4,2,0,60,0,0
217514,-80,4,2,0,60,0,0
220338,-86.9565217391304,4,2,0,60,0,0
223161,-100,4,2,0,60,0,0
224573,-111.111111111111,4,2,0,60,0,0
225985,-50,4,2,0,60,0,0

[HitObjects]
84,72,5749,5,0,0:0:0:0:
64,200,5926,1,0,0:0:0:0:
244,68,6279,2,0,P|320:88|340:156,1,110
224,164,6808,1,0,0:0:0:0:
428,72,7161,5,0,0:0:0:0:
448,200,7338,1,0,0:0:0:0:
268,68,7691,2,0,P|192:88|172:156,1,110
288,164,8220,1,0,0:0:0:0:
68,60,8573,5,0,0:0:0:0:
144,168,8750,1,0,0:0:0:0:
216,60,8926,1,0,0:0:0:0:
292,168,9102,1,0,0:0:0:0:
364,60,9279,1,0,0:0:0:0:
292,168,9455,1,0,0:0:0:0:
360,284,9632,1,0,0:0:0:0:
436,168,9808,1,0,0:0:0:0:
364,56,9985,6,0,P|304:64|276:120,1,110
252,232,10338,2,0,P|176:256|128:240,1,110
68,144,10691,1,0,0:0:0:0:
192,96,10867,1,0,0:0:0:0:
68,144,11044,1,0,0:0:0:0:
192,96,11220,1,0,0:0:0:0:
324,272,11397,5,0,0:0:0:0:
192,272,11573,1,0,0:0:0:0:
420,272,11926,1,0,0:0:0:0:
96,272,12102,1,0,0:0:0:0:
256,272,12455,1,0,0:0:0:0:
324,112,12808,5,0,0:0:0:0:
192,112,12984,1,0,0:0:0:0:
420,112,13337,1,0,0:0:0:0:
96,112,13513,1,0,0:0:0:0:
256,112,13866,1,0,0:0:0:0:
356,168,14220,5,0,0:0:0:0:
288,264,14397,1,0,0:0:0:0:
174,273,14573,1,0,0:0:0:0:
140,260,14661,1,0,0:0:0:0:
108,248,14750,1,0,0:0:0:0:
76,236,14838,1,0,0:0:0:0:
44,224,14926,1,0,0:0:0:0:
80,64,15102,1,0,0:0:0:0:
256,19,15279,1,0,0:0:0:0:
432,64,15455,1,0,0:0:0:0:
436,184,15632,6,0,P|368:168|328:184,1,110
232,268,15985,2,0,P|188:308|124:324,1,110
80,208,16338,2,0,P|72:148|92:104,1,110
228,184,16691,1,0,0:0:0:0:
372,104,16867,1,0,0:0:0:0:
140,60,17044,5,0,0:0:0:0:
140,60,17220,1,0,0:0:0:0:
400,176,17397,1,0,0:0:0:0:
400,176,17573,1,0,0:0:0:0:
164,197,17749,1,0,0:0:0:0:
124,216,17926,1,0,0:0:0:0:
144,256,18102,1,0,0:0:0:0:
183,236,18279,1,0,0:0:0:0:
312,88,18455,5,0,0:0:0:0:
352,156,18632,1,0,0:0:0:0:
183,236,18808,1,0,0:0:0:0:
144,312,18985,1,0,0:0:0:0:
156,112,19161,1,0,0:0:0:0:
175,72,19338,1,0,0:0:0:0:
134,53,19514,1,0,0:0:0:0:
116,93,19691,1,0,0:0:0:0:
96,252,19867,6,0,P|144:312|140:348,1,110
254,268,20220,1,0,0:0:0:0:
258,239,20308,1,0,0:0:0:0:
262,208,20396,1,0,0:0:0:0:
265,178,20484,1,0,0:0:0:0:
267,147,20573,2,0,P|257:96|222:52,1,110
419,71,20926,1,0,0:0:0:0:
440,272,21102,1,0,0:0:0:0:
256,156,21279,5,0,0:0:0:0:
148,272,21455,1,0,0:0:0:0:
360,272,21632,2,0,P|384:216|368:152,1,110
256,84,21985,1,0,0:0:0:0:
68,272,22161,1,0,0:0:0:0:
440,272,22338,2,0,P|464:216|448:152,1,110
316,28,22691,6,0,B|304:72|304:72|264:84|264:84|240:144,1,110
258,256,23044,2,0,B|213:248|213:248|197:210|197:210|135:192,1,110
64,48,23397,1,0,0:0:0:0:
220,152,23573,6,0,P|176:160|156:200,1,82.5000031471254
120,204,23749,2,0,P|136:244|100:276,1,82.5000031471254
120,312,23926,2,0,L|208:344,1,82.5000031471254
232,328,24102,5,0,0:0:0:0:
352,236,24279,1,0,0:0:0:0:
152,144,24455,1,0,0:0:0:0:
432,104,24632,1,0,0:0:0:0:
252,52,24808,2,0,P|248:36|216:76,1,110
192,300,25161,2,0,P|229:326|236:281,1,110
96,116,25514,5,0,0:0:0:0:
156,216,25691,1,0,0:0:0:0:
232,112,25867,1,0,0:0:0:0:
248,136,25955,1,0,0:0:0:0:
268,164,26044,1,0,0:0:0:0:
284,188,26132,1,0,0:0:0:0:
304,216,26220,2,0,L|340:268,1,55
428,144,26397,2,0,L|428:84,1,55
472,284,26573,2,0,L|508:336,1,55
335,261,26749,2,0,L|267:281,1,55
152,252,26926,5,0,0:0:0:0:
67,116,27102,1,0,0:0:0:0:
202,32,27279,1,0,0:0:0:0:
287,167,27455,1,0,0:0:0:0:
152,252,27632,2,0,P|192:292|256:280,1,110
287,167,27985,2,0,P|233:168|196:129,1,110
276,36,28338,5,0,0:0:0:0:
276,36,28514,1,0,0:0:0:0:
384,148,28691,1,0,0:0:0:0:
384,148,28867,1,0,0:0:0:0:
204,136,29044,1,0,0:0:0:0:
168,148,29220,1,0,0:0:0:0:
204,136,29397,1,0,0:0:0:0:
168,148,29573,1,0,0:0:0:0:
280,180,29749,5,0,0:0:0:0:
208,308,29926,1,0,0:0:0:0:
336,232,30102,1,0,0:0:0:0:
480,256,30279,1,0,0:0:0:0:
308,68,30455,1,0,0:0:0:0:
280,180,30632,1,0,0:0:0:0:
168,208,30808,1,0,0:0:0:0:
308,68,30985,1,0,0:0:0:0:
176,36,31161,6,0,P|92:72|80:196,1,220
88,216,31602,1,0,0:0:0:0:
96,240,31690,1,0,0:0:0:0:
108,268,31779,1,0,0:0:0:0:
120,296,31867,1,0,0:0:0:0:
296,200,32044,1,0,0:0:0:0:
232,108,32220,2,0,P|276:56|324:64,1,110
424,184,32573,5,0,0:0:0:0:
380,276,32749,1,0,0:0:0:0:
352,180,32926,1,0,0:0:0:0:
424,184,33102,1,0,0:0:0:0:
352,180,33279,1,0,0:0:0:0:
380,276,33455,1,0,0:0:0:0:
424,184,33632,1,0,0:0:0:0:
352,180,33808,1,0,0:0:0:0:
144,112,33985,5,0,0:0:0:0:
112,212,34161,1,0,0:0:0:0:
304,272,34338,1,0,0:0:0:0:
384,236,34514,1,0,0:0:0:0:
296,64,34691,1,0,0:0:0:0:
152,96,34867,2,0,L|108:132,1,55
160,204,35044,2,0,L|216:164,1,55
256,256,35220,2,0,L|204:300,1,55
328,296,35397,5,0,0:0:0:0:
396,140,35573,1,0,0:0:0:0:
256,256,35749,1,0,0:0:0:0:
256,72,35926,1,0,0:0:0:0:
184,296,36102,1,0,0:0:0:0:
116,140,36279,1,0,0:0:0:0:
320,268,36455,2,0,P|368:220|348:160,1,110
292,48,36808,5,0,0:0:0:0:
212,192,36985,1,0,0:0:0:0:
68,164,37161,2,0,L|88:220,1,55
230,243,37338,2,0,L|212:192,1,55
212,332,37514,2,0,P|268:340|304:300,1,110
276,152,37867,1,0,0:0:0:0:
136,100,38044,1,0,0:0:0:0:
328,48,38220,5,0,0:0:0:0:
372,152,38397,1,0,0:0:0:0:
488,104,38573,1,0,0:0:0:0:
444,4,38749,1,0,0:0:0:0:
276,152,38926,2,0,B|308:204|264:200|300:276,1,110
116,272,39279,2,0,P|160:328|240:324,1,110
316,284,39632,5,0,0:0:0:0:
252,176,39808,1,0,0:0:0:0:
364,120,39985,1,0,0:0:0:0:
432,224,40161,1,0,0:0:0:0:
240,292,40338,1,0,0:0:0:0:
88,204,40514,1,0,0:0:0:0:
240,292,40691,1,0,0:0:0:0:
240,108,40867,1,0,0:0:0:0:
348,160,41044,6,0,P|364:212|348:264,1,110
304,248,41308,1,0,0:0:0:0:
272,212,41397,2,0,P|216:184|140:208,1,110
140,212,41661,1,0,0:0:0:0:
112,236,41749,2,0,P|88:248|48:248,3,55
96,168,42102,2,0,L|68:112,1,55
76,96,42279,1,0,0:0:0:0:
88,68,42367,1,0,0:0:0:0:
348,148,42455,5,0,0:0:0:0:
96,168,42632,2,0,P|80:192|80:228,1,55
96,248,42808,1,0,0:0:0:0:
108,288,42897,1,0,0:0:0:0:
144,280,42985,1,0,0:0:0:0:
148,316,43073,1,0,0:0:0:0:
188,308,43161,1,0,0:0:0:0:
368,280,43338,1,0,0:0:0:0:
368,280,43426,1,0,0:0:0:0:
368,280,43514,1,0,0:0:0:0:
332,60,43691,5,0,0:0:0:0:
332,60,43779,1,0,0:0:0:0:
332,60,43867,1,0,0:0:0:0:
44,92,44044,2,0,L|48:164,1,55
76,184,44220,1,0,0:0:0:0:
63,325,44397,2,0,L|127:358,1,55
159,343,44573,1,0,0:0:0:0:
268,228,44749,2,0,L|328:188,1,55
331,154,44925,1,0,0:0:0:0:
96,152,45102,1,0,0:0:0:0:
96,152,45191,1,0,0:0:0:0:
96,152,45279,6,0,P|68:144|44:152,3,41.2500015735627
144,168,45632,2,0,P|168:176|192:172,5,41.2500015735627
136,108,46161,2,0,L|136:56,1,41.2500015735627
172,80,46338,2,0,L|172:148,1,41.2500015735627
208,104,46514,2,0,L|208:52,1,41.2500015735627
243,76,46691,5,0,0:0:0:0:
284,56,46779,1,0,0:0:0:0:
327,43,46867,1,0,0:0:0:0:
374,50,46955,1,0,0:0:0:0:
419,65,47043,1,0,0:0:0:0:
458,90,47132,1,0,0:0:0:0:
479,126,47220,1,0,0:0:0:0:
489,167,47308,1,0,0:0:0:0:
476,208,47397,2,0,P|440:184|420:184,3,63.250001206398
448,248,47749,2,0,P|396:304|320:296,1,126.500002412796
72,132,48102,6,0,P|55:192|64:259,1,126.500002412796
365,103,48455,1,0,0:0:0:0:
405,110,48544,1,0,0:0:0:0:
440,132,48632,2,0,P|457:192|448:259,1,126.500002412796
76,356,49161,1,0,0:0:0:0:
156,68,50926,6,0,B|160:128|104:220|104:220|168:136|256:148,1,330.000012588501
288,152,51367,1,0,0:0:0:0:
332,164,51455,1,0,0:0:0:0:
372,180,51544,1,0,0:0:0:0:
408,200,51632,1,0,0:0:0:0:
484,244,51808,1,0,0:0:0:0:
412,288,51985,2,0,P|352:272|252:280,1,110
136,320,52338,5,0,0:0:0:0:
80,220,52514,1,0,0:0:0:0:
152,120,52691,2,0,B|196:116|232:64|188:8|188:8|182:25,1,165.000006294251
376,124,53044,2,0,P|400:180|364:240,1,110
304,176,53397,2,0,P|232:184|232:224,1,110
303,266,53749,6,0,B|273:297|274:347|274:347|176:299,1,165.000006294251
126,135,54102,2,0,P|75:187|106:271,1,165.000006294251
255,181,54455,1,0,0:0:0:0:
420,48,54632,1,0,0:0:0:0:
255,181,54808,1,0,0:0:0:0:
441,125,55161,6,0,B|411:159|456:160|414:192|457:190|432:226|432:226|387:172,1,165.000006294251
301,60,55514,1,0,0:0:0:0:
146,82,55691,1,0,0:0:0:0:
79,239,55867,1,0,0:0:0:0:
255,181,56044,1,0,0:0:0:0:
440,252,56220,2,0,B|388:248|404:272|348:272|348:272|360:324|312:344,1,165.000006294251
216,248,56573,6,0,B|168:172|220:168|176:80,1,165.000006294251
380,49,56926,2,0,P|439:103|377:172,1,165.000006294251
316,168,57279,6,0,B|284:176|284:176|256:168,1,55
236,200,57455,2,0,B|204:208|204:208|176:200,1,55
156,168,57632,2,0,B|124:176|124:176|96:168,1,55
76,200,57808,2,0,B|44:208|44:208|16:200,1,55
77,274,57985,1,0,0:0:0:0:
224,96,58161,1,0,0:0:0:0:
328,188,58338,6,0,P|339:223|245:274,1,165.000006294251
102,99,58691,1,0,0:0:0:0:
77,274,58867,1,0,0:0:0:0:
250,191,59044,1,0,0:0:0:0:
250,191,59220,1,0,0:0:0:0:
356,68,59397,6,0,B|352:128|408:220|408:220|344:136|266:146,1,330.000012588501
224,152,59838,1,0,0:0:0:0:
180,164,59926,1,0,0:0:0:0:
140,180,60015,1,0,0:0:0:0:
104,200,60103,1,0,0:0:0:0:
249,333,60279,1,0,0:0:0:0:
444,238,60455,1,0,0:0:0:0:
170,115,60808,6,0,B|214:75|308:96|308:96|280:56|308:16|308:16|214:31|210:103|218:191|308:204|358:139,1,495.000018882752
88,216,61514,2,0,P|112:124|200:132,1,165.000006294251
280,264,61867,5,0,0:0:0:0:
124,156,62220,6,0,P|116:128|164:160,1,110
280,264,62397,6,0,P|325:279|331:231,1,110
272,80,62573,5,0,0:0:0:0:
164,304,62926,6,0,P|228:284|296:308,1,110
380,292,63279,2,0,P|416:240|380:184,1,110
164,304,63632,1,0,0:0:0:0:
272,80,63808,1,0,0:0:0:0:
116,92,63985,2,0,B|112:132|112:132|68:68,1,110
32,236,64338,1,0,0:0:0:0:
268,292,64514,1,0,0:0:0:0:
208,76,64691,2,0,B|236:144|236:112|272:196,1,110
404,264,65044,5,0,0:0:0:0:
248,336,65220,1,0,0:0:0:0:
272,196,65397,1,0,0:0:0:0:
256,168,65485,1,0,0:0:0:0:
240,136,65573,1,0,0:0:0:0:
224,108,65661,1,0,0:0:0:0:
208,76,65749,2,0,P|252:36|336:64,1,110
380,112,66102,2,0,L|400:256,1,110
240,228,66455,6,0,B|292:272|268:268|328:316,1,110
68,216,66808,2,0,P|56:140|208:96,1,220
240,228,67338,1,0,0:0:0:0:
392,312,67514,1,0,0:0:0:0:
384,132,67691,1,0,0:0:0:0:
340,216,67867,5,0,0:0:0:0:
96,48,70691,5,0,0:0:0:0:
444,176,71044,1,0,0:0:0:0:
188,232,71397,1,0,0:0:0:0:
160,272,71573,1,0,0:0:0:0:
224,76,71749,1,0,0:0:0:0:
184,52,71926,1,0,0:0:0:0:
140,40,72102,1,0,0:0:0:0:
324,284,72455,1,0,0:0:0:0:
368,296,72632,2,0,B|332:160|388:224|348:48,1,242.000007385254
240,228,73161,1,0,0:0:0:0:
104,80,73338,1,0,0:0:0:0:
20,260,73514,5,0,0:0:0:0:
256,328,73867,1,0,0:0:0:0:
356,136,74220,2,0,P|320:168|280:168,1,82.5000031471254
96,136,74573,2,0,P|132:168|172:168,1,82.5000031471254
312,12,74926,2,0,P|335:54|326:93,1,82.5000031471254
160,292,75279,6,0,L|276:236,1,121.000003692627
433,222,75632,2,0,P|437:182|416:148,1,82.5000031471254
278,45,75985,2,0,P|299:79|296:120,1,82.5000031471254
208,248,76338,6,0,L|112:332,1,121.000003692627
128,116,76691,2,0,P|96:84|52:84,1,82.5000031471254
276,56,77044,2,0,P|304:92|308:128,1,82.5000031471254
184,312,77397,6,0,P|200:272|232:200,1,121.000003692627
384,76,77749,2,0,P|428:100|444:136,1,82.5000031471254
316,228,78102,2,0,P|292:264|308:308,1,82.5000031471254
472,352,78455,2,0,P|424:340|380:348,1,82.5000031471254
200,208,78808,6,0,L|168:324,1,121.000003692627
84,144,79161,1,0,0:0:0:0:
240,80,79514,1,0,0:0:0:0:
100,240,79867,5,0,0:0:0:0:
88,280,80044,1,0,0:0:0:0:
276,184,80220,1,0,0:0:0:0:
288,143,80397,1,0,0:0:0:0:
404,292,80573,1,0,0:0:0:0:
440,312,80749,1,0,0:0:0:0:
268,308,80926,6,0,L|152:360,1,121.000003692627
116,104,81279,1,0,0:0:0:0:
108,80,81455,1,0,0:0:0:0:
116,280,81632,1,0,0:0:0:0:
108,304,81808,1,0,0:0:0:0:
244,28,81985,6,0,L|284:148,1,121.000003692627
444,176,82338,1,0,0:0:0:0:
312,332,82514,1,0,0:0:0:0:
176,196,82691,1,0,0:0:0:0:
244,28,82867,1,0,0:0:0:0:
244,28,83044,6,0,L|196:148,1,121.000003692627
388,312,83397,1,0,0:0:0:0:
388,312,83573,1,0,0:0:0:0:
344,44,83749,1,0,0:0:0:0:
344,44,83926,1,0,0:0:0:0:
100,166,84102,1,0,0:0:0:0:
100,166,84279,1,0,0:0:0:0:
384,192,84455,6,0,L|328:292,1,110
228,272,84808,6,0,B|152:232|104:292|104:292|100:148,1,263.99999194336
164,52,85338,2,0,B|272:108|216:144|216:144|160:108|272:48|272:48,1,263.99999194336
364,104,85867,2,0,B|376:144|376:144|412:36,1,131.99999597168
452,248,86220,5,0,0:0:0:0:
324,316,86397,1,0,0:0:0:0:
216,220,86573,6,0,L|112:280,1,121.000003692627
88,72,86926,1,0,0:0:0:0:
160,52,87102,1,0,0:0:0:0:
260,136,87279,1,0,0:0:0:0:
328,112,87455,1,0,0:0:0:0:
492,20,87632,6,0,L|380:96,1,121.000003692627
464,184,87985,2,0,P|440:224|444:272,1,82.5000031471254
292,308,88338,2,0,P|248:292|196:300,1,82.5000031471254
70,185,88691,6,0,L|108:304,1,121.000003692627
120,48,89044,2,0,P|192:32|216:36,1,82.5000031471254
300,144,89397,1,0,0:0:0:0:
260,308,89573,1,0,0:0:0:0:
104,272,89749,1,0,0:0:0:0:
152,108,89926,1,0,0:0:0:0:
152,108,90102,6,0,P|108:188|140:244,1,123.750004720688
148,236,90455,1,0,0:0:0:0:
399,302,90808,1,0,0:0:0:0:
336,112,91161,2,0,P|288:92|268:96,1,55
140,336,91514,2,0,P|112:332|92:304,1,55
112,100,91867,2,0,P|132:64|152:56,1,55
408,248,92220,2,0,P|400:296|400:316,1,55
320,72,92573,2,0,P|280:48|260:52,1,55
96,168,92926,5,0,0:0:0:0:
96,123,93014,1,0,0:0:0:0:
69,159,93102,1,0,0:0:0:0:
112,145,93191,1,0,0:0:0:0:
69,132,93279,1,0,0:0:0:0:
200,328,93455,1,0,0:0:0:0:
244,92,93632,1,0,0:0:0:0:
428,160,93808,2,0,P|448:232|336:336,1,220
120,168,94338,1,0,0:0:0:0:
412,80,96102,5,0,0:0:0:0:
424,300,96279,1,0,0:0:0:0:
100,80,96632,2,0,L|132:196,1,110
88,300,97161,1,0,0:0:0:0:
100,80,97514,5,0,0:0:0:0:
88,300,97691,1,0,0:0:0:0:
412,80,98044,2,0,L|382:186,1,110
424,300,98573,1,0,0:0:0:0:
140,328,98926,5,0,0:0:0:0:
208,248,99102,1,0,0:0:0:0:
128,168,99279,1,0,0:0:0:0:
204,92,99455,1,0,0:0:0:0:
256,0,99632,1,0,0:0:0:0:
308,92,99808,1,0,0:0:0:0:
384,168,99984,1,0,0:0:0:0:
304,248,100161,1,0,0:0:0:0:
372,328,100338,6,0,P|328:364|268:344,1,110
152,272,100691,2,0,L|100:380,1,110
72,160,101044,1,0,0:0:0:0:
140,48,101220,1,0,0:0:0:0:
72,160,101397,1,0,0:0:0:0:
140,48,101573,1,0,0:0:0:0:
392,128,101749,5,0,0:0:0:0:
392,256,101926,1,0,0:0:0:0:
392,44,102279,1,0,0:0:0:0:
392,340,102456,1,0,0:0:0:0:
392,192,102808,1,0,0:0:0:0:
120,128,103161,5,0,0:0:0:0:
120,256,103338,1,0,0:0:0:0:
120,44,103691,1,0,0:0:0:0:
120,340,103868,1,0,0:0:0:0:
120,192,104220,1,0,0:0:0:0:
316,48,104573,6,0,P|376:64|408:108,1,110
296,168,104926,1,0,0:0:0:0:
267,177,105014,1,0,0:0:0:0:
242,194,105102,1,0,0:0:0:0:
218,212,105190,1,0,0:0:0:0:
193,230,105279,2,0,P|140:244|104:204,1,110
104,64,105632,1,0,0:0:0:0:
256,108,105808,1,0,0:0:0:0:
408,64,105985,5,0,0:0:0:0:
468,192,106161,1,0,0:0:0:0:
408,320,106338,2,0,P|360:320|296:344,1,110
188,300,106691,1,0,0:0:0:0:
60,216,106867,1,0,0:0:0:0:
188,300,107044,1,0,0:0:0:0:
60,216,107220,1,0,0:0:0:0:
256,116,107397,5,0,0:0:0:0:
376,180,107573,1,0,0:0:0:0:
368,52,107749,2,0,P|424:56|476:20,1,110
256,116,108102,1,0,0:0:0:0:
112,184,108279,1,0,0:0:0:0:
240,264,108455,2,0,L|224:384,1,110
364,164,108808,5,0,0:0:0:0:
316,40,108985,1,0,0:0:0:0:
232,152,109161,2,0,P|168:192|104:168,1,110
308,304,109514,1,0,0:0:0:0:
472,264,109691,1,0,0:0:0:0:
364,164,109867,2,0,L|392:284,1,110
188,112,110220,5,0,0:0:0:0:
108,256,110397,1,0,0:0:0:0:
272,212,110573,1,0,0:0:0:0:
287,188,110661,1,0,0:0:0:0:
300,165,110749,1,0,0:0:0:0:
313,140,110837,1,0,0:0:0:0:
324,116,110926,2,0,P|280:68|224:44,1,110
100,128,111279,1,0,0:0:0:0:
112,328,111455,1,0,0:0:0:0:
328,272,111632,5,0,0:0:0:0:
440,104,111808,1,0,0:0:0:0:
224,72,111985,2,0,P|180:120|164:188,1,110
328,324,112338,1,0,0:0:0:0:
492,104,112514,1,0,0:0:0:0:
184,44,112691,2,0,P|136:96|112:164,1,110
368,104,113044,6,0,P|404:152|408:220,1,110
300,208,113397,2,0,P|232:208|196:244,1,110
76,124,113749,1,0,0:0:0:0:
104,244,113926,2,0,P|112:272|136:288,1,55
172,280,114102,2,0,P|204:284|228:312,1,55
240,328,114279,1,0,0:0:0:0:
272,132,114455,5,0,0:0:0:0:
412,60,114632,1,0,0:0:0:0:
400,216,114808,1,0,0:0:0:0:
272,132,114985,1,0,0:0:0:0:
128,132,115161,2,0,P|116:200|156:232,1,110
256,268,115514,2,0,P|328:272|368:304,1,110
380,124,115867,5,0,0:0:0:0:
240,56,116044,1,0,0:0:0:0:
104,88,116220,1,0,0:0:0:0:
80,116,116308,1,0,0:0:0:0:
64,144,116397,1,0,0:0:0:0:
52,172,116485,1,0,0:0:0:0:
40,204,116573,2,0,P|88:248|160:232,1,110
216,140,116926,1,0,0:0:0:0:
348,256,117102,1,0,0:0:0:0:
384,72,117279,5,0,0:0:0:0:
476,188,117455,1,0,0:0:0:0:
300,192,117632,1,0,0:0:0:0:
196,304,117808,1,0,0:0:0:0:
72,180,117985,2,0,P|52:236|76:292,1,110
144,72,118338,2,0,P|176:124|156:176,1,110
328,72,118691,5,0,0:0:0:0:
368,128,118867,1,0,0:0:0:0:
256,212,119044,1,0,0:0:0:0:
200,256,119220,1,0,0:0:0:0:
80,92,119397,1,0,0:0:0:0:
44,232,119573,1,0,0:0:0:0:
80,92,119749,1,0,0:0:0:0:
44,232,119926,1,0,0:0:0:0:
228,68,120102,6,0,P|280:88|312:144,1,110
224,252,120455,2,0,P|264:304|312:296,1,110
440,80,120808,1,0,0:0:0:0:
440,80,120985,1,0,0:0:0:0:
400,304,121161,1,0,0:0:0:0:
400,304,121338,1,0,0:0:0:0:
84,332,121514,6,0,P|177:283|183:178,1,220
172,152,121955,1,0,0:0:0:0:
164,128,122043,1,0,0:0:0:0:
152,100,122132,1,0,0:0:0:0:
140,72,122220,1,0,0:0:0:0:
300,28,122397,1,0,0:0:0:0:
300,28,122573,2,0,P|276:108|288:168,1,110
424,200,122926,5,0,0:0:0:0:
380,108,123102,1,0,0:0:0:0:
348,200,123279,1,0,0:0:0:0:
424,200,123455,1,0,0:0:0:0:
348,200,123632,1,0,0:0:0:0:
380,108,123808,1,0,0:0:0:0:
424,200,123985,1,0,0:0:0:0:
348,200,124161,1,0,0:0:0:0:
264,304,124338,6,0,P|200:288|148:296,1,110
96,116,124691,1,0,0:0:0:0:
68,268,124867,1,0,0:0:0:0:
280,204,125044,2,0,P|304:144|300:96,1,110
328,60,125308,1,0,0:0:0:0:
368,52,125397,2,0,P|412:76|432:108,2,55
280,204,125749,5,0,0:0:0:0:
208,76,125926,1,0,0:0:0:0:
336,152,126102,1,0,0:0:0:0:
480,128,126279,1,0,0:0:0:0:
308,316,126455,1,0,0:0:0:0:
280,204,126632,1,0,0:0:0:0:
168,176,126808,1,0,0:0:0:0:
308,316,126985,1,0,0:0:0:0:
168,264,127161,6,0,P|124:308|124:360,1,110
308,316,127514,1,0,0:0:0:0:
332,292,127602,1,0,0:0:0:0:
356,272,127691,1,0,0:0:0:0:
376,252,127779,1,0,0:0:0:0:
400,228,127867,1,0,0:0:0:0:
328,72,128044,1,0,0:0:0:0:
232,112,128220,2,0,L|176:212,1,110
52,308,128573,5,0,0:0:0:0:
52,308,128749,1,0,0:0:0:0:
76,96,128926,1,0,0:0:0:0:
76,96,129102,1,0,0:0:0:0:
304,92,129279,2,0,P|256:136|252:196,1,110
356,328,129632,1,0,0:0:0:0:
480,188,129808,1,0,0:0:0:0:
256,128,129985,5,0,0:0:0:0:
96,216,130161,1,0,0:0:0:0:
216,340,130338,2,0,P|300:336|352:296,1,110
272,56,130691,1,0,0:0:0:0:
16,224,130867,1,0,0:0:0:0:
284,360,131044,2,0,P|352:364|420:328,1,110
424,124,131397,5,0,0:0:0:0:
320,48,131573,1,0,0:0:0:0:
240,148,131749,1,0,0:0:0:0:
348,236,131926,1,0,0:0:0:0:
324,268,132014,1,0,0:0:0:0:
296,300,132102,1,0,0:0:0:0:
160,328,132279,1,0,0:0:0:0:
125,307,132367,1,0,0:0:0:0:
90,282,132455,1,0,0:0:0:0:
152,68,132632,1,0,0:0:0:0:
164,232,132808,5,0,0:0:0:0:
344,304,132985,1,0,0:0:0:0:
476,184,133161,1,0,0:0:0:0:
464,144,133250,1,0,0:0:0:0:
428,152,133338,1,0,0:0:0:0:
424,116,133426,1,0,0:0:0:0:
384,124,133514,1,0,0:0:0:0:
248,72,133691,1,0,0:0:0:0:
248,72,133779,1,0,0:0:0:0:
248,72,133867,1,0,0:0:0:0:
180,324,134044,5,0,0:0:0:0:
180,324,134132,1,0,0:0:0:0:
180,324,134220,1,0,0:0:0:0:
468,292,134397,2,0,L|464:220,1,55
436,200,134573,1,0,0:0:0:0:
449,59,134750,2,0,L|385:26,1,55
353,41,134926,1,0,0:0:0:0:
244,156,135102,2,0,L|184:196,1,55
181,230,135278,1,0,0:0:0:0:
416,232,135455,1,0,0:0:0:0:
416,232,135544,1,0,0:0:0:0:
416,232,135632,6,0,P|444:240|468:232,3,41.2500015735627
368,216,135985,2,0,P|344:208|320:212,5,41.2500015735627
400,196,136514,2,0,L|432:148,1,41.2500015735627
392,140,136691,2,0,L|392:98,1,41.2500015735627
368,92,136867,2,0,L|352:48,1,41.2500015735627
316,36,137044,5,0,0:0:0:0:
274,33,137132,1,0,0:0:0:0:
234,41,137220,1,0,0:0:0:0:
197,59,137308,1,0,0:0:0:0:
166,86,137396,1,0,0:0:0:0:
143,120,137485,1,0,0:0:0:0:
129,159,137573,1,0,0:0:0:0:
125,199,137661,1,0,0:0:0:0:
132,240,137749,1,0,0:0:0:0:
148,278,137838,1,0,0:0:0:0:
174,310,137926,1,0,0:0:0:0:
207,334,138014,1,0,0:0:0:0:
244,352,138102,2,0,P|304:341|342:292,1,126.500002412796
72,132,138455,6,0,P|55:192|64:259,1,126.500002412796
365,103,138808,1,0,0:0:0:0:
405,110,138897,1,0,0:0:0:0:
440,132,138985,2,0,P|457:192|448:259,1,126.500002412796
76,356,139514,1,0,0:0:0:0:
168,96,141279,6,0,B|224:64|336:136|336:136|336:56|232:48,1,330.000012588501
200,48,141720,1,0,0:0:0:0:
160,52,141808,1,0,0:0:0:0:
116,64,141897,1,0,0:0:0:0:
84,92,141985,1,0,0:0:0:0:
92,244,142161,1,0,0:0:0:0:
204,208,142338,1,0,0:0:0:0:
360,332,142514,1,0,0:0:0:0:
472,280,142691,5,0,0:0:0:0:
392,100,142867,1,0,0:0:0:0:
264,112,143044,2,0,B|208:184|244:264|244:264|288:180|384:176,1,330.000012588501
456,44,143573,1,0,0:0:0:0:
456,340,143749,1,0,0:0:0:0:
160,136,144102,6,0,B|88:136|-4:100|40:-60|208:36|132:128|68:152,2,330.000012588501
288,228,144985,1,0,0:0:0:0:
376,88,145161,1,0,0:0:0:0:
92,340,145514,5,0,0:0:0:0:
152,136,145867,2,0,P|156:200|208:236,1,121.000003692627
336,88,146220,1,0,0:0:0:0:
464,200,146397,1,0,0:0:0:0:
324,280,146573,1,0,0:0:0:0:
72,160,146926,6,0,B|128:184|196:168|216:120|216:64|184:24|144:8|108:36|92:76|128:100,2,330.000012588501
180,240,147808,1,0,0:0:0:0:
352,104,148161,1,0,0:0:0:0:
460,184,148338,5,0,0:0:0:0:
120,128,148691,2,0,B|168:152|168:152|96:52|96:52|188:24|252:88,1,330.000012588501
408,156,149397,1,0,0:0:0:0:
404,324,149573,1,0,0:0:0:0:
156,316,149749,6,0,B|160:256|104:164|104:164|168:248|256:236,1,330.000012588501
288,232,150190,1,0,0:0:0:0:
332,220,150278,1,0,0:0:0:0:
372,204,150367,1,0,0:0:0:0:
408,184,150455,1,0,0:0:0:0:
264,52,150632,1,0,0:0:0:0:
76,120,150808,1,0,0:0:0:0:
312,340,151161,5,0,0:0:0:0:
184,240,151514,2,0,P|120:264|100:320,1,121.000003692627
84,148,151867,2,0,L|168:48,1,121.000003692627
280,84,152220,1,0,0:0:0:0:
368,264,152573,6,0,P|384:276|328:288,1,110
144,264,152749,6,0,P|128:276|184:288,1,110
256,180,152926,5,0,0:0:0:0:
348,304,153279,6,0,P|284:284|216:308,1,110
132,292,153632,2,0,P|96:240|132:184,1,110
412,248,153985,1,0,0:0:0:0:
264,92,154161,1,0,0:0:0:0:
396,92,154338,2,0,B|400:132|400:132|444:68,1,110
416,252,154691,1,0,0:0:0:0:
272,328,154867,1,0,0:0:0:0:
416,252,155044,1,0,0:0:0:0:
272,328,155220,1,0,0:0:0:0:
96,136,155397,6,0,P|56:64|140:128,1,247.500009441376
160,124,155749,1,0,0:0:0:0:
144,168,155838,1,0,0:0:0:0:
128,208,155926,1,0,0:0:0:0:
124,256,156014,1,0,0:0:0:0:
136,300,156102,1,0,0:0:0:0:
296,320,156279,2,0,P|372:288|360:220,1,110
256,204,156632,1,0,0:0:0:0:
60,152,156808,6,0,B|128:104|128:36|60:36|60:36|60:104|96:104|204:104,1,330.000012588501
104,340,157514,1,0,0:0:0:0:
60,152,157691,1,0,0:0:0:0:
256,64,157867,1,0,0:0:0:0:
332,212,158220,5,0,0:0:0:0:
128,64,161044,5,0,0:0:0:0:
212,268,161397,1,0,0:0:0:0:
212,268,161485,1,0,0:0:0:0:
212,268,161573,1,0,0:0:0:0:
424,52,162102,1,0,0:0:0:0:
452,268,162455,6,0,P|400:316|352:316,1,110
232,208,162808,2,0,P|172:256|152:288,1,110
60,180,163161,1,0,0:0:0:0:
148,64,163338,1,0,0:0:0:0:
60,180,163514,1,0,0:0:0:0:
184,168,163691,1,0,0:0:0:0:
148,64,163867,6,0,L|76:196,1,121.000003692627
184,168,164220,6,0,L|262:296,1,121.000003692627
384,60,164573,2,0,P|412:96|400:136,1,82.5000031471254
344,188,164926,2,0,P|320:236|348:272,1,82.5000031471254
440,296,165279,2,0,P|408:332|360:348,1,82.5000031471254
216,344,165632,6,0,L|296:240,1,121.000003692627
152,244,165985,2,0,P|88:264|68:280,1,82.5000031471254
48,176,166338,2,0,P|76:136|124:136,1,82.5000031471254
176,52,166691,6,0,L|240:172,1,121.000003692627
360,136,167044,2,0,P|376:184|416:192,1,82.5000031471254
428,272,167397,2,0,P|376:276|372:304,1,82.5000031471254
296,240,167749,6,0,L|148:224,1,121.000003692627
80,144,168102,2,0,P|88:104|116:68,1,82.5000031471254
192,132,168455,2,0,P|212:176|256:184,1,82.5000031471254
320,56,168808,2,0,P|316:100|328:136,1,82.5000031471254
436,156,169161,6,0,L|384:288,1,121.000003692627
312,252,169514,6,0,L|192:296,1,121.000003692627
100,188,169867,1,0,0:0:0:0:
304,68,170220,1,0,0:0:0:0:
328,104,170397,1,0,0:0:0:0:
404,244,170573,1,0,0:0:0:0:
380,276,170749,1,0,0:0:0:0:
168,240,170926,1,0,0:0:0:0:
132,216,171102,1,0,0:0:0:0:
224,64,171279,6,0,L|256:192,1,121.000003692627
452,184,171632,1,0,0:0:0:0:
436,220,171808,1,0,0:0:0:0:
312,332,171985,1,0,0:0:0:0:
272,348,172161,1,0,0:0:0:0:
316,68,172338,6,0,L|284:224,1,121.000003692627
144,192,172691,2,0,P|116:160|120:112,1,82.5000031471254
208,60,173044,1,0,0:0:0:0:
208,60,173220,1,0,0:0:0:0:
348,160,173397,6,0,L|240:260,1,121.000003692627
124,284,173749,2,0,P|136:332|176:332,1,82.5000031471254
304,296,174102,1,0,0:0:0:0:
304,296,174279,1,0,0:0:0:0:
452,332,174455,1,0,0:0:0:0:
452,332,174632,1,0,0:0:0:0:
404,204,174808,6,0,L|416:76,1,121.000003692627
224,60,175161,6,0,B|148:40|84:52|84:52|52:112|104:172,1,263.99999194336
184,272,175691,2,0,B|304:288|252:344|252:344|180:316|304:220,1,263.99999194336
348,128,176220,2,0,B|360:96|360:96|404:204,1,131.99999597168
368,324,176573,5,0,0:0:0:0:
368,324,176749,1,0,0:0:0:0:
184,224,176926,6,0,L|92:332,1,121.000003692627
88,160,177279,2,0,P|72:108|100:80,1,82.5000031471254
220,44,177632,1,0,0:0:0:0:
316,148,177808,1,0,0:0:0:0:
448,48,177985,6,0,L|412:184,1,121.000003692627
284,260,178338,1,0,0:0:0:0:
284,260,178514,1,0,0:0:0:0:
168,352,178691,1,0,0:0:0:0:
64,244,178867,1,0,0:0:0:0:
252,88,179044,6,0,L|156:184,1,121.000003692627
416,104,179397,1,0,0:0:0:0:
336,204,179573,1,0,0:0:0:0:
352,336,179749,1,0,0:0:0:0:
236,236,179926,1,0,0:0:0:0:
76,240,180102,1,0,0:0:0:0:
168,72,180279,1,0,0:0:0:0:
328,64,180455,6,0,P|384:112|372:224,1,181.500005538941
352,224,180808,1,0,0:0:0:0:
204,144,181161,1,0,0:0:0:0:
64,236,181514,2,0,P|88:280|136:296,1,82.5000031471254
216,240,181867,2,0,P|280:256|296:280,1,82.5000031471254
380,344,182220,2,0,P|428:328|448:288,1,82.5000031471254
420,144,182573,2,0,P|392:188|352:200,1,82.5000031471254
280,104,182926,2,0,P|264:156|224:192,1,82.5000031471254
136,316,183279,5,0,0:0:0:0:
136,271,183367,1,0,0:0:0:0:
109,307,183455,1,0,0:0:0:0:
152,293,183544,1,0,0:0:0:0:
109,280,183632,1,0,0:0:0:0:
52,156,183808,1,0,0:0:0:0:
172,64,183985,2,0,P|228:32|272:40,1,82.5000031471254
392,272,184691,1,0,0:0:0:0:
64,56,186455,5,0,0:0:0:0:
448,328,187867,5,0,0:0:0:0:
448,56,189279,5,0,0:0:0:0:
200,140,189632,1,0,0:0:0:0:
229,168,189720,1,0,0:0:0:0:
259,197,189808,1,0,0:0:0:0:
288,226,189896,1,0,0:0:0:0:
318,254,189984,1,0,0:0:0:0:
64,328,190691,5,0,0:0:0:0:
168,40,192102,5,0,0:0:0:0:
204,221,192985,1,0,0:0:0:0:
256,132,193161,1,0,0:0:0:0:
307,221,193338,1,0,0:0:0:0:
168,344,193514,5,0,0:0:0:0:
344,40,194926,5,0,0:0:0:0:
256,112,195279,1,0,0:0:0:0:
256,153,195367,1,0,0:0:0:0:
256,194,195455,1,0,0:0:0:0:
256,235,195543,1,0,0:0:0:0:
256,277,195631,1,0,0:0:0:0:
344,344,196338,5,0,0:0:0:0:
180,136,197749,5,0,0:0:0:0:
332,136,197926,1,0,0:0:0:0:
256,228,198279,2,0,L|256:344,1,110
256,48,198808,1,0,0:0:0:0:
180,248,199161,5,0,0:0:0:0:
332,248,199338,1,0,0:0:0:0:
256,156,199691,2,0,L|256:40,1,110
256,336,200220,1,0,0:0:0:0:
256,48,200573,5,0,0:0:0:0:
154,293,200749,1,0,0:0:0:0:
357,293,200926,1,0,0:0:0:0:
154,90,201102,1,0,0:0:0:0:
357,90,201279,1,0,0:0:0:0:
256,335,201455,1,0,0:0:0:0:
112,191,201632,1,0,0:0:0:0:
400,192,201808,1,0,0:0:0:0:
284,48,201985,5,0,0:0:0:0:
284,335,202161,1,0,0:0:0:0:
316,51,202338,1,0,0:0:0:0:
251,332,202514,1,0,0:0:0:0:
224,48,202691,1,0,0:0:0:0:
224,335,202867,1,0,0:0:0:0:
191,51,203044,1,0,0:0:0:0:
251,332,203220,1,0,0:0:0:0:
402,127,203397,6,0,P|354:155|338:227,1,110
109,127,203926,1,0,0:0:0:0:
176,204,204103,1,0,0:0:0:0:
256,48,204455,1,0,0:0:0:0:
109,127,204808,6,0,P|157:155|173:227,1,110
402,127,205337,1,0,0:0:0:0:
336,204,205514,1,0,0:0:0:0:
256,48,205866,1,0,0:0:0:0:
444,324,206220,5,0,0:0:0:0:
368,216,206397,1,0,0:0:0:0:
296,324,206573,1,0,0:0:0:0:
220,216,206749,1,0,0:0:0:0:
148,324,206926,1,0,0:0:0:0:
220,216,207102,1,0,0:0:0:0:
152,100,207279,1,0,0:0:0:0:
76,216,207455,1,0,0:0:0:0:
148,328,207632,6,0,P|208:320|236:264,1,110
260,152,207985,2,0,P|336:128|384:144,1,110
444,240,208338,1,0,0:0:0:0:
320,288,208514,1,0,0:0:0:0:
444,240,208691,1,0,0:0:0:0:
320,288,208867,1,0,0:0:0:0:
256,56,209044,5,0,0:0:0:0:
176,301,209220,1,0,0:0:0:0:
385,150,209573,1,0,0:0:0:0:
126,150,209749,1,0,0:0:0:0:
335,301,210102,1,0,0:0:0:0:
256,56,210455,5,0,0:0:0:0:
176,301,210631,1,0,0:0:0:0:
385,150,210984,1,0,0:0:0:0:
126,150,211160,1,0,0:0:0:0:
335,301,211513,1,0,0:0:0:0:
100,84,211867,6,0,P|128:140|96:204,1,110
104,288,212220,2,0,P|172:300|240:296,1,110
300,184,212573,1,0,0:0:0:0:
376,52,212749,1,0,0:0:0:0:
452,184,212926,1,0,0:0:0:0:
376,328,213102,1,0,0:0:0:0:
232,288,213279,6,0,L|120:232,1,110
88,120,213632,2,0,P|96:64|164:44,1,110
288,60,213985,2,0,L|352:160,1,110
256,260,214338,1,0,0:0:0:0:
256,356,214514,1,0,0:0:0:0:
96,92,214691,6,0,L|152:236,1,110
416,92,215220,2,0,L|376:194,1,110
256,324,215749,1,0,0:0:0:0:
416,92,216102,6,0,L|376:194,1,110
96,92,216631,2,0,L|135:194,1,110
256,324,217160,1,0,0:0:0:0:
256,88,217514,5,0,0:0:0:0:
192,256,217691,1,0,0:0:0:0:
344,164,217867,1,0,0:0:0:0:
164,164,218044,1,0,0:0:0:0:
316,260,218220,1,0,0:0:0:0:
256,92,218397,1,0,0:0:0:0:
256,272,218573,1,0,0:0:0:0:
344,116,218749,1,0,0:0:0:0:
196,220,218926,5,0,0:0:0:0:
372,188,219102,1,0,0:0:0:0:
196,152,219279,1,0,0:0:0:0:
344,252,219455,1,0,0:0:0:0:
248,100,219632,1,0,0:0:0:0:
284,276,219808,1,0,0:0:0:0:
312,100,219985,1,0,0:0:0:0:
224,256,220161,1,0,0:0:0:0:
112,132,220338,5,0,0:0:0:0:
148,292,220514,1,0,0:0:0:0:
204,136,220691,1,0,0:0:0:0:
256,292,220867,1,0,0:0:0:0:
300,132,221044,1,0,0:0:0:0:
340,292,221220,1,0,0:0:0:0:
380,132,221397,1,0,0:0:0:0:
484,260,221573,1,0,0:0:0:0:
332,200,221749,5,0,0:0:0:0:
180,268,221926,1,0,0:0:0:0:
172,104,222102,1,0,0:0:0:0:
272,236,222279,1,0,0:0:0:0:
372,108,222455,1,0,0:0:0:0:
452,252,222632,1,0,0:0:0:0:
316,344,222808,1,0,0:0:0:0:
200,224,222985,1,0,0:0:0:0:
308,132,223161,5,0,0:0:0:0:
400,244,223338,1,0,0:0:0:0:
292,336,223514,1,0,0:0:0:0:
164,268,223691,1,0,0:0:0:0:
304,232,223867,1,0,0:0:0:0:
172,172,224044,1,0,0:0:0:0:
300,112,224220,1,0,0:0:0:0:
248,244,224397,1,0,0:0:0:0:
228,116,224573,5,0,0:0:0:0:
328,196,224749,1,0,0:0:0:0:
260,304,224926,1,0,0:0:0:0:
380,264,225102,1,0,0:0:0:0:
256,232,225279,1,0,0:0:0:0:
340,328,225455,1,0,0:0:0:0:
336,200,225632,1,0,0:0:0:0:
260,304,225808,1,0,0:0:0:0:
128,68,225985,6,0,P|80:184|136:276,1,220
260,200,226249,1,0,0:0:0:0:
393,262,226338,2,0,P|432:162|384:67,1,220
