osu file format v14

[General]
AudioFilename: audio.mp3
AudioLeadIn: 0
PreviewTime: 56986
Countdown: 0
SampleSet: Soft
StackLeniency: 0.7
Mode: 3
LetterboxInBreaks: 0
SpecialStyle: 0
WidescreenStoryboard: 1

[Editor]
DistanceSpacing: 0.8
BeatDivisor: 4
GridSize: 32
TimelineZoom: 2.5

[Metadata]
Title:d Minor Sonatine (Insomnia)
TitleUnicode:d Minor Sonatine (Insomnia)
Artist:dMinor117 & ShirinNeko
ArtistUnicode:dMinor117 & ShirinNeko
Creator:MJH
Version:Normal
Source:osu!mania 4K Chinese National Cup 2023
Tags:Classical Instrumental piano solo 星川みのり Hoshikawa Minori MCNC 4K 2023 osu!mania 4K 中国国家杯 custom osu! original rice polyrhythm
BeatmapID:4209133
BeatmapSetID:2019665

[Difficulty]
HPDrainRate:7
CircleSize:5
OverallDifficulty:7
ApproachRate:5
SliderMultiplier:1.4
SliderTickRate:1

[Events]
//Background and Video events
0,0,"BG.jpg",0,0
//Break Periods
//Storyboard Layer 0 (Background)
//Storyboard Layer 1 (Fail)
//Storyboard Layer 2 (Pass)
//Storyboard Layer 3 (Foreground)
//Storyboard Layer 4 (Overlay)
//Storyboard Sound Samples

[TimingPoints]
2260,262.008734,3,2,1,70,1,0
31866,262.008734,3,2,1,70,1,0

[HitObjects]
51,192,2260,5,0,0:0:0:0:
153,192,2731,1,0,0:0:0:0:
51,192,2888,1,0,0:0:0:0:
460,192,3046,1,0,0:0:0:0:
358,192,3517,1,0,0:0:0:0:
460,192,3674,1,0,0:0:0:0:
51,192,3832,1,0,0:0:0:0:
153,192,4303,1,0,0:0:0:0:
51,192,4460,1,0,0:0:0:0:
460,192,4618,1,0,0:0:0:0:
358,192,5089,1,0,0:0:0:0:
460,192,5246,1,0,0:0:0:0:
51,192,5404,1,0,0:0:0:0:
256,192,5404,1,0,0:0:0:0:
256,192,5875,1,0,0:0:0:0:
358,192,6032,1,0,0:0:0:0:
153,192,6190,1,0,0:0:0:0:
460,192,6661,1,0,0:0:0:0:
256,192,6818,1,0,0:0:0:0:
51,192,6976,1,0,0:0:0:0:
358,192,6976,1,0,0:0:0:0:
256,192,7447,1,0,0:0:0:0:
51,192,7604,1,0,0:0:0:0:
153,192,7762,1,0,0:0:0:0:
460,192,7762,1,0,0:0:0:0:
460,192,8233,1,0,0:0:0:0:
358,192,8391,1,0,0:0:0:0:
153,192,8548,1,0,0:0:0:0:
256,192,8548,1,0,0:0:0:0:
358,192,9019,1,0,0:0:0:0:
460,192,9177,1,0,0:0:0:0:
51,192,9334,1,0,0:0:0:0:
460,192,9805,1,0,0:0:0:0:
256,192,9963,1,0,0:0:0:0:
153,192,10120,1,0,0:0:0:0:
358,192,10591,1,0,0:0:0:0:
51,192,10749,1,0,0:0:0:0:
256,192,10906,1,0,0:0:0:0:
256,192,11377,1,0,0:0:0:0:
51,192,11535,1,0,0:0:0:0:
460,192,11692,1,0,0:0:0:0:
153,192,11692,1,0,0:0:0:0:
256,192,12163,1,0,0:0:0:0:
153,192,12321,1,0,0:0:0:0:
358,192,12478,1,0,0:0:0:0:
51,192,12949,1,0,0:0:0:0:
153,192,13107,1,0,0:0:0:0:
460,192,13264,1,0,0:0:0:0:
358,192,13264,1,0,0:0:0:0:
51,192,13735,1,0,0:0:0:0:
256,192,13893,1,0,0:0:0:0:
358,192,14050,1,0,0:0:0:0:
153,192,14522,1,0,0:0:0:0:
460,192,14679,1,0,0:0:0:0:
256,192,14836,1,0,0:0:0:0:
358,192,14836,1,0,0:0:0:0:
153,192,15308,1,0,0:0:0:0:
51,192,15465,1,0,0:0:0:0:
460,192,15622,1,0,0:0:0:0:
153,192,16094,1,0,0:0:0:0:
256,192,16251,1,0,0:0:0:0:
358,192,16408,1,0,0:0:0:0:
51,192,16408,1,0,0:0:0:0:
153,192,16880,1,0,0:0:0:0:
460,192,17037,1,0,0:0:0:0:
256,192,17194,1,0,0:0:0:0:
256,192,17666,1,0,0:0:0:0:
460,192,17823,1,0,0:0:0:0:
153,192,17980,1,0,0:0:0:0:
358,192,17980,1,0,0:0:0:0:
51,192,18452,1,0,0:0:0:0:
256,192,18609,1,0,0:0:0:0:
460,192,18766,1,0,0:0:0:0:
358,192,19238,1,0,0:0:0:0:
153,192,19395,1,0,0:0:0:0:
51,192,19552,1,0,0:0:0:0:
460,192,19552,1,0,0:0:0:0:
256,192,20024,1,0,0:0:0:0:
51,192,20181,1,0,0:0:0:0:
358,192,20338,1,0,0:0:0:0:
358,192,20810,1,0,0:0:0:0:
256,192,20967,1,0,0:0:0:0:
153,192,21124,1,0,0:0:0:0:
460,192,21124,1,0,0:0:0:0:
256,192,21596,1,0,0:0:0:0:
460,192,21753,1,0,0:0:0:0:
358,192,21910,1,0,0:0:0:0:
51,192,22135,1,0,0:0:0:0:
153,192,22247,1,0,0:0:0:0:
256,192,22359,1,0,0:0:0:0:
358,192,22472,1,0,0:0:0:0:
460,192,22584,1,0,0:0:0:0:
51,192,22696,1,0,0:0:0:0:
153,192,22696,1,0,0:0:0:0:
358,192,23168,1,0,0:0:0:0:
51,192,23325,1,0,0:0:0:0:
256,192,23482,1,0,0:0:0:0:
256,192,23954,1,0,0:0:0:0:
153,192,24111,1,0,0:0:0:0:
51,192,24268,1,0,0:0:0:0:
358,192,24268,1,0,0:0:0:0:
460,192,24740,1,0,0:0:0:0:
256,192,24897,1,0,0:0:0:0:
153,192,25054,1,0,0:0:0:0:
256,192,25526,1,0,0:0:0:0:
460,192,25683,1,0,0:0:0:0:
153,192,25840,1,0,0:0:0:0:
51,192,25840,1,0,0:0:0:0:
256,192,26155,1,0,0:0:0:0:
358,192,26312,1,0,0:0:0:0:
153,192,26469,1,0,0:0:0:0:
358,192,26626,1,0,0:0:0:0:
51,192,26739,1,0,0:0:0:0:
256,192,26851,1,0,0:0:0:0:
460,192,26963,1,0,0:0:0:0:
153,192,27075,1,0,0:0:0:0:
358,192,27300,1,0,0:0:0:0:
256,192,27622,1,0,0:0:0:0:
51,192,28493,1,0,0:0:0:0:
256,192,28670,1,0,0:0:0:0:
153,192,29541,1,0,0:0:0:0:
358,192,29712,1,0,0:0:0:0:
256,192,30709,1,0,0:0:0:0:
460,192,30709,1,0,0:0:0:0:
51,192,31866,1,0,0:0:0:0:
153,192,31866,1,0,0:0:0:0:
256,192,32337,1,0,0:0:0:0:
358,192,32494,1,0,0:0:0:0:
153,192,32652,1,0,0:0:0:0:
460,192,32652,1,0,0:0:0:0:
256,192,33123,1,0,0:0:0:0:
460,192,33280,1,0,0:0:0:0:
51,192,33438,1,0,0:0:0:0:
256,192,33438,1,0,0:0:0:0:
358,192,33752,1,0,0:0:0:0:
460,192,33909,1,0,0:0:0:0:
358,192,34066,1,0,0:0:0:0:
153,192,34224,1,0,0:0:0:0:
358,192,34538,1,0,0:0:0:0:
256,192,34695,1,0,0:0:0:0:
51,192,34852,1,0,0:0:0:0:
153,192,35010,1,0,0:0:0:0:
256,192,35010,1,0,0:0:0:0:
358,192,35481,1,0,0:0:0:0:
51,192,35638,1,0,0:0:0:0:
256,192,35796,1,0,0:0:0:0:
460,192,36267,1,0,0:0:0:0:
358,192,36424,1,0,0:0:0:0:
153,192,36582,1,0,0:0:0:0:
460,192,36582,1,0,0:0:0:0:
256,192,36896,1,0,0:0:0:0:
358,192,37053,1,0,0:0:0:0:
256,192,37210,1,0,0:0:0:0:
51,192,37368,1,0,0:0:0:0:
460,192,37592,1,0,0:0:0:0:
358,192,37705,1,0,0:0:0:0:
256,192,37817,1,0,0:0:0:0:
153,192,37929,1,0,0:0:0:0:
51,192,38041,1,0,0:0:0:0:
460,192,38154,1,0,0:0:0:0:
358,192,38154,1,0,0:0:0:0:
51,192,38625,1,0,0:0:0:0:
153,192,38783,1,0,0:0:0:0:
358,192,38940,1,0,0:0:0:0:
256,192,38940,1,0,0:0:0:0:
153,192,39411,1,0,0:0:0:0:
256,192,39569,1,0,0:0:0:0:
460,192,39726,1,0,0:0:0:0:
153,192,39726,1,0,0:0:0:0:
256,192,40197,1,0,0:0:0:0:
51,192,40355,1,0,0:0:0:0:
358,192,40512,1,0,0:0:0:0:
460,192,40512,1,0,0:0:0:0:
358,192,40983,1,0,0:0:0:0:
51,192,41141,1,0,0:0:0:0:
358,192,41298,1,0,0:0:0:0:
256,192,41298,1,0,0:0:0:0:
153,192,41769,1,0,0:0:0:0:
460,192,41927,1,0,0:0:0:0:
256,192,42084,1,0,0:0:0:0:
256,192,42555,1,0,0:0:0:0:
51,192,42713,1,0,0:0:0:0:
358,192,42870,1,0,0:0:0:0:
358,192,43341,1,0,0:0:0:0:
51,192,43499,1,0,0:0:0:0:
256,192,43656,5,0,0:0:0:0:
256,192,44128,1,0,0:0:0:0:
460,192,44285,1,0,0:0:0:0:
51,192,44442,1,0,0:0:0:0:
153,192,44442,1,0,0:0:0:0:
358,192,44914,1,0,0:0:0:0:
256,192,45071,1,0,0:0:0:0:
51,192,45228,1,0,0:0:0:0:
460,192,45700,1,0,0:0:0:0:
256,192,45857,1,0,0:0:0:0:
153,192,46014,1,0,0:0:0:0:
460,192,46014,1,0,0:0:0:0:
51,192,46328,1,0,0:0:0:0:
256,192,46486,1,0,0:0:0:0:
358,192,46643,1,0,0:0:0:0:
51,192,46800,1,0,0:0:0:0:
256,192,46800,1,0,0:0:0:0:
358,192,47137,1,0,0:0:0:0:
256,192,47249,1,0,0:0:0:0:
153,192,47361,1,0,0:0:0:0:
51,192,47474,1,0,0:0:0:0:
358,192,47586,1,0,0:0:0:0:
460,192,47586,1,0,0:0:0:0:
51,192,48058,1,0,0:0:0:0:
256,192,48215,1,0,0:0:0:0:
460,192,48372,1,0,0:0:0:0:
153,192,48844,1,0,0:0:0:0:
256,192,49001,1,0,0:0:0:0:
358,192,49158,1,0,0:0:0:0:
153,192,49158,1,0,0:0:0:0:
256,192,49630,1,0,0:0:0:0:
51,192,49787,1,0,0:0:0:0:
460,192,49944,1,0,0:0:0:0:
358,192,50416,1,0,0:0:0:0:
51,192,50573,1,0,0:0:0:0:
256,192,50730,1,0,0:0:0:0:
358,192,50730,1,0,0:0:0:0:
460,192,51202,1,0,0:0:0:0:
153,192,51359,1,0,0:0:0:0:
358,192,51516,1,0,0:0:0:0:
256,192,51988,1,0,0:0:0:0:
51,192,52145,1,0,0:0:0:0:
256,192,52302,1,0,0:0:0:0:
153,192,52302,1,0,0:0:0:0:
153,192,52774,1,0,0:0:0:0:
460,192,52931,1,0,0:0:0:0:
358,192,53088,1,0,0:0:0:0:
51,192,53560,1,0,0:0:0:0:
256,192,53717,1,0,0:0:0:0:
51,192,53874,1,0,0:0:0:0:
460,192,53874,1,0,0:0:0:0:
358,192,54346,1,0,0:0:0:0:
460,192,54503,1,0,0:0:0:0:
153,192,54660,1,0,0:0:0:0:
256,192,55132,1,0,0:0:0:0:
153,192,55289,1,0,0:0:0:0:
51,192,55446,1,0,0:0:0:0:
51,192,57018,5,0,0:0:0:0:
153,192,57018,1,0,0:0:0:0:
460,192,57490,1,0,0:0:0:0:
358,192,57647,1,0,0:0:0:0:
153,192,57804,1,0,0:0:0:0:
256,192,57804,1,0,0:0:0:0:
358,192,57962,1,0,0:0:0:0:
51,192,58276,1,0,0:0:0:0:
358,192,58433,1,0,0:0:0:0:
51,192,58590,1,0,0:0:0:0:
460,192,58590,1,0,0:0:0:0:
256,192,59062,1,0,0:0:0:0:
51,192,59219,1,0,0:0:0:0:
153,192,59376,1,0,0:0:0:0:
460,192,59376,1,0,0:0:0:0:
358,192,59691,1,0,0:0:0:0:
256,192,59848,1,0,0:0:0:0:
460,192,60005,1,0,0:0:0:0:
153,192,60162,1,0,0:0:0:0:
256,192,60162,1,0,0:0:0:0:
358,192,60477,1,0,0:0:0:0:
153,192,60634,1,0,0:0:0:0:
460,192,60791,1,0,0:0:0:0:
256,192,60948,1,0,0:0:0:0:
51,192,61263,1,0,0:0:0:0:
153,192,61420,1,0,0:0:0:0:
358,192,61577,1,0,0:0:0:0:
153,192,61734,1,0,0:0:0:0:
51,192,61734,1,0,0:0:0:0:
460,192,62206,1,0,0:0:0:0:
153,192,62363,1,0,0:0:0:0:
256,192,62521,1,0,0:0:0:0:
358,192,62992,1,0,0:0:0:0:
153,192,63149,1,0,0:0:0:0:
358,192,63307,1,0,0:0:0:0:
460,192,63307,1,0,0:0:0:0:
51,192,63778,1,0,0:0:0:0:
153,192,63935,1,0,0:0:0:0:
358,192,64093,1,0,0:0:0:0:
256,192,64093,1,0,0:0:0:0:
153,192,64250,1,0,0:0:0:0:
460,192,64564,1,0,0:0:0:0:
153,192,64721,1,0,0:0:0:0:
460,192,64879,1,0,0:0:0:0:
51,192,64879,1,0,0:0:0:0:
256,192,65350,1,0,0:0:0:0:
460,192,65507,1,0,0:0:0:0:
358,192,65665,1,0,0:0:0:0:
153,192,65979,1,0,0:0:0:0:
256,192,66136,1,0,0:0:0:0:
51,192,66293,1,0,0:0:0:0:
358,192,66451,1,0,0:0:0:0:
256,192,66451,1,0,0:0:0:0:
153,192,66922,1,0,0:0:0:0:
358,192,67079,1,0,0:0:0:0:
256,192,67237,1,0,0:0:0:0:
460,192,67708,1,0,0:0:0:0:
153,192,67866,1,0,0:0:0:0:
358,192,68023,1,0,0:0:0:0:
460,192,68023,1,0,0:0:0:0:
51,192,68337,1,0,0:0:0:0:
256,192,68494,1,0,0:0:0:0:
358,192,68652,1,0,0:0:0:0:
256,192,68809,1,0,0:0:0:0:
358,192,69123,1,0,0:0:0:0:
460,192,69280,1,0,0:0:0:0:
358,192,69438,1,0,0:0:0:0:
256,192,69595,1,0,0:0:0:0:
153,192,69595,1,0,0:0:0:0:
358,192,70066,1,0,0:0:0:0:
256,192,70224,1,0,0:0:0:0:
51,192,70381,1,0,0:0:0:0:
153,192,70381,1,0,0:0:0:0:
358,192,70538,1,0,0:0:0:0:
460,192,70852,1,0,0:0:0:0:
256,192,71010,1,0,0:0:0:0:
153,192,71167,1,0,0:0:0:0:
460,192,71167,1,0,0:0:0:0:
256,192,71638,1,0,0:0:0:0:
358,192,71796,1,0,0:0:0:0:
51,192,71953,1,0,0:0:0:0:
358,192,72290,1,0,0:0:0:0:
256,192,72402,1,0,0:0:0:0:
153,192,72514,1,0,0:0:0:0:
51,192,72627,1,0,0:0:0:0:
358,192,72739,1,0,0:0:0:0:
460,192,72739,1,0,0:0:0:0:
256,192,73053,1,0,0:0:0:0:
153,192,73210,1,0,0:0:0:0:
256,192,73368,1,0,0:0:0:0:
460,192,73525,1,0,0:0:0:0:
51,192,73525,1,0,0:0:0:0:
358,192,73839,1,0,0:0:0:0:
153,192,73997,1,0,0:0:0:0:
51,192,74154,1,0,0:0:0:0:
358,192,74311,1,0,0:0:0:0:
256,192,74311,1,0,0:0:0:0:
460,192,74625,1,0,0:0:0:0:
358,192,74783,1,0,0:0:0:0:
153,192,74940,1,0,0:0:0:0:
460,192,75097,1,0,0:0:0:0:
358,192,75569,1,0,0:0:0:0:
51,192,75726,1,0,0:0:0:0:
358,192,75883,1,0,0:0:0:0:
256,192,75883,1,0,0:0:0:0:
51,192,76355,1,0,0:0:0:0:
256,192,76512,1,0,0:0:0:0:
358,192,76669,1,0,0:0:0:0:
256,192,77141,1,0,0:0:0:0:
153,192,77298,1,0,0:0:0:0:
256,192,77455,1,0,0:0:0:0:
460,192,77455,1,0,0:0:0:0:
460,192,77927,1,0,0:0:0:0:
153,192,78084,1,0,0:0:0:0:
358,192,78241,1,0,0:0:0:0:
256,192,78241,1,0,0:0:0:0:
51,192,78466,1,0,0:0:0:0:
153,192,78578,1,0,0:0:0:0:
256,192,78690,1,0,0:0:0:0:
358,192,78802,1,0,0:0:0:0:
460,192,78915,1,0,0:0:0:0:
51,192,79027,1,0,0:0:0:0:
153,192,79027,1,0,0:0:0:0:
358,192,79499,1,0,0:0:0:0:
460,192,79656,1,0,0:0:0:0:
153,192,79813,1,0,0:0:0:0:
256,192,80285,1,0,0:0:0:0:
153,192,80442,1,0,0:0:0:0:
51,192,80599,5,0,0:0:0:0:
358,192,80599,1,0,0:0:0:0:
