osu file format v14

[General]
AudioFilename: audio.mp3
AudioLeadIn: 0
PreviewTime: 56986
Countdown: 0
SampleSet: Soft
StackLeniency: 0.7
Mode: 3
LetterboxInBreaks: 0
SpecialStyle: 0
WidescreenStoryboard: 0

[Editor]
DistanceSpacing: 0.8
BeatDivisor: 4
GridSize: 32
TimelineZoom: 3.099999

[Metadata]
Title:d Minor Sonatine (Insomnia)
TitleUnicode:d Minor Sonatine (Insomnia)
Artist:dMinor117 & ShirinNeko
ArtistUnicode:dMinor117 & ShirinNeko
Creator:MJH
Version:Midnight Impromptu for 1 More Finger
Source:osu!mania 4K Chinese National Cup 2023
Tags:Classical Instrumental piano solo 星川みのり Hoshikawa Minori MCNC 4K 2023 osu!mania 4K 中国国家杯 custom osu! original rice polyrhythm
BeatmapID:4205990
BeatmapSetID:2019665

[Difficulty]
HPDrainRate:8
CircleSize:5
OverallDifficulty:7
ApproachRate:5
SliderMultiplier:1.4
SliderTickRate:1

[Events]
//Background and Video events
0,0,"BG.jpg",0,0
//Break Periods
//Storyboard Layer 0 (Background)
//Storyboard Layer 1 (Fail)
//Storyboard Layer 2 (Pass)
//Storyboard Layer 3 (Foreground)
//Storyboard Layer 4 (Overlay)
//Storyboard Sound Samples

[TimingPoints]
2260,262.008734,3,2,1,70,1,0
31866,262.008734,3,2,1,70,1,0

[HitObjects]
51,192,2260,5,0,0:0:0:0:
153,192,2417,1,0,0:0:0:0:
357,192,2574,1,0,0:0:0:0:
255,192,2731,1,0,0:0:0:0:
51,192,2888,1,0,0:0:0:0:
51,192,3046,1,0,0:0:0:0:
255,192,3203,1,0,0:0:0:0:
357,192,3360,1,0,0:0:0:0:
255,192,3517,1,0,0:0:0:0:
51,192,3674,1,0,0:0:0:0:
153,192,3832,1,0,0:0:0:0:
255,192,3989,1,0,0:0:0:0:
459,192,4146,1,0,0:0:0:0:
357,192,4303,1,0,0:0:0:0:
153,192,4460,1,0,0:0:0:0:
153,192,4618,1,0,0:0:0:0:
357,192,4775,1,0,0:0:0:0:
459,192,4932,1,0,0:0:0:0:
357,192,5089,1,0,0:0:0:0:
153,192,5246,1,0,0:0:0:0:
459,192,5404,1,0,0:0:0:0:
51,192,5404,1,0,0:0:0:0:
357,192,5561,1,0,0:0:0:0:
153,192,5718,1,0,0:0:0:0:
255,192,5875,1,0,0:0:0:0:
459,192,6032,1,0,0:0:0:0:
459,192,6190,1,0,0:0:0:0:
255,192,6347,1,0,0:0:0:0:
357,192,6452,1,0,0:0:0:0:
153,192,6504,1,0,0:0:0:0:
255,192,6661,1,0,0:0:0:0:
51,192,6714,1,0,0:0:0:0:
357,192,6818,1,0,0:0:0:0:
357,192,6976,1,0,0:0:0:0:
153,192,6976,1,0,0:0:0:0:
255,192,7133,1,0,0:0:0:0:
459,192,7290,1,0,0:0:0:0:
357,192,7447,1,0,0:0:0:0:
153,192,7604,1,0,0:0:0:0:
255,192,7762,1,0,0:0:0:0:
153,192,7762,1,0,0:0:0:0:
357,192,7919,1,0,0:0:0:0:
153,192,8024,1,0,0:0:0:0:
459,192,8076,1,0,0:0:0:0:
357,192,8233,1,0,0:0:0:0:
51,192,8286,1,0,0:0:0:0:
255,192,8391,1,0,0:0:0:0:
459,192,8548,1,0,0:0:0:0:
255,192,8548,1,0,0:0:0:0:
51,192,8705,1,0,0:0:0:0:
153,192,8862,1,0,0:0:0:0:
255,192,9019,1,0,0:0:0:0:
459,192,9177,1,0,0:0:0:0:
459,192,9334,1,0,0:0:0:0:
255,192,9334,1,0,0:0:0:0:
459,192,9491,1,0,0:0:0:0:
357,192,9648,1,0,0:0:0:0:
255,192,9805,1,0,0:0:0:0:
51,192,9963,1,0,0:0:0:0:
255,192,10120,1,0,0:0:0:0:
51,192,10120,1,0,0:0:0:0:
51,192,10277,1,0,0:0:0:0:
357,192,10434,1,0,0:0:0:0:
153,192,10591,1,0,0:0:0:0:
153,192,10749,1,0,0:0:0:0:
459,192,10906,1,0,0:0:0:0:
255,192,10906,1,0,0:0:0:0:
357,192,11063,1,0,0:0:0:0:
357,192,11220,1,0,0:0:0:0:
153,192,11377,1,0,0:0:0:0:
255,192,11430,1,0,0:0:0:0:
459,192,11535,1,0,0:0:0:0:
459,192,11692,1,0,0:0:0:0:
357,192,11692,1,0,0:0:0:0:
255,192,11849,1,0,0:0:0:0:
51,192,12006,1,0,0:0:0:0:
153,192,12163,1,0,0:0:0:0:
357,192,12321,1,0,0:0:0:0:
357,192,12478,1,0,0:0:0:0:
153,192,12635,1,0,0:0:0:0:
51,192,12792,1,0,0:0:0:0:
153,192,12949,1,0,0:0:0:0:
255,192,13107,1,0,0:0:0:0:
255,192,13264,1,0,0:0:0:0:
51,192,13264,1,0,0:0:0:0:
153,192,13421,1,0,0:0:0:0:
357,192,13578,1,0,0:0:0:0:
255,192,13735,1,0,0:0:0:0:
51,192,13893,1,0,0:0:0:0:
51,192,14050,1,0,0:0:0:0:
255,192,14207,1,0,0:0:0:0:
153,192,14312,1,0,0:0:0:0:
357,192,14364,1,0,0:0:0:0:
51,192,14487,1,0,0:0:0:0:
255,192,14522,1,0,0:0:0:0:
357,192,14661,1,0,0:0:0:0:
153,192,14679,1,0,0:0:0:0:
459,192,14836,1,0,0:0:0:0:
153,192,14836,1,0,0:0:0:0:
51,192,14993,1,0,0:0:0:0:
153,192,15150,1,0,0:0:0:0:
255,192,15308,1,0,0:0:0:0:
459,192,15465,1,0,0:0:0:0:
459,192,15622,1,0,0:0:0:0:
255,192,15622,1,0,0:0:0:0:
459,192,15779,1,0,0:0:0:0:
357,192,15936,1,0,0:0:0:0:
255,192,16094,1,0,0:0:0:0:
51,192,16251,1,0,0:0:0:0:
255,192,16408,1,0,0:0:0:0:
51,192,16408,1,0,0:0:0:0:
51,192,16565,1,0,0:0:0:0:
357,192,16722,1,0,0:0:0:0:
153,192,16880,1,0,0:0:0:0:
357,192,16932,1,0,0:0:0:0:
255,192,16932,1,0,0:0:0:0:
153,192,17037,1,0,0:0:0:0:
459,192,17194,1,0,0:0:0:0:
357,192,17351,1,0,0:0:0:0:
459,192,17456,1,0,0:0:0:0:
255,192,17456,1,0,0:0:0:0:
357,192,17508,1,0,0:0:0:0:
256,192,17666,1,0,0:0:0:0:
460,192,17823,1,0,0:0:0:0:
459,192,17980,1,0,0:0:0:0:
357,192,17980,1,0,0:0:0:0:
51,192,17980,1,0,0:0:0:0:
153,192,18137,1,0,0:0:0:0:
357,192,18294,1,0,0:0:0:0:
255,192,18452,1,0,0:0:0:0:
51,192,18609,1,0,0:0:0:0:
51,192,18766,1,0,0:0:0:0:
255,192,18923,1,0,0:0:0:0:
357,192,19080,1,0,0:0:0:0:
255,192,19238,1,0,0:0:0:0:
153,192,19395,1,0,0:0:0:0:
459,192,19552,1,0,0:0:0:0:
357,192,19552,1,0,0:0:0:0:
153,192,19552,1,0,0:0:0:0:
255,192,19709,1,0,0:0:0:0:
51,192,19866,1,0,0:0:0:0:
153,192,20024,1,0,0:0:0:0:
357,192,20181,1,0,0:0:0:0:
357,192,20338,1,0,0:0:0:0:
153,192,20495,1,0,0:0:0:0:
460,192,20495,1,0,0:0:0:0:
357,192,20600,1,0,0:0:0:0:
255,192,20600,1,0,0:0:0:0:
51,192,20653,1,0,0:0:0:0:
153,192,20810,1,0,0:0:0:0:
255,192,20967,1,0,0:0:0:0:
357,192,21124,1,0,0:0:0:0:
255,192,21124,1,0,0:0:0:0:
51,192,21124,1,0,0:0:0:0:
459,192,21281,1,0,0:0:0:0:
357,192,21439,1,0,0:0:0:0:
255,192,21596,1,0,0:0:0:0:
51,192,21753,1,0,0:0:0:0:
255,192,21910,1,0,0:0:0:0:
51,192,21910,1,0,0:0:0:0:
153,192,22022,1,0,0:0:0:0:
51,192,22135,1,0,0:0:0:0:
358,192,22172,1,0,0:0:0:0:
255,192,22247,1,0,0:0:0:0:
358,192,22347,1,0,0:0:0:0:
153,192,22359,1,0,0:0:0:0:
255,192,22472,1,0,0:0:0:0:
460,192,22522,1,0,0:0:0:0:
357,192,22584,1,0,0:0:0:0:
459,192,22696,1,0,0:0:0:0:
256,192,22696,1,0,0:0:0:0:
459,192,22853,1,0,0:0:0:0:
357,192,23011,1,0,0:0:0:0:
255,192,23168,1,0,0:0:0:0:
51,192,23325,1,0,0:0:0:0:
255,192,23482,1,0,0:0:0:0:
51,192,23482,1,0,0:0:0:0:
51,192,23639,1,0,0:0:0:0:
153,192,23797,1,0,0:0:0:0:
255,192,23954,1,0,0:0:0:0:
357,192,24006,1,0,0:0:0:0:
459,192,24111,1,0,0:0:0:0:
255,192,24137,1,0,0:0:0:0:
459,192,24268,1,0,0:0:0:0:
153,192,24268,1,0,0:0:0:0:
255,192,24425,1,0,0:0:0:0:
459,192,24583,1,0,0:0:0:0:
357,192,24740,1,0,0:0:0:0:
153,192,24897,1,0,0:0:0:0:
255,192,25054,1,0,0:0:0:0:
153,192,25054,1,0,0:0:0:0:
357,192,25211,1,0,0:0:0:0:
256,192,25316,1,0,0:0:0:0:
459,192,25369,1,0,0:0:0:0:
357,192,25526,1,0,0:0:0:0:
51,192,25578,1,0,0:0:0:0:
255,192,25683,1,0,0:0:0:0:
459,192,25840,1,0,0:0:0:0:
255,192,25840,1,0,0:0:0:0:
153,192,25840,1,0,0:0:0:0:
357,192,25997,1,0,0:0:0:0:
51,192,26102,1,0,0:0:0:0:
256,192,26155,1,0,0:0:0:0:
357,192,26233,1,0,0:0:0:0:
459,192,26299,1,0,0:0:0:0:
153,192,26312,1,0,0:0:0:0:
358,192,26364,1,0,0:0:0:0:
460,192,26430,1,0,0:0:0:0:
51,192,26469,1,0,0:0:0:0:
256,192,26495,1,0,0:0:0:0:
358,192,26561,1,0,0:0:0:0:
460,192,26626,1,0,0:0:0:0:
51,192,26626,1,0,0:0:0:0:
358,192,26692,1,0,0:0:0:0:
153,192,26739,1,0,0:0:0:0:
460,192,26757,1,0,0:0:0:0:
256,192,26823,1,0,0:0:0:0:
51,192,26851,1,0,0:0:0:0:
357,192,26888,1,0,0:0:0:0:
459,192,26954,1,0,0:0:0:0:
255,192,26963,1,0,0:0:0:0:
357,192,27019,1,0,0:0:0:0:
153,192,27075,1,0,0:0:0:0:
459,192,27085,1,0,0:0:0:0:
357,192,27188,1,0,0:0:0:0:
255,192,27300,1,0,0:0:0:0:
459,192,27412,1,0,0:0:0:0:
357,192,27517,1,0,0:0:0:0:
255,192,27570,1,0,0:0:0:0:
51,192,27622,1,0,0:0:0:0:
153,192,27622,1,0,0:0:0:0:
51,192,28493,1,0,0:0:0:0:
256,192,28542,1,0,0:0:0:0:
358,192,28618,1,0,0:0:0:0:
460,192,28670,1,0,0:0:0:0:
51,192,29541,1,0,0:0:0:0:
153,192,29590,1,0,0:0:0:0:
256,192,29661,1,0,0:0:0:0:
459,192,29712,1,0,0:0:0:0:
357,192,30709,1,0,0:0:0:0:
459,192,30766,1,0,0:0:0:0:
255,192,30766,1,0,0:0:0:0:
51,192,31080,1,0,0:0:0:0:
357,192,31604,1,0,0:0:0:0:
459,192,31866,1,0,0:0:0:0:
51,192,31866,1,0,0:0:0:0:
255,192,32023,1,0,0:0:0:0:
357,192,32180,1,0,0:0:0:0:
255,192,32337,1,0,0:0:0:0:
459,192,32390,1,0,0:0:0:0:
153,192,32494,1,0,0:0:0:0:
357,192,32521,1,0,0:0:0:0:
459,192,32652,1,0,0:0:0:0:
153,192,32652,1,0,0:0:0:0:
255,192,32809,1,0,0:0:0:0:
357,192,32966,1,0,0:0:0:0:
153,192,33123,1,0,0:0:0:0:
357,192,33176,1,0,0:0:0:0:
51,192,33280,1,0,0:0:0:0:
255,192,33307,1,0,0:0:0:0:
357,192,33438,1,0,0:0:0:0:
51,192,33438,1,0,0:0:0:0:
459,192,33525,1,0,0:0:0:0:
153,192,33595,1,0,0:0:0:0:
357,192,33612,1,0,0:0:0:0:
459,192,33700,1,0,0:0:0:0:
255,192,33752,1,0,0:0:0:0:
357,192,33787,1,0,0:0:0:0:
459,192,33874,1,0,0:0:0:0:
51,192,33909,1,0,0:0:0:0:
357,192,33962,1,0,0:0:0:0:
460,192,34049,1,0,0:0:0:0:
153,192,34066,1,0,0:0:0:0:
357,192,34136,1,0,0:0:0:0:
459,192,34224,1,0,0:0:0:0:
153,192,34224,1,0,0:0:0:0:
255,192,34289,1,0,0:0:0:0:
153,192,34355,1,0,0:0:0:0:
460,192,34355,1,0,0:0:0:0:
357,192,34381,1,0,0:0:0:0:
51,192,34420,1,0,0:0:0:0:
153,192,34486,1,0,0:0:0:0:
255,192,34538,1,0,0:0:0:0:
51,192,34551,1,0,0:0:0:0:
357,192,34617,1,0,0:0:0:0:
255,192,34682,1,0,0:0:0:0:
459,192,34695,1,0,0:0:0:0:
153,192,34748,1,0,0:0:0:0:
51,192,34835,1,0,0:0:0:0:
357,192,34852,1,0,0:0:0:0:
255,192,34922,1,0,0:0:0:0:
357,192,35010,1,0,0:0:0:0:
153,192,35010,1,0,0:0:0:0:
255,192,35167,1,0,0:0:0:0:
153,192,35272,1,0,0:0:0:0:
459,192,35324,1,0,0:0:0:0:
357,192,35481,1,0,0:0:0:0:
51,192,35534,1,0,0:0:0:0:
153,192,35638,1,0,0:0:0:0:
358,192,35730,1,0,0:0:0:0:
256,192,35730,1,0,0:0:0:0:
153,192,35796,1,0,0:0:0:0:
255,192,35927,1,0,0:0:0:0:
357,192,35953,1,0,0:0:0:0:
153,192,36058,1,0,0:0:0:0:
459,192,36110,1,0,0:0:0:0:
255,192,36189,1,0,0:0:0:0:
51,192,36189,1,0,0:0:0:0:
357,192,36267,1,0,0:0:0:0:
51,192,36320,1,0,0:0:0:0:
255,192,36424,1,0,0:0:0:0:
153,192,36451,1,0,0:0:0:0:
459,192,36582,1,0,0:0:0:0:
255,192,36582,1,0,0:0:0:0:
153,192,36669,1,0,0:0:0:0:
357,192,36739,1,0,0:0:0:0:
51,192,36756,1,0,0:0:0:0:
459,192,36844,1,0,0:0:0:0:
153,192,36844,1,0,0:0:0:0:
255,192,36896,1,0,0:0:0:0:
358,192,36909,1,0,0:0:0:0:
153,192,36975,1,0,0:0:0:0:
51,192,37040,1,0,0:0:0:0:
459,192,37053,1,0,0:0:0:0:
256,192,37106,1,0,0:0:0:0:
51,192,37171,1,0,0:0:0:0:
357,192,37210,1,0,0:0:0:0:
153,192,37237,1,0,0:0:0:0:
460,192,37302,1,0,0:0:0:0:
357,192,37368,1,0,0:0:0:0:
255,192,37368,1,0,0:0:0:0:
51,192,37433,1,0,0:0:0:0:
459,192,37480,1,0,0:0:0:0:
153,192,37499,1,0,0:0:0:0:
51,192,37564,1,0,0:0:0:0:
255,192,37592,1,0,0:0:0:0:
153,192,37630,1,0,0:0:0:0:
357,192,37705,1,0,0:0:0:0:
255,192,37717,1,0,0:0:0:0:
459,192,37804,1,0,0:0:0:0:
153,192,37817,1,0,0:0:0:0:
357,192,37892,1,0,0:0:0:0:
255,192,37929,1,0,0:0:0:0:
459,192,37979,1,0,0:0:0:0:
51,192,38041,1,0,0:0:0:0:
357,192,38066,1,0,0:0:0:0:
256,192,38154,1,0,0:0:0:0:
153,192,38154,1,0,0:0:0:0:
51,192,38311,1,0,0:0:0:0:
153,192,38468,1,0,0:0:0:0:
255,192,38625,1,0,0:0:0:0:
51,192,38678,1,0,0:0:0:0:
459,192,38783,1,0,0:0:0:0:
153,192,38809,1,0,0:0:0:0:
459,192,38940,1,0,0:0:0:0:
255,192,38940,1,0,0:0:0:0:
459,192,39097,1,0,0:0:0:0:
357,192,39254,1,0,0:0:0:0:
255,192,39411,1,0,0:0:0:0:
459,192,39464,1,0,0:0:0:0:
51,192,39569,1,0,0:0:0:0:
357,192,39595,1,0,0:0:0:0:
255,192,39726,1,0,0:0:0:0:
51,192,39726,1,0,0:0:0:0:
51,192,39883,1,0,0:0:0:0:
459,192,39988,1,0,0:0:0:0:
357,192,39988,1,0,0:0:0:0:
153,192,40040,1,0,0:0:0:0:
255,192,40197,1,0,0:0:0:0:
357,192,40250,1,0,0:0:0:0:
153,192,40250,1,0,0:0:0:0:
459,192,40355,1,0,0:0:0:0:
459,192,40512,1,0,0:0:0:0:
255,192,40512,1,0,0:0:0:0:
459,192,40669,1,0,0:0:0:0:
153,192,40774,1,0,0:0:0:0:
51,192,40774,1,0,0:0:0:0:
357,192,40826,1,0,0:0:0:0:
255,192,40983,1,0,0:0:0:0:
357,192,41036,1,0,0:0:0:0:
153,192,41036,1,0,0:0:0:0:
51,192,41141,1,0,0:0:0:0:
459,192,41298,1,0,0:0:0:0:
255,192,41298,1,0,0:0:0:0:
51,192,41298,1,0,0:0:0:0:
153,192,41455,1,0,0:0:0:0:
357,192,41612,1,0,0:0:0:0:
255,192,41769,1,0,0:0:0:0:
51,192,41927,1,0,0:0:0:0:
51,192,42084,1,0,0:0:0:0:
255,192,42241,1,0,0:0:0:0:
357,192,42398,1,0,0:0:0:0:
255,192,42555,1,0,0:0:0:0:
51,192,42713,1,0,0:0:0:0:
153,192,42870,1,0,0:0:0:0:
255,192,43027,1,0,0:0:0:0:
459,192,43184,1,0,0:0:0:0:
357,192,43341,1,0,0:0:0:0:
153,192,43499,1,0,0:0:0:0:
153,192,43656,1,0,0:0:0:0:
357,192,43813,1,0,0:0:0:0:
459,192,43970,1,0,0:0:0:0:
357,192,44128,1,0,0:0:0:0:
153,192,44285,1,0,0:0:0:0:
459,192,44442,1,0,0:0:0:0:
51,192,44442,1,0,0:0:0:0:
256,192,44442,1,0,0:0:0:0:
357,192,44599,1,0,0:0:0:0:
153,192,44756,1,0,0:0:0:0:
255,192,44914,1,0,0:0:0:0:
459,192,45071,1,0,0:0:0:0:
459,192,45228,1,0,0:0:0:0:
357,192,45228,1,0,0:0:0:0:
255,192,45385,1,0,0:0:0:0:
153,192,45542,1,0,0:0:0:0:
255,192,45700,1,0,0:0:0:0:
51,192,45752,1,0,0:0:0:0:
357,192,45857,1,0,0:0:0:0:
357,192,46014,1,0,0:0:0:0:
153,192,46014,1,0,0:0:0:0:
459,192,46145,1,0,0:0:0:0:
255,192,46171,1,0,0:0:0:0:
357,192,46276,1,0,0:0:0:0:
459,192,46328,1,0,0:0:0:0:
255,192,46363,1,0,0:0:0:0:
153,192,46451,1,0,0:0:0:0:
357,192,46486,1,0,0:0:0:0:
51,192,46538,1,0,0:0:0:0:
459,192,46625,1,0,0:0:0:0:
153,192,46643,1,0,0:0:0:0:
357,192,46713,1,0,0:0:0:0:
255,192,46800,1,0,0:0:0:0:
153,192,46800,1,0,0:0:0:0:
357,192,46912,1,0,0:0:0:0:
459,192,47025,1,0,0:0:0:0:
255,192,47137,1,0,0:0:0:0:
153,192,47193,1,0,0:0:0:0:
357,192,47249,1,0,0:0:0:0:
51,192,47324,1,0,0:0:0:0:
153,192,47361,1,0,0:0:0:0:
255,192,47390,1,0,0:0:0:0:
51,192,47455,1,0,0:0:0:0:
460,192,47474,1,0,0:0:0:0:
153,192,47521,1,0,0:0:0:0:
358,192,47586,1,0,0:0:0:0:
256,192,47586,1,0,0:0:0:0:
153,192,47743,1,0,0:0:0:0:
51,192,47900,1,0,0:0:0:0:
153,192,48058,1,0,0:0:0:0:
256,192,48215,1,0,0:0:0:0:
256,192,48372,1,0,0:0:0:0:
51,192,48372,1,0,0:0:0:0:
358,192,48529,1,0,0:0:0:0:
153,192,48686,1,0,0:0:0:0:
256,192,48844,1,0,0:0:0:0:
460,192,48896,1,0,0:0:0:0:
358,192,49001,1,0,0:0:0:0:
357,192,49158,1,0,0:0:0:0:
255,192,49158,1,0,0:0:0:0:
153,192,49158,1,0,0:0:0:0:
51,192,49315,1,0,0:0:0:0:
153,192,49472,1,0,0:0:0:0:
255,192,49630,1,0,0:0:0:0:
459,192,49787,1,0,0:0:0:0:
459,192,49944,1,0,0:0:0:0:
153,192,49944,1,0,0:0:0:0:
459,192,50101,1,0,0:0:0:0:
357,192,50259,1,0,0:0:0:0:
153,192,50259,1,0,0:0:0:0:
255,192,50416,1,0,0:0:0:0:
459,192,50468,1,0,0:0:0:0:
51,192,50573,1,0,0:0:0:0:
153,192,50665,1,0,0:0:0:0:
357,192,50730,1,0,0:0:0:0:
51,192,50730,1,0,0:0:0:0:
51,192,50887,1,0,0:0:0:0:
153,192,51045,1,0,0:0:0:0:
256,192,51202,1,0,0:0:0:0:
460,192,51359,1,0,0:0:0:0:
153,192,51516,1,0,0:0:0:0:
460,192,51516,1,0,0:0:0:0:
460,192,51673,1,0,0:0:0:0:
358,192,51831,1,0,0:0:0:0:
256,192,51988,1,0,0:0:0:0:
460,192,52040,1,0,0:0:0:0:
51,192,52145,1,0,0:0:0:0:
256,192,52237,1,0,0:0:0:0:
51,192,52302,1,0,0:0:0:0:
358,192,52302,1,0,0:0:0:0:
51,192,52459,1,0,0:0:0:0:
153,192,52617,1,0,0:0:0:0:
256,192,52774,1,0,0:0:0:0:
460,192,52931,1,0,0:0:0:0:
256,192,53088,1,0,0:0:0:0:
460,192,53088,1,0,0:0:0:0:
460,192,53245,1,0,0:0:0:0:
358,192,53403,1,0,0:0:0:0:
256,192,53560,1,0,0:0:0:0:
460,192,53612,1,0,0:0:0:0:
51,192,53717,1,0,0:0:0:0:
51,192,53874,1,0,0:0:0:0:
256,192,53874,1,0,0:0:0:0:
357,192,54031,1,0,0:0:0:0:
459,192,54189,1,0,0:0:0:0:
255,192,54346,1,0,0:0:0:0:
357,192,54503,1,0,0:0:0:0:
153,192,54660,1,0,0:0:0:0:
51,192,54660,1,0,0:0:0:0:
255,192,54817,1,0,0:0:0:0:
357,192,54975,1,0,0:0:0:0:
153,192,55132,1,0,0:0:0:0:
255,192,55289,1,0,0:0:0:0:
51,192,55446,1,0,0:0:0:0:
459,192,57018,1,0,0:0:0:0:
153,192,57018,1,0,0:0:0:0:
51,192,57018,1,0,0:0:0:0:
255,192,57176,1,0,0:0:0:0:
357,192,57333,1,0,0:0:0:0:
255,192,57490,1,0,0:0:0:0:
51,192,57542,1,0,0:0:0:0:
460,192,57630,1,0,0:0:0:0:
153,192,57647,1,0,0:0:0:0:
255,192,57717,1,0,0:0:0:0:
357,192,57804,1,0,0:0:0:0:
153,192,57804,1,0,0:0:0:0:
459,192,57870,1,0,0:0:0:0:
51,192,57935,1,0,0:0:0:0:
255,192,57962,1,0,0:0:0:0:
358,192,58001,1,0,0:0:0:0:
459,192,58066,1,0,0:0:0:0:
357,192,58119,1,0,0:0:0:0:
153,192,58276,1,0,0:0:0:0:
357,192,58328,1,0,0:0:0:0:
255,192,58328,1,0,0:0:0:0:
51,192,58433,1,0,0:0:0:0:
459,192,58590,1,0,0:0:0:0:
255,192,58590,1,0,0:0:0:0:
51,192,58590,1,0,0:0:0:0:
153,192,58748,1,0,0:0:0:0:
255,192,58905,1,0,0:0:0:0:
51,192,59062,1,0,0:0:0:0:
153,192,59219,1,0,0:0:0:0:
357,192,59219,1,0,0:0:0:0:
459,192,59376,1,0,0:0:0:0:
153,192,59376,1,0,0:0:0:0:
51,192,59464,1,0,0:0:0:0:
357,192,59534,1,0,0:0:0:0:
153,192,59551,1,0,0:0:0:0:
460,192,59638,1,0,0:0:0:0:
255,192,59691,1,0,0:0:0:0:
358,192,59726,1,0,0:0:0:0:
153,192,59813,1,0,0:0:0:0:
459,192,59848,1,0,0:0:0:0:
256,192,59900,1,0,0:0:0:0:
51,192,59988,1,0,0:0:0:0:
357,192,60005,1,0,0:0:0:0:
256,192,60075,1,0,0:0:0:0:
358,192,60162,1,0,0:0:0:0:
153,192,60162,1,0,0:0:0:0:
460,192,60250,1,0,0:0:0:0:
255,192,60320,1,0,0:0:0:0:
358,192,60337,1,0,0:0:0:0:
153,192,60424,1,0,0:0:0:0:
459,192,60477,1,0,0:0:0:0:
51,192,60490,1,0,0:0:0:0:
256,192,60555,1,0,0:0:0:0:
153,192,60621,1,0,0:0:0:0:
357,192,60634,1,0,0:0:0:0:
460,192,60686,1,0,0:0:0:0:
256,192,60752,1,0,0:0:0:0:
153,192,60791,1,0,0:0:0:0:
460,192,60817,1,0,0:0:0:0:
357,192,60883,1,0,0:0:0:0:
459,192,60948,1,0,0:0:0:0:
153,192,60948,1,0,0:0:0:0:
255,192,61014,1,0,0:0:0:0:
51,192,61079,1,0,0:0:0:0:
357,192,61106,1,0,0:0:0:0:
153,192,61145,1,0,0:0:0:0:
256,192,61210,1,0,0:0:0:0:
459,192,61263,1,0,0:0:0:0:
153,192,61276,1,0,0:0:0:0:
255,192,61341,1,0,0:0:0:0:
51,192,61407,1,0,0:0:0:0:
357,192,61420,1,0,0:0:0:0:
153,192,61472,1,0,0:0:0:0:
51,192,61538,1,0,0:0:0:0:
255,192,61577,1,0,0:0:0:0:
153,192,61603,1,0,0:0:0:0:
357,192,61669,1,0,0:0:0:0:
459,192,61734,1,0,0:0:0:0:
255,192,61734,1,0,0:0:0:0:
153,192,61800,1,0,0:0:0:0:
51,192,61866,1,0,0:0:0:0:
357,192,61892,1,0,0:0:0:0:
153,192,61931,1,0,0:0:0:0:
460,192,61997,1,0,0:0:0:0:
255,192,62049,1,0,0:0:0:0:
357,192,62049,1,0,0:0:0:0:
459,192,62206,1,0,0:0:0:0:
357,192,62363,1,0,0:0:0:0:
153,192,62363,1,0,0:0:0:0:
357,192,62521,1,0,0:0:0:0:
51,192,62521,1,0,0:0:0:0:
153,192,62678,1,0,0:0:0:0:
255,192,62835,1,0,0:0:0:0:
51,192,62992,1,0,0:0:0:0:
459,192,63045,1,0,0:0:0:0:
256,192,63045,1,0,0:0:0:0:
153,192,63149,1,0,0:0:0:0:
357,192,63307,1,0,0:0:0:0:
255,192,63307,1,0,0:0:0:0:
153,192,63307,1,0,0:0:0:0:
51,192,63464,1,0,0:0:0:0:
153,192,63621,1,0,0:0:0:0:
255,192,63778,1,0,0:0:0:0:
358,192,63831,1,0,0:0:0:0:
153,192,63918,1,0,0:0:0:0:
459,192,63935,1,0,0:0:0:0:
256,192,64005,1,0,0:0:0:0:
459,192,64093,1,0,0:0:0:0:
358,192,64093,1,0,0:0:0:0:
256,192,64158,1,0,0:0:0:0:
51,192,64224,1,0,0:0:0:0:
459,192,64250,1,0,0:0:0:0:
358,192,64289,1,0,0:0:0:0:
153,192,64355,1,0,0:0:0:0:
357,192,64407,1,0,0:0:0:0:
255,192,64564,1,0,0:0:0:0:
460,192,64617,1,0,0:0:0:0:
153,192,64617,1,0,0:0:0:0:
51,192,64721,1,0,0:0:0:0:
459,192,64879,1,0,0:0:0:0:
255,192,64879,1,0,0:0:0:0:
51,192,64879,1,0,0:0:0:0:
51,192,65036,1,0,0:0:0:0:
153,192,65193,1,0,0:0:0:0:
255,192,65350,1,0,0:0:0:0:
153,192,65507,1,0,0:0:0:0:
459,192,65507,1,0,0:0:0:0:
459,192,65665,1,0,0:0:0:0:
255,192,65665,1,0,0:0:0:0:
459,192,65822,1,0,0:0:0:0:
153,192,65927,1,0,0:0:0:0:
357,192,65979,1,0,0:0:0:0:
459,192,66058,1,0,0:0:0:0:
255,192,66136,1,0,0:0:0:0:
357,192,66189,1,0,0:0:0:0:
51,192,66293,1,0,0:0:0:0:
255,192,66320,1,0,0:0:0:0:
459,192,66451,1,0,0:0:0:0:
357,192,66451,1,0,0:0:0:0:
51,192,66451,1,0,0:0:0:0:
153,192,66608,1,0,0:0:0:0:
357,192,66765,1,0,0:0:0:0:
255,192,66922,1,0,0:0:0:0:
51,192,67079,1,0,0:0:0:0:
357,192,67079,1,0,0:0:0:0:
459,192,67237,1,0,0:0:0:0:
51,192,67237,1,0,0:0:0:0:
255,192,67394,1,0,0:0:0:0:
357,192,67551,1,0,0:0:0:0:
255,192,67708,1,0,0:0:0:0:
459,192,67866,1,0,0:0:0:0:
51,192,67866,1,0,0:0:0:0:
459,192,68023,1,0,0:0:0:0:
357,192,68023,1,0,0:0:0:0:
153,192,68023,1,0,0:0:0:0:
51,192,68110,1,0,0:0:0:0:
255,192,68180,1,0,0:0:0:0:
153,192,68197,1,0,0:0:0:0:
51,192,68285,1,0,0:0:0:0:
358,192,68285,1,0,0:0:0:0:
459,192,68337,1,0,0:0:0:0:
153,192,68372,1,0,0:0:0:0:
460,192,68459,1,0,0:0:0:0:
357,192,68494,1,0,0:0:0:0:
51,192,68547,1,0,0:0:0:0:
256,192,68547,1,0,0:0:0:0:
358,192,68634,1,0,0:0:0:0:
153,192,68652,1,0,0:0:0:0:
460,192,68721,1,0,0:0:0:0:
255,192,68809,1,0,0:0:0:0:
153,192,68809,1,0,0:0:0:0:
460,192,68896,1,0,0:0:0:0:
357,192,68966,1,0,0:0:0:0:
153,192,68983,1,0,0:0:0:0:
256,192,69071,1,0,0:0:0:0:
51,192,69071,1,0,0:0:0:0:
459,192,69123,1,0,0:0:0:0:
153,192,69158,1,0,0:0:0:0:
256,192,69245,1,0,0:0:0:0:
357,192,69280,1,0,0:0:0:0:
51,192,69333,1,0,0:0:0:0:
358,192,69420,1,0,0:0:0:0:
153,192,69438,1,0,0:0:0:0:
256,192,69507,1,0,0:0:0:0:
459,192,69595,1,0,0:0:0:0:
153,192,69595,1,0,0:0:0:0:
51,192,69595,1,0,0:0:0:0:
357,192,69752,1,0,0:0:0:0:
153,192,69909,1,0,0:0:0:0:
255,192,70066,1,0,0:0:0:0:
51,192,70119,1,0,0:0:0:0:
153,192,70206,1,0,0:0:0:0:
459,192,70224,1,0,0:0:0:0:
358,192,70293,1,0,0:0:0:0:
459,192,70381,1,0,0:0:0:0:
256,192,70381,1,0,0:0:0:0:
51,192,70446,1,0,0:0:0:0:
153,192,70512,1,0,0:0:0:0:
255,192,70538,1,0,0:0:0:0:
459,192,70577,1,0,0:0:0:0:
357,192,70643,1,0,0:0:0:0:
51,192,70643,1,0,0:0:0:0:
153,192,70695,1,0,0:0:0:0:
255,192,70852,1,0,0:0:0:0:
459,192,70905,1,0,0:0:0:0:
153,192,70905,1,0,0:0:0:0:
357,192,71010,1,0,0:0:0:0:
357,192,71167,1,0,0:0:0:0:
153,192,71167,1,0,0:0:0:0:
51,192,71167,1,0,0:0:0:0:
255,192,71324,1,0,0:0:0:0:
459,192,71481,1,0,0:0:0:0:
357,192,71638,1,0,0:0:0:0:
459,192,71796,1,0,0:0:0:0:
153,192,71796,1,0,0:0:0:0:
255,192,71953,1,0,0:0:0:0:
153,192,71953,1,0,0:0:0:0:
357,192,72065,1,0,0:0:0:0:
459,192,72177,1,0,0:0:0:0:
153,192,72215,1,0,0:0:0:0:
51,192,72215,1,0,0:0:0:0:
255,192,72290,1,0,0:0:0:0:
51,192,72390,1,0,0:0:0:0:
357,192,72402,1,0,0:0:0:0:
153,192,72514,1,0,0:0:0:0:
256,192,72564,1,0,0:0:0:0:
460,192,72627,1,0,0:0:0:0:
358,192,72739,1,0,0:0:0:0:
255,192,72739,1,0,0:0:0:0:
51,192,72739,1,0,0:0:0:0:
153,192,72896,1,0,0:0:0:0:
256,192,73001,1,0,0:0:0:0:
51,192,73053,1,0,0:0:0:0:
358,192,73088,1,0,0:0:0:0:
460,192,73176,1,0,0:0:0:0:
153,192,73210,1,0,0:0:0:0:
358,192,73263,1,0,0:0:0:0:
460,192,73350,1,0,0:0:0:0:
256,192,73368,1,0,0:0:0:0:
256,192,73525,1,0,0:0:0:0:
51,192,73525,1,0,0:0:0:0:
153,192,73612,1,0,0:0:0:0:
358,192,73682,1,0,0:0:0:0:
51,192,73700,1,0,0:0:0:0:
256,192,73787,1,0,0:0:0:0:
460,192,73787,1,0,0:0:0:0:
153,192,73839,1,0,0:0:0:0:
256,192,73997,1,0,0:0:0:0:
153,192,74049,1,0,0:0:0:0:
51,192,74049,1,0,0:0:0:0:
358,192,74154,1,0,0:0:0:0:
153,192,74311,1,0,0:0:0:0:
358,192,74311,1,0,0:0:0:0:
256,192,74311,1,0,0:0:0:0:
51,192,74468,1,0,0:0:0:0:
358,192,74573,1,0,0:0:0:0:
153,192,74625,1,0,0:0:0:0:
460,192,74660,1,0,0:0:0:0:
358,192,74748,1,0,0:0:0:0:
256,192,74783,1,0,0:0:0:0:
51,192,74835,1,0,0:0:0:0:
153,192,74922,1,0,0:0:0:0:
460,192,74940,1,0,0:0:0:0:
358,192,75010,1,0,0:0:0:0:
460,192,75097,1,0,0:0:0:0:
256,192,75097,1,0,0:0:0:0:
460,192,75254,1,0,0:0:0:0:
358,192,75411,1,0,0:0:0:0:
256,192,75569,1,0,0:0:0:0:
51,192,75726,1,0,0:0:0:0:
460,192,75726,1,0,0:0:0:0:
153,192,75817,1,0,0:0:0:0:
256,192,75850,1,0,0:0:0:0:
51,192,75883,1,0,0:0:0:0:
358,192,75883,1,0,0:0:0:0:
51,192,76040,1,0,0:0:0:0:
153,192,76197,1,0,0:0:0:0:
256,192,76355,1,0,0:0:0:0:
153,192,76512,1,0,0:0:0:0:
460,192,76512,1,0,0:0:0:0:
256,192,76669,1,0,0:0:0:0:
460,192,76669,1,0,0:0:0:0:
460,192,76826,1,0,0:0:0:0:
51,192,76931,1,0,0:0:0:0:
153,192,76931,1,0,0:0:0:0:
358,192,76983,1,0,0:0:0:0:
256,192,77141,1,0,0:0:0:0:
153,192,77193,1,0,0:0:0:0:
358,192,77193,1,0,0:0:0:0:
51,192,77298,1,0,0:0:0:0:
51,192,77455,1,0,0:0:0:0:
256,192,77455,1,0,0:0:0:0:
460,192,77455,1,0,0:0:0:0:
51,192,77612,1,0,0:0:0:0:
153,192,77769,1,0,0:0:0:0:
256,192,77927,1,0,0:0:0:0:
51,192,78084,1,0,0:0:0:0:
460,192,78084,1,0,0:0:0:0:
256,192,78241,1,0,0:0:0:0:
460,192,78241,1,0,0:0:0:0:
358,192,78353,1,0,0:0:0:0:
460,192,78466,1,0,0:0:0:0:
256,192,78578,1,0,0:0:0:0:
358,192,78690,1,0,0:0:0:0:
51,192,78765,1,0,0:0:0:0:
460,192,78765,1,0,0:0:0:0:
256,192,78802,1,0,0:0:0:0:
153,192,78915,1,0,0:0:0:0:
358,192,79027,1,0,0:0:0:0:
255,192,79027,1,0,0:0:0:0:
460,192,79027,1,0,0:0:0:0:
153,192,79184,1,0,0:0:0:0:
51,192,79341,1,0,0:0:0:0:
255,192,79499,1,0,0:0:0:0:
153,192,79656,1,0,0:0:0:0:
459,192,79813,1,0,0:0:0:0:
357,192,79813,1,0,0:0:0:0:
255,192,79970,1,0,0:0:0:0:
153,192,80128,1,0,0:0:0:0:
357,192,80285,1,0,0:0:0:0:
51,192,80285,1,0,0:0:0:0:
255,192,80442,1,0,0:0:0:0:
459,192,80599,1,0,0:0:0:0:
51,192,80599,1,0,0:0:0:0:
