osu file format v14

[General]
AudioFilename: audio.mp3
AudioLeadIn: 0
PreviewTime: 127108
Countdown: 0
SampleSet: None
StackLeniency: 0.7
Mode: 1
LetterboxInBreaks: 0
WidescreenStoryboard: 0

[Editor]
DistanceSpacing: 0.5
BeatDivisor: 4
GridSize: 32
TimelineZoom: 1.8

[Metadata]
Title:Shinkou Fuuka Kyoku ~ Native Faith
TitleUnicode:信仰風化曲 ~ Native Faith
Artist:dBu music
ArtistUnicode:dBu music
Creator:Jaltzu
Version:Inner Oni
Source:東方Project
Tags:touhou zun
BeatmapID:1558970
BeatmapSetID:738704

[Difficulty]
HPDrainRate:5
CircleSize:2
OverallDifficulty:6
ApproachRate:0
SliderMultiplier:1.4
SliderTickRate:1

[Events]
//Background and Video events
//Break Periods
2,105026,113665
//Storyboard Layer 0 (Background)
//Storyboard Layer 1 (Fail)
//Storyboard Layer 2 (Pass)
//Storyboard Layer 3 (Foreground)
//Storyboard Sound Samples

[TimingPoints]
175,348.837209302326,4,1,0,80,1,0
36454,-100,4,1,0,80,0,1
42035,-100,4,1,0,80,0,0
44826,-100,4,1,0,80,0,1
47616,-100,4,1,0,80,0,0
70204,-111.111111111111,4,1,0,80,0,0
81105,-100,4,1,0,80,0,0
104826,-111.111111111111,4,1,0,60,0,0
127151,-100,4,1,0,80,0,0
149477,-100,4,1,0,80,0,1
155058,-100,4,1,0,80,0,0
157849,-100,4,1,0,80,0,1
160640,-90.9090909090909,4,1,0,80,0,1
166221,-90.9090909090909,4,1,0,80,0,0
166570,-100,4,1,0,80,0,0
169012,-90.9090909090909,4,1,0,80,0,1
170407,-83.3333333333333,4,1,0,80,0,1
171802,-76.9230769230769,4,1,0,80,0,1
173198,-71.4285714285714,4,1,0,80,0,1
174593,-71.4285714285714,4,1,0,80,0,0
174942,-83.3333333333333,4,1,0,80,0,0
175116,-100,4,1,0,80,0,0

[HitObjects]
256,192,175,5,12,0:0:0:0:
256,192,698,1,0,0:0:0:0:
256,192,785,1,0,0:0:0:0:
256,192,872,1,8,0:0:0:0:
256,192,1395,1,8,0:0:0:0:
256,192,1483,1,8,0:0:0:0:
256,192,1570,1,0,0:0:0:0:
256,192,2093,1,8,0:0:0:0:
256,192,2180,1,8,0:0:0:0:
256,192,2268,1,0,0:0:0:0:
256,192,2791,1,0,0:0:0:0:
256,192,2965,1,8,0:0:0:0:
256,192,3140,1,8,0:0:0:0:
256,192,3314,1,0,0:0:0:0:
256,192,3488,1,8,0:0:0:0:
256,192,3663,1,8,0:0:0:0:
256,192,3837,1,8,0:0:0:0:
256,192,4012,1,0,0:0:0:0:
256,192,4186,1,8,0:0:0:0:
256,192,4361,1,8,0:0:0:0:
256,192,4535,1,0,0:0:0:0:
256,192,4709,1,0,0:0:0:0:
256,192,4884,1,8,0:0:0:0:
256,192,5058,1,0,0:0:0:0:
256,192,5145,1,8,0:0:0:0:
256,192,5233,1,8,0:0:0:0:
256,192,5320,1,8,0:0:0:0:
256,192,5407,1,8,0:0:0:0:
256,192,5494,1,0,0:0:0:0:
256,192,5581,1,0,0:0:0:0:
256,192,5669,1,8,0:0:0:0:
256,192,5756,1,0,0:0:0:0:
256,192,5930,1,8,0:0:0:0:
256,192,6105,1,0,0:0:0:0:
256,192,6192,1,0,0:0:0:0:
256,192,6279,1,8,0:0:0:0:
256,192,6454,1,0,0:0:0:0:
256,192,6628,1,8,0:0:0:0:
256,192,6715,1,0,0:0:0:0:
256,192,6802,1,0,0:0:0:0:
256,192,6890,1,0,0:0:0:0:
256,192,6977,1,8,0:0:0:0:
256,192,7151,1,0,0:0:0:0:
256,192,7326,1,8,0:0:0:0:
256,192,7500,1,0,0:0:0:0:
256,192,7587,1,0,0:0:0:0:
256,192,7675,1,8,0:0:0:0:
256,192,7849,1,0,0:0:0:0:
256,192,8023,1,8,0:0:0:0:
256,192,8111,1,0,0:0:0:0:
256,192,8198,1,0,0:0:0:0:
256,192,8285,1,0,0:0:0:0:
256,192,8372,1,8,0:0:0:0:
256,192,8459,1,8,0:0:0:0:
256,192,8547,1,0,0:0:0:0:
256,192,8721,1,8,0:0:0:0:
256,192,8895,1,0,0:0:0:0:
256,192,8983,1,0,0:0:0:0:
256,192,9070,1,8,0:0:0:0:
256,192,9244,1,0,0:0:0:0:
256,192,9419,1,8,0:0:0:0:
256,192,9506,1,0,0:0:0:0:
256,192,9593,1,0,0:0:0:0:
256,192,9680,1,0,0:0:0:0:
256,192,9768,1,8,0:0:0:0:
256,192,9942,1,0,0:0:0:0:
256,192,10116,1,8,0:0:0:0:
256,192,10291,1,0,0:0:0:0:
256,192,10378,1,0,0:0:0:0:
256,192,10465,1,8,0:0:0:0:
256,192,10640,1,0,0:0:0:0:
256,192,10727,1,0,0:0:0:0:
256,192,10814,1,8,0:0:0:0:
256,192,10901,1,0,0:0:0:0:
256,192,10988,1,0,0:0:0:0:
256,192,11076,1,0,0:0:0:0:
256,192,11163,1,8,0:0:0:0:
256,192,11250,1,8,0:0:0:0:
256,192,11337,1,8,0:0:0:0:
256,192,11686,1,8,0:0:0:0:
256,192,11773,1,8,0:0:0:0:
256,192,11861,1,8,0:0:0:0:
256,192,11948,1,8,0:0:0:0:
256,192,12035,1,0,0:0:0:0:
256,192,12122,1,0,0:0:0:0:
256,192,12209,1,0,0:0:0:0:
256,192,12297,1,0,0:0:0:0:
256,192,12384,1,0,0:0:0:0:
256,192,12471,1,0,0:0:0:0:
256,192,12558,1,8,0:0:0:0:
256,192,12645,1,8,0:0:0:0:
256,192,12733,1,8,0:0:0:0:
256,192,13081,1,8,0:0:0:0:
256,192,13169,1,8,0:0:0:0:
256,192,13256,1,8,0:0:0:0:
256,192,13343,1,0,0:0:0:0:
256,192,13430,1,8,0:0:0:0:
256,192,13605,1,0,0:0:0:0:
256,192,13692,1,8,0:0:0:0:
256,192,13866,1,8,0:0:0:0:
256,192,13954,1,0,0:0:0:0:
256,192,14041,1,8,0:0:0:0:
256,192,14128,1,8,0:0:0:0:
256,192,14302,1,8,0:0:0:0:
256,192,14477,1,0,0:0:0:0:
256,192,14564,1,0,0:0:0:0:
256,192,14651,1,8,0:0:0:0:
256,192,14826,1,8,0:0:0:0:
256,192,15000,1,8,0:0:0:0:
256,192,15087,1,0,0:0:0:0:
256,192,15262,1,0,0:0:0:0:
256,192,15349,1,8,0:0:0:0:
256,192,15523,1,12,0:0:0:0:
256,192,15785,1,4,0:0:0:0:
256,192,16047,1,12,0:0:0:0:
256,192,16221,1,4,0:0:0:0:
256,192,16570,1,0,0:0:0:0:
256,192,16744,1,8,0:0:0:0:
256,192,16919,1,12,0:0:0:0:
256,192,17093,1,8,0:0:0:0:
256,192,17268,1,0,0:0:0:0:
256,192,17355,1,0,0:0:0:0:
256,192,17442,1,8,0:0:0:0:
256,192,17616,1,0,0:0:0:0:
256,192,17791,1,8,0:0:0:0:
256,192,17878,1,0,0:0:0:0:
256,192,18052,1,0,0:0:0:0:
256,192,18140,1,8,0:0:0:0:
256,192,18314,1,0,0:0:0:0:
256,192,18488,1,8,0:0:0:0:
256,192,18663,1,0,0:0:0:0:
256,192,18750,1,0,0:0:0:0:
256,192,18837,1,8,0:0:0:0:
256,192,18925,1,8,0:0:0:0:
256,192,19012,1,0,0:0:0:0:
256,192,19099,1,0,0:0:0:0:
256,192,19186,1,8,0:0:0:0:
256,192,19273,1,0,0:0:0:0:
256,192,19361,1,0,0:0:0:0:
256,192,19448,1,0,0:0:0:0:
256,192,19535,1,8,0:0:0:0:
256,192,19622,1,8,0:0:0:0:
256,192,19709,1,0,0:0:0:0:
256,192,19884,1,8,0:0:0:0:
256,192,20058,1,0,0:0:0:0:
256,192,20145,1,0,0:0:0:0:
256,192,20233,1,8,0:0:0:0:
256,192,20320,1,8,0:0:0:0:
256,192,20407,1,0,0:0:0:0:
256,192,20581,1,8,0:0:0:0:
256,192,20669,1,0,0:0:0:0:
256,192,20843,1,0,0:0:0:0:
256,192,20930,1,8,0:0:0:0:
256,192,21105,1,8,0:0:0:0:
256,192,21279,1,8,0:0:0:0:
256,192,21366,1,0,0:0:0:0:
256,192,21454,1,0,0:0:0:0:
256,192,21541,1,0,0:0:0:0:
256,192,21628,1,8,0:0:0:0:
256,192,21802,1,0,0:0:0:0:
256,192,21977,1,8,0:0:0:0:
256,192,22064,1,0,0:0:0:0:
256,192,22238,1,0,0:0:0:0:
256,192,22326,1,8,0:0:0:0:
256,192,22413,1,8,0:0:0:0:
256,192,22500,1,8,0:0:0:0:
256,192,22675,1,0,0:0:0:0:
256,192,22762,1,0,0:0:0:0:
256,192,22849,1,8,0:0:0:0:
256,192,23023,1,0,0:0:0:0:
256,192,23111,1,0,0:0:0:0:
256,192,23198,1,8,0:0:0:0:
256,192,23285,1,8,0:0:0:0:
256,192,23372,1,0,0:0:0:0:
256,192,23459,1,8,0:0:0:0:
256,192,23547,1,8,0:0:0:0:
256,192,23634,1,8,0:0:0:0:
256,192,23721,1,0,0:0:0:0:
256,192,23808,1,0,0:0:0:0:
256,192,23895,1,8,0:0:0:0:
256,192,24070,1,0,0:0:0:0:
256,192,24157,1,0,0:0:0:0:
256,192,24244,1,8,0:0:0:0:
256,192,24419,1,0,0:0:0:0:
256,192,24593,1,8,0:0:0:0:
256,192,24768,1,8,0:0:0:0:
256,192,24855,1,8,0:0:0:0:
256,192,24942,1,0,0:0:0:0:
256,192,25116,1,8,0:0:0:0:
256,192,25204,1,8,0:0:0:0:
256,192,25291,1,0,0:0:0:0:
256,192,25465,1,8,0:0:0:0:
256,192,25640,1,0,0:0:0:0:
256,192,25727,1,0,0:0:0:0:
256,192,25814,1,8,0:0:0:0:
256,192,25988,1,0,0:0:0:0:
256,192,26163,1,8,0:0:0:0:
256,192,26250,1,0,0:0:0:0:
256,192,26425,1,0,0:0:0:0:
256,192,26512,1,8,0:0:0:0:
256,192,26686,1,12,0:0:0:0:
256,192,26948,1,4,0:0:0:0:
256,192,27209,1,12,0:0:0:0:
256,192,27384,1,4,0:0:0:0:
256,192,27733,1,0,0:0:0:0:
256,192,27820,1,0,0:0:0:0:
256,192,27907,1,8,0:0:0:0:
256,192,28081,1,4,0:0:0:0:
256,192,28256,1,8,0:0:0:0:
256,192,28430,1,0,0:0:0:0:
256,192,28518,1,0,0:0:0:0:
256,192,28605,1,8,0:0:0:0:
256,192,28779,1,0,0:0:0:0:
256,192,28954,1,8,0:0:0:0:
256,192,29041,1,0,0:0:0:0:
256,192,29215,1,0,0:0:0:0:
256,192,29302,1,8,0:0:0:0:
256,192,29477,1,0,0:0:0:0:
256,192,29651,1,8,0:0:0:0:
256,192,29826,1,0,0:0:0:0:
256,192,29913,1,0,0:0:0:0:
256,192,30000,1,8,0:0:0:0:
256,192,30087,1,8,0:0:0:0:
256,192,30175,1,8,0:0:0:0:
256,192,30262,1,0,0:0:0:0:
256,192,30349,1,8,0:0:0:0:
256,192,30436,1,0,0:0:0:0:
256,192,30523,1,0,0:0:0:0:
256,192,30611,1,0,0:0:0:0:
256,192,30698,1,8,0:0:0:0:
256,192,30785,1,8,0:0:0:0:
256,192,30872,1,0,0:0:0:0:
256,192,31047,1,8,0:0:0:0:
256,192,31221,1,0,0:0:0:0:
256,192,31308,1,0,0:0:0:0:
256,192,31395,1,8,0:0:0:0:
256,192,31483,1,0,0:0:0:0:
256,192,31570,1,8,0:0:0:0:
256,192,31744,1,8,0:0:0:0:
256,192,31831,1,0,0:0:0:0:
256,192,32006,1,0,0:0:0:0:
256,192,32093,1,8,0:0:0:0:
256,192,32268,1,0,0:0:0:0:
256,192,32442,1,8,0:0:0:0:
256,192,32529,1,0,0:0:0:0:
256,192,32616,1,0,0:0:0:0:
256,192,32704,1,0,0:0:0:0:
256,192,32791,1,8,0:0:0:0:
256,192,32965,1,0,0:0:0:0:
256,192,33052,1,0,0:0:0:0:
256,192,33140,1,8,0:0:0:0:
256,192,33227,1,0,0:0:0:0:
256,192,33401,1,0,0:0:0:0:
256,192,33488,1,8,0:0:0:0:
256,192,33576,1,8,0:0:0:0:
256,192,33663,1,8,0:0:0:0:
256,192,33837,1,0,0:0:0:0:
256,192,33925,1,0,0:0:0:0:
256,192,34012,1,8,0:0:0:0:
256,192,34186,1,0,0:0:0:0:
256,192,34273,1,0,0:0:0:0:
256,192,34361,1,8,0:0:0:0:
256,192,34448,1,8,0:0:0:0:
256,192,34535,1,0,0:0:0:0:
256,192,34622,1,8,0:0:0:0:
256,192,34709,1,8,0:0:0:0:
256,192,34797,1,0,0:0:0:0:
256,192,34884,1,8,0:0:0:0:
256,192,35058,1,0,0:0:0:0:
256,192,35145,1,0,0:0:0:0:
256,192,35233,1,8,0:0:0:0:
256,192,35320,1,8,0:0:0:0:
256,192,35407,1,0,0:0:0:0:
256,192,35494,1,0,0:0:0:0:
256,192,35581,1,8,0:0:0:0:
256,192,35669,1,8,0:0:0:0:
256,192,35756,1,0,0:0:0:0:
256,192,35843,1,8,0:0:0:0:
256,192,35930,1,8,0:0:0:0:
256,192,36018,1,8,0:0:0:0:
256,192,36105,1,8,0:0:0:0:
256,192,36192,1,0,0:0:0:0:
256,192,36279,1,8,0:0:0:0:
256,192,36366,1,8,0:0:0:0:
256,192,36454,1,0,0:0:0:0:
256,192,36628,1,0,0:0:0:0:
256,192,36715,1,8,0:0:0:0:
256,192,36802,1,0,0:0:0:0:
256,192,36890,1,0,0:0:0:0:
256,192,36977,1,8,0:0:0:0:
256,192,37064,1,0,0:0:0:0:
256,192,37151,1,8,0:0:0:0:
256,192,37238,1,8,0:0:0:0:
256,192,37326,1,0,0:0:0:0:
256,192,37413,1,8,0:0:0:0:
256,192,37500,1,8,0:0:0:0:
256,192,37587,1,0,0:0:0:0:
256,192,37675,1,8,0:0:0:0:
256,192,37762,1,0,0:0:0:0:
256,192,37849,1,8,0:0:0:0:
256,192,37936,1,8,0:0:0:0:
256,192,38023,1,8,0:0:0:0:
256,192,38111,1,0,0:0:0:0:
256,192,38198,1,0,0:0:0:0:
256,192,38285,1,0,0:0:0:0:
256,192,38372,1,8,0:0:0:0:
256,192,38459,1,0,0:0:0:0:
256,192,38547,1,8,0:0:0:0:
256,192,38634,1,0,0:0:0:0:
256,192,38721,1,8,0:0:0:0:
256,192,38808,1,8,0:0:0:0:
256,192,38895,1,0,0:0:0:0:
256,192,38983,1,0,0:0:0:0:
256,192,39070,1,8,0:0:0:0:
256,192,39157,1,8,0:0:0:0:
256,192,39244,1,8,0:0:0:0:
256,192,39419,1,8,0:0:0:0:
256,192,39506,1,8,0:0:0:0:
256,192,39593,1,0,0:0:0:0:
256,192,39681,1,0,0:0:0:0:
256,192,39768,1,8,0:0:0:0:
256,192,39855,1,0,0:0:0:0:
256,192,39942,1,8,0:0:0:0:
256,192,40029,1,8,0:0:0:0:
256,192,40117,1,0,0:0:0:0:
256,192,40204,1,8,0:0:0:0:
256,192,40291,1,8,0:0:0:0:
256,192,40378,1,0,0:0:0:0:
256,192,40466,1,8,0:0:0:0:
256,192,40553,1,0,0:0:0:0:
256,192,40640,1,8,0:0:0:0:
256,192,40727,1,8,0:0:0:0:
256,192,40814,1,8,0:0:0:0:
256,192,40902,1,0,0:0:0:0:
256,192,40989,1,0,0:0:0:0:
256,192,41076,1,0,0:0:0:0:
256,192,41163,1,8,0:0:0:0:
256,192,41250,1,0,0:0:0:0:
256,192,41338,1,8,0:0:0:0:
256,192,41425,1,0,0:0:0:0:
256,192,41512,1,8,0:0:0:0:
256,192,41599,1,8,0:0:0:0:
256,192,41686,1,8,0:0:0:0:
256,192,41774,1,8,0:0:0:0:
256,192,41861,1,8,0:0:0:0:
256,192,41948,1,8,0:0:0:0:
256,192,42035,1,8,0:0:0:0:
256,192,42384,1,8,0:0:0:0:
256,192,42471,1,8,0:0:0:0:
256,192,42558,1,8,0:0:0:0:
256,192,42645,1,8,0:0:0:0:
256,192,42733,1,0,0:0:0:0:
256,192,42820,1,0,0:0:0:0:
256,192,42907,1,0,0:0:0:0:
256,192,42994,1,0,0:0:0:0:
256,192,43081,1,0,0:0:0:0:
256,192,43169,1,0,0:0:0:0:
256,192,43256,1,8,0:0:0:0:
256,192,43343,1,8,0:0:0:0:
256,192,43430,1,0,0:0:0:0:
256,192,43779,1,8,0:0:0:0:
256,192,43866,1,8,0:0:0:0:
256,192,43954,1,0,0:0:0:0:
256,192,44041,1,0,0:0:0:0:
256,192,44128,1,8,0:0:0:0:
256,192,44302,1,0,0:0:0:0:
256,192,44390,1,8,0:0:0:0:
256,192,44564,1,0,0:0:0:0:
256,192,44651,1,8,0:0:0:0:
256,192,44738,1,8,0:0:0:0:
256,192,44826,1,0,0:0:0:0:
256,192,45000,1,0,0:0:0:0:
256,192,45087,1,8,0:0:0:0:
256,192,45175,1,0,0:0:0:0:
256,192,45262,1,0,0:0:0:0:
256,192,45349,1,8,0:0:0:0:
256,192,45436,1,0,0:0:0:0:
256,192,45523,1,0,0:0:0:0:
256,192,45611,1,0,0:0:0:0:
256,192,45698,1,0,0:0:0:0:
256,192,45785,1,8,0:0:0:0:
256,192,45872,1,0,0:0:0:0:
256,192,45959,1,0,0:0:0:0:
256,192,46047,1,8,0:0:0:0:
256,192,46134,1,8,0:0:0:0:
256,192,46221,1,8,0:0:0:0:
256,192,46308,1,0,0:0:0:0:
256,192,46395,1,0,0:0:0:0:
256,192,46483,1,0,0:0:0:0:
256,192,46570,1,8,0:0:0:0:
256,192,46657,1,0,0:0:0:0:
256,192,46744,1,8,0:0:0:0:
256,192,46831,1,0,0:0:0:0:
256,192,46919,1,0,0:0:0:0:
256,192,47006,1,8,0:0:0:0:
256,192,47093,1,8,0:0:0:0:
256,192,47180,1,8,0:0:0:0:
256,192,47268,1,8,0:0:0:0:
256,192,47355,1,8,0:0:0:0:
256,192,47442,1,8,0:0:0:0:
256,192,47529,1,8,0:0:0:0:
256,192,47616,1,0,0:0:0:0:
256,192,47791,1,8,0:0:0:0:
256,192,47965,1,0,0:0:0:0:
256,192,48052,1,0,0:0:0:0:
256,192,48140,1,8,0:0:0:0:
256,192,48314,1,0,0:0:0:0:
256,192,48401,1,0,0:0:0:0:
256,192,48488,1,8,0:0:0:0:
256,192,48576,1,0,0:0:0:0:
256,192,48750,1,0,0:0:0:0:
256,192,48837,1,8,0:0:0:0:
256,192,49012,1,12,0:0:0:0:
256,192,49273,1,4,0:0:0:0:
256,192,49535,1,4,0:0:0:0:
256,192,49709,1,12,0:0:0:0:
256,192,50058,1,0,0:0:0:0:
256,192,50233,1,8,0:0:0:0:
256,192,50407,1,4,0:0:0:0:
256,192,50581,1,8,0:0:0:0:
256,192,50756,1,0,0:0:0:0:
256,192,50843,1,0,0:0:0:0:
256,192,50930,1,8,0:0:0:0:
256,192,51105,1,0,0:0:0:0:
256,192,51279,1,8,0:0:0:0:
256,192,51366,1,0,0:0:0:0:
256,192,51541,1,0,0:0:0:0:
256,192,51628,1,8,0:0:0:0:
256,192,51802,1,8,0:0:0:0:
256,192,51977,1,8,0:0:0:0:
256,192,52151,1,0,0:0:0:0:
256,192,52238,1,0,0:0:0:0:
256,192,52326,1,8,0:0:0:0:
256,192,52413,1,8,0:0:0:0:
256,192,52500,1,8,0:0:0:0:
256,192,52587,1,0,0:0:0:0:
256,192,52675,1,8,0:0:0:0:
256,192,52762,1,0,0:0:0:0:
256,192,52849,1,0,0:0:0:0:
256,192,52936,1,0,0:0:0:0:
256,192,53023,1,8,0:0:0:0:
256,192,53111,1,8,0:0:0:0:
256,192,53198,1,0,0:0:0:0:
256,192,53372,1,8,0:0:0:0:
256,192,53547,1,0,0:0:0:0:
256,192,53634,1,0,0:0:0:0:
256,192,53721,1,8,0:0:0:0:
256,192,53808,1,0,0:0:0:0:
256,192,53895,1,8,0:0:0:0:
256,192,54070,1,8,0:0:0:0:
256,192,54157,1,0,0:0:0:0:
256,192,54331,1,0,0:0:0:0:
256,192,54419,1,8,0:0:0:0:
256,192,54593,1,0,0:0:0:0:
256,192,54768,1,8,0:0:0:0:
256,192,54855,1,0,0:0:0:0:
256,192,55029,1,0,0:0:0:0:
256,192,55116,1,8,0:0:0:0:
256,192,55291,1,8,0:0:0:0:
256,192,55378,1,0,0:0:0:0:
256,192,55465,1,8,0:0:0:0:
256,192,55552,1,0,0:0:0:0:
256,192,55727,1,0,0:0:0:0:
256,192,55814,1,8,0:0:0:0:
256,192,55901,1,8,0:0:0:0:
256,192,55988,1,8,0:0:0:0:
256,192,56163,1,0,0:0:0:0:
256,192,56250,1,0,0:0:0:0:
256,192,56337,1,8,0:0:0:0:
256,192,56512,1,0,0:0:0:0:
256,192,56599,1,0,0:0:0:0:
256,192,56686,1,8,0:0:0:0:
256,192,56773,1,8,0:0:0:0:
256,192,56861,1,0,0:0:0:0:
256,192,56948,1,0,0:0:0:0:
256,192,57035,1,8,0:0:0:0:
256,192,57122,1,0,0:0:0:0:
256,192,57209,1,8,0:0:0:0:
256,192,57297,1,8,0:0:0:0:
256,192,57384,1,8,0:0:0:0:
256,192,57558,1,0,0:0:0:0:
256,192,57645,1,0,0:0:0:0:
256,192,57733,1,8,0:0:0:0:
256,192,57907,1,0,0:0:0:0:
256,192,57994,1,0,0:0:0:0:
256,192,58081,1,8,0:0:0:0:
256,192,58256,1,8,0:0:0:0:
256,192,58343,1,8,0:0:0:0:
256,192,58430,1,0,0:0:0:0:
256,192,58605,1,8,0:0:0:0:
256,192,58692,1,8,0:0:0:0:
256,192,58779,1,0,0:0:0:0:
256,192,58954,1,8,0:0:0:0:
256,192,59128,1,0,0:0:0:0:
256,192,59215,1,0,0:0:0:0:
256,192,59302,1,8,0:0:0:0:
256,192,59477,1,0,0:0:0:0:
256,192,59564,1,0,0:0:0:0:
256,192,59651,1,8,0:0:0:0:
256,192,59738,1,0,0:0:0:0:
256,192,59913,1,0,0:0:0:0:
256,192,60000,1,8,0:0:0:0:
256,192,60175,1,12,0:0:0:0:
256,192,60436,1,4,0:0:0:0:
256,192,60698,1,4,0:0:0:0:
256,192,60872,1,12,0:0:0:0:
256,192,61221,1,0,0:0:0:0:
256,192,61395,1,8,0:0:0:0:
256,192,61570,1,0,0:0:0:0:
256,192,61744,1,8,0:0:0:0:
256,192,61831,1,0,0:0:0:0:
256,192,61919,1,0,0:0:0:0:
256,192,62006,1,0,0:0:0:0:
256,192,62093,1,8,0:0:0:0:
256,192,62268,1,0,0:0:0:0:
256,192,62442,1,8,0:0:0:0:
256,192,62529,1,0,0:0:0:0:
256,192,62704,1,0,0:0:0:0:
256,192,62791,1,8,0:0:0:0:
256,192,62965,1,0,0:0:0:0:
256,192,63140,1,8,0:0:0:0:
256,192,63314,1,0,0:0:0:0:
256,192,63401,1,0,0:0:0:0:
256,192,63488,1,0,0:0:0:0:
256,192,63576,1,8,0:0:0:0:
256,192,63663,1,8,0:0:0:0:
256,192,63750,1,8,0:0:0:0:
256,192,63837,1,8,0:0:0:0:
256,192,63925,1,0,0:0:0:0:
256,192,64012,1,0,0:0:0:0:
256,192,64099,1,0,0:0:0:0:
256,192,64186,1,8,0:0:0:0:
256,192,64273,1,8,0:0:0:0:
256,192,64361,1,0,0:0:0:0:
256,192,64535,1,8,0:0:0:0:
256,192,64709,1,0,0:0:0:0:
256,192,64797,1,0,0:0:0:0:
256,192,64884,1,8,0:0:0:0:
256,192,64971,1,0,0:0:0:0:
256,192,65058,1,0,0:0:0:0:
256,192,65233,1,8,0:0:0:0:
256,192,65320,1,0,0:0:0:0:
256,192,65494,1,0,0:0:0:0:
256,192,65581,1,8,0:0:0:0:
256,192,65756,1,8,0:0:0:0:
256,192,65930,1,8,0:0:0:0:
256,192,66018,1,0,0:0:0:0:
256,192,66192,1,0,0:0:0:0:
256,192,66279,1,8,0:0:0:0:
256,192,66454,1,8,0:0:0:0:
256,192,66541,1,0,0:0:0:0:
256,192,66628,1,8,0:0:0:0:
256,192,66715,1,0,0:0:0:0:
256,192,66890,1,0,0:0:0:0:
256,192,66977,1,8,0:0:0:0:
256,192,67064,1,8,0:0:0:0:
256,192,67151,1,8,0:0:0:0:
256,192,67326,1,0,0:0:0:0:
256,192,67413,1,0,0:0:0:0:
256,192,67500,1,8,0:0:0:0:
256,192,67675,1,0,0:0:0:0:
256,192,67762,1,0,0:0:0:0:
256,192,67849,1,8,0:0:0:0:
256,192,67936,1,0,0:0:0:0:
256,192,68023,1,0,0:0:0:0:
256,192,68111,1,8,0:0:0:0:
256,192,68198,1,8,0:0:0:0:
256,192,68285,1,0,0:0:0:0:
256,192,68372,1,8,0:0:0:0:
256,192,68459,1,0,0:0:0:0:
256,192,68547,1,0,0:0:0:0:
256,192,68721,1,8,0:0:0:0:
256,192,68808,1,8,0:0:0:0:
256,192,68895,1,0,0:0:0:0:
256,192,68983,1,0,0:0:0:0:
256,192,69070,1,8,0:0:0:0:
256,192,69157,1,8,0:0:0:0:
256,192,69244,1,0,0:0:0:0:
256,192,69331,1,8,0:0:0:0:
256,192,69419,1,8,0:0:0:0:
256,192,69506,1,8,0:0:0:0:
256,192,69593,1,0,0:0:0:0:
256,192,69680,1,8,0:0:0:0:
256,192,69768,1,0,0:0:0:0:
256,192,69855,1,8,0:0:0:0:
256,192,69942,1,0,0:0:0:0:
256,192,70204,1,8,0:0:0:0:
256,192,70465,1,8,0:0:0:0:
256,192,70552,1,8,0:0:0:0:
256,192,70640,1,0,0:0:0:0:
256,192,70988,1,8,0:0:0:0:
256,192,71163,1,0,0:0:0:0:
256,192,71250,1,8,0:0:0:0:
256,192,71337,1,0,0:0:0:0:
256,192,71599,1,8,0:0:0:0:
256,192,71861,1,8,0:0:0:0:
256,192,72035,1,0,0:0:0:0:
256,192,72297,1,8,0:0:0:0:
256,192,72558,1,0,0:0:0:0:
256,192,72645,1,0,0:0:0:0:
256,192,72733,1,0,0:0:0:0:
256,192,72994,1,8,0:0:0:0:
256,192,73256,1,8,0:0:0:0:
256,192,73343,1,8,0:0:0:0:
256,192,73430,1,0,0:0:0:0:
256,192,73692,1,8,0:0:0:0:
256,192,73954,1,8,0:0:0:0:
256,192,74041,1,8,0:0:0:0:
256,192,74128,1,8,0:0:0:0:
256,192,74302,1,8,0:0:0:0:
256,192,74477,1,0,0:0:0:0:
256,192,74651,1,8,0:0:0:0:
256,192,74826,1,8,0:0:0:0:
256,192,74913,1,0,0:0:0:0:
256,192,75000,1,0,0:0:0:0:
256,192,75087,1,8,0:0:0:0:
256,192,75175,1,8,0:0:0:0:
256,192,75262,1,0,0:0:0:0:
256,192,75349,1,8,0:0:0:0:
256,192,75436,1,0,0:0:0:0:
256,192,75523,1,8,0:0:0:0:
256,192,75611,1,0,0:0:0:0:
256,192,75698,1,0,0:0:0:0:
256,192,75785,1,8,0:0:0:0:
256,192,75872,1,8,0:0:0:0:
256,192,75959,1,0,0:0:0:0:
256,192,76047,1,0,0:0:0:0:
256,192,76134,1,0,0:0:0:0:
256,192,76221,1,8,0:0:0:0:
256,192,76483,1,8,0:0:0:0:
256,192,76570,1,0,0:0:0:0:
256,192,76657,1,0,0:0:0:0:
256,192,76744,1,0,0:0:0:0:
256,192,76831,1,8,0:0:0:0:
256,192,76919,1,0,0:0:0:0:
256,192,77180,1,0,0:0:0:0:
256,192,77442,1,8,0:0:0:0:
256,192,77616,1,8,0:0:0:0:
256,192,77704,1,8,0:0:0:0:
256,192,77791,1,0,0:0:0:0:
256,192,77878,1,0,0:0:0:0:
256,192,77965,1,8,0:0:0:0:
256,192,78052,1,0,0:0:0:0:
256,192,78140,1,0,0:0:0:0:
256,192,78314,1,8,0:0:0:0:
256,192,78401,1,0,0:0:0:0:
256,192,78488,1,0,0:0:0:0:
256,192,78576,1,8,0:0:0:0:
256,192,78663,1,8,0:0:0:0:
256,192,78750,1,0,0:0:0:0:
256,192,78837,1,8,0:0:0:0:
256,192,78925,1,0,0:0:0:0:
256,192,79012,1,8,0:0:0:0:
256,192,79099,1,8,0:0:0:0:
256,192,79186,1,0,0:0:0:0:
256,192,79273,1,8,0:0:0:0:
256,192,79361,1,8,0:0:0:0:
256,192,79448,1,8,0:0:0:0:
256,192,79535,1,0,0:0:0:0:
256,192,79622,1,0,0:0:0:0:
256,192,79709,1,8,0:0:0:0:
256,192,79797,1,0,0:0:0:0:
256,192,79884,1,8,0:0:0:0:
256,192,79971,1,8,0:0:0:0:
256,192,80058,1,0,0:0:0:0:
256,192,80233,1,8,0:0:0:0:
256,192,80320,1,8,0:0:0:0:
256,192,80407,1,0,0:0:0:0:
256,192,80494,1,0,0:0:0:0:
256,192,80581,1,0,0:0:0:0:
256,192,80669,1,0,0:0:0:0:
256,192,80756,1,8,0:0:0:0:
256,192,80843,1,8,0:0:0:0:
256,192,80930,1,8,0:0:0:0:
256,192,81018,1,8,0:0:0:0:
256,192,81105,1,0,0:0:0:0:
256,192,81279,1,8,0:0:0:0:
256,192,81454,1,0,0:0:0:0:
256,192,81541,1,0,0:0:0:0:
256,192,81628,1,8,0:0:0:0:
256,192,81802,1,0,0:0:0:0:
256,192,81890,1,0,0:0:0:0:
256,192,81977,1,8,0:0:0:0:
256,192,82064,1,0,0:0:0:0:
256,192,82238,1,0,0:0:0:0:
256,192,82326,1,8,0:0:0:0:
256,192,82500,1,0,0:0:0:0:
256,192,82675,1,8,0:0:0:0:
256,192,82762,1,8,0:0:0:0:
256,192,82849,1,0,0:0:0:0:
256,192,82936,1,0,0:0:0:0:
256,192,83023,1,8,0:0:0:0:
256,192,83198,1,0,0:0:0:0:
256,192,83372,1,8,0:0:0:0:
256,192,83459,1,0,0:0:0:0:
256,192,83634,1,0,0:0:0:0:
256,192,83721,1,8,0:0:0:0:
256,192,83895,1,0,0:0:0:0:
256,192,84070,1,8,0:0:0:0:
256,192,84157,1,0,0:0:0:0:
256,192,84244,1,0,0:0:0:0:
256,192,84331,1,0,0:0:0:0:
256,192,84419,1,8,0:0:0:0:
256,192,84593,1,0,0:0:0:0:
256,192,84768,1,8,0:0:0:0:
256,192,84855,1,0,0:0:0:0:
256,192,85029,1,0,0:0:0:0:
256,192,85116,1,8,0:0:0:0:
256,192,85291,1,8,0:0:0:0:
256,192,85465,1,8,0:0:0:0:
256,192,85640,1,0,0:0:0:0:
256,192,85727,1,0,0:0:0:0:
256,192,85814,1,8,0:0:0:0:
256,192,85988,1,8,0:0:0:0:
256,192,86076,1,8,0:0:0:0:
256,192,86163,1,0,0:0:0:0:
256,192,86250,1,8,0:0:0:0:
256,192,86337,1,8,0:0:0:0:
256,192,86425,1,0,0:0:0:0:
256,192,86512,1,8,0:0:0:0:
256,192,86599,1,0,0:0:0:0:
256,192,86686,1,8,0:0:0:0:
256,192,86773,1,0,0:0:0:0:
256,192,86861,1,8,0:0:0:0:
256,192,86948,1,8,0:0:0:0:
256,192,87035,1,0,0:0:0:0:
256,192,87122,1,0,0:0:0:0:
256,192,87209,1,8,0:0:0:0:
256,192,87297,1,0,0:0:0:0:
256,192,87384,1,8,0:0:0:0:
256,192,87558,1,8,0:0:0:0:
256,192,87645,1,0,0:0:0:0:
256,192,87820,1,0,0:0:0:0:
256,192,87907,1,8,0:0:0:0:
256,192,87994,1,8,0:0:0:0:
256,192,88081,1,0,0:0:0:0:
256,192,88256,1,8,0:0:0:0:
256,192,88430,1,0,0:0:0:0:
256,192,88518,1,0,0:0:0:0:
256,192,88605,1,8,0:0:0:0:
256,192,88779,1,8,0:0:0:0:
256,192,88866,1,0,0:0:0:0:
256,192,88954,1,8,0:0:0:0:
256,192,89041,1,0,0:0:0:0:
256,192,89128,1,0,0:0:0:0:
256,192,89215,1,0,0:0:0:0:
256,192,89302,1,8,0:0:0:0:
256,192,89477,1,8,0:0:0:0:
256,192,89564,1,0,0:0:0:0:
256,192,89651,1,0,0:0:0:0:
256,192,89738,1,8,0:0:0:0:
256,192,89826,1,8,0:0:0:0:
256,192,89913,1,0,0:0:0:0:
256,192,90000,1,8,0:0:0:0:
256,192,90087,1,0,0:0:0:0:
256,192,90175,1,8,0:0:0:0:
256,192,90262,1,0,0:0:0:0:
256,192,90349,1,0,0:0:0:0:
256,192,90436,1,8,0:0:0:0:
256,192,90523,1,0,0:0:0:0:
256,192,90611,1,0,0:0:0:0:
256,192,90698,1,8,0:0:0:0:
256,192,90785,1,0,0:0:0:0:
256,192,90872,1,0,0:0:0:0:
256,192,90959,1,0,0:0:0:0:
256,192,91047,1,0,0:0:0:0:
256,192,91134,1,8,0:0:0:0:
256,192,91221,1,0,0:0:0:0:
256,192,91308,1,0,0:0:0:0:
256,192,91395,1,8,0:0:0:0:
256,192,91483,1,0,0:0:0:0:
256,192,91570,1,0,0:0:0:0:
256,192,91657,1,8,0:0:0:0:
256,192,91744,1,8,0:0:0:0:
256,192,91831,1,8,0:0:0:0:
256,192,91919,1,8,0:0:0:0:
256,192,92006,1,8,0:0:0:0:
256,192,92093,1,8,0:0:0:0:
256,192,92180,1,8,0:0:0:0:
256,192,92268,1,0,0:0:0:0:
256,192,92442,1,8,0:0:0:0:
256,192,92616,1,0,0:0:0:0:
256,192,92704,1,0,0:0:0:0:
256,192,92791,1,8,0:0:0:0:
256,192,92965,1,8,0:0:0:0:
256,192,93052,1,0,0:0:0:0:
256,192,93140,1,0,0:0:0:0:
256,192,93227,1,8,0:0:0:0:
256,192,93314,1,0,0:0:0:0:
256,192,93401,1,0,0:0:0:0:
256,192,93488,1,8,0:0:0:0:
256,192,93663,1,8,0:0:0:0:
256,192,93750,1,0,0:0:0:0:
256,192,93837,1,8,0:0:0:0:
256,192,93925,1,8,0:0:0:0:
256,192,94012,1,0,0:0:0:0:
256,192,94099,1,0,0:0:0:0:
256,192,94186,1,8,0:0:0:0:
256,192,94361,1,0,0:0:0:0:
256,192,94535,1,8,0:0:0:0:
256,192,94622,1,0,0:0:0:0:
256,192,94797,1,0,0:0:0:0:
256,192,94884,1,8,0:0:0:0:
256,192,95058,1,8,0:0:0:0:
256,192,95145,1,0,0:0:0:0:
256,192,95233,1,8,0:0:0:0:
256,192,95320,1,8,0:0:0:0:
256,192,95407,1,0,0:0:0:0:
256,192,95494,1,0,0:0:0:0:
256,192,95581,1,8,0:0:0:0:
256,192,95756,1,8,0:0:0:0:
256,192,95843,1,0,0:0:0:0:
256,192,95930,1,8,0:0:0:0:
256,192,96018,1,0,0:0:0:0:
256,192,96105,1,0,0:0:0:0:
256,192,96192,1,0,0:0:0:0:
256,192,96279,1,8,0:0:0:0:
256,192,96454,1,0,0:0:0:0:
256,192,96541,1,0,0:0:0:0:
256,192,96628,1,8,0:0:0:0:
256,192,96715,1,0,0:0:0:0:
256,192,96802,1,0,0:0:0:0:
256,192,96890,1,0,0:0:0:0:
256,192,96977,1,8,0:0:0:0:
256,192,97064,1,0,0:0:0:0:
256,192,97151,1,8,0:0:0:0:
256,192,97238,1,8,0:0:0:0:
256,192,97326,1,8,0:0:0:0:
256,192,97413,1,0,0:0:0:0:
256,192,97500,1,8,0:0:0:0:
256,192,97587,1,0,0:0:0:0:
256,192,97675,1,8,0:0:0:0:
256,192,97762,1,8,0:0:0:0:
256,192,97849,1,0,0:0:0:0:
256,192,98023,1,8,0:0:0:0:
256,192,98198,1,0,0:0:0:0:
256,192,98285,1,0,0:0:0:0:
256,192,98372,1,8,0:0:0:0:
256,192,98547,1,8,0:0:0:0:
256,192,98634,1,0,0:0:0:0:
256,192,98721,1,0,0:0:0:0:
256,192,98808,1,8,0:0:0:0:
256,192,98895,1,0,0:0:0:0:
256,192,98983,1,0,0:0:0:0:
256,192,99070,1,8,0:0:0:0:
256,192,99244,1,0,0:0:0:0:
256,192,99331,1,0,0:0:0:0:
256,192,99419,1,8,0:0:0:0:
256,192,99506,1,0,0:0:0:0:
256,192,99593,1,8,0:0:0:0:
256,192,99680,1,0,0:0:0:0:
256,192,99768,1,8,0:0:0:0:
256,192,99942,1,8,0:0:0:0:
256,192,100029,1,0,0:0:0:0:
256,192,100116,1,8,0:0:0:0:
256,192,100204,1,0,0:0:0:0:
256,192,100291,1,0,0:0:0:0:
256,192,100378,1,0,0:0:0:0:
256,192,100465,1,8,0:0:0:0:
256,192,100640,1,0,0:0:0:0:
256,192,100727,1,0,0:0:0:0:
256,192,100814,1,8,0:0:0:0:
256,192,100901,1,0,0:0:0:0:
256,192,100988,1,0,0:0:0:0:
256,192,101076,1,0,0:0:0:0:
256,192,101163,1,8,0:0:0:0:
256,192,101337,1,8,0:0:0:0:
256,192,101512,1,8,0:0:0:0:
256,192,101599,1,0,0:0:0:0:
256,192,101773,1,0,0:0:0:0:
256,192,101861,1,8,0:0:0:0:
256,192,102035,1,8,0:0:0:0:
256,192,102122,1,0,0:0:0:0:
256,192,102209,1,0,0:0:0:0:
256,192,102297,1,8,0:0:0:0:
256,192,102384,1,0,0:0:0:0:
256,192,102471,1,0,0:0:0:0:
256,192,102558,1,8,0:0:0:0:
256,192,102645,1,0,0:0:0:0:
256,192,102733,1,8,0:0:0:0:
256,192,102820,1,8,0:0:0:0:
256,192,102907,1,8,0:0:0:0:
256,192,102994,1,8,0:0:0:0:
256,192,103081,1,0,0:0:0:0:
256,192,103169,1,8,0:0:0:0:
256,192,103256,1,8,0:0:0:0:
256,192,103343,1,8,0:0:0:0:
256,192,103430,1,0,0:0:0:0:
256,192,103518,1,8,0:0:0:0:
256,192,103605,1,8,0:0:0:0:
256,192,103692,1,8,0:0:0:0:
256,192,103779,1,8,0:0:0:0:
256,192,103866,1,8,0:0:0:0:
256,192,103954,1,8,0:0:0:0:
256,192,104041,1,8,0:0:0:0:
256,192,104128,1,0,0:0:0:0:
256,192,104215,1,8,0:0:0:0:
256,192,104302,1,8,0:0:0:0:
256,192,104390,1,8,0:0:0:0:
256,192,104477,1,8,0:0:0:0:
256,192,104826,5,4,0:0:0:0:
256,192,115465,5,8,0:0:0:0:
256,192,115552,1,8,0:0:0:0:
256,192,115640,1,8,0:0:0:0:
256,192,115814,1,8,0:0:0:0:
256,192,115988,1,4,0:0:0:0:
256,192,116163,1,8,0:0:0:0:
256,192,116512,1,8,0:0:0:0:
256,192,116599,1,0,0:0:0:0:
256,192,116686,1,0,0:0:0:0:
256,192,116861,1,8,0:0:0:0:
256,192,117209,1,8,0:0:0:0:
256,192,117384,1,0,0:0:0:0:
256,192,117558,1,0,0:0:0:0:
256,192,117645,1,0,0:0:0:0:
256,192,117907,1,8,0:0:0:0:
256,192,117994,1,8,0:0:0:0:
256,192,118081,1,0,0:0:0:0:
256,192,118256,1,0,0:0:0:0:
256,192,118430,1,0,0:0:0:0:
256,192,118605,1,8,0:0:0:0:
256,192,118779,1,0,0:0:0:0:
256,192,118954,1,0,0:0:0:0:
256,192,119302,1,8,0:0:0:0:
256,192,119390,1,0,0:0:0:0:
256,192,119477,1,0,0:0:0:0:
256,192,119651,1,0,0:0:0:0:
256,192,119826,1,0,0:0:0:0:
256,192,120000,1,8,0:0:0:0:
256,192,120175,1,0,0:0:0:0:
256,192,120349,1,0,0:0:0:0:
256,192,120436,1,0,0:0:0:0:
256,192,120785,1,8,0:0:0:0:
256,192,120872,1,0,0:0:0:0:
256,192,121047,1,0,0:0:0:0:
256,192,121221,1,0,0:0:0:0:
256,192,121308,1,0,0:0:0:0:
256,192,121395,1,8,0:0:0:0:
256,192,121483,1,0,0:0:0:0:
256,192,121570,1,0,0:0:0:0:
256,192,121744,1,0,0:0:0:0:
256,192,122093,1,8,0:0:0:0:
256,192,122180,1,0,0:0:0:0:
256,192,122268,1,0,0:0:0:0:
256,192,122442,1,0,0:0:0:0:
256,192,122616,1,0,0:0:0:0:
256,192,122791,1,8,0:0:0:0:
256,192,122965,1,0,0:0:0:0:
256,192,123140,1,0,0:0:0:0:
256,192,123488,1,8,0:0:0:0:
256,192,123576,1,0,0:0:0:0:
256,192,123663,1,0,0:0:0:0:
256,192,123837,1,0,0:0:0:0:
256,192,124012,1,0,0:0:0:0:
256,192,124186,1,8,0:0:0:0:
256,192,124361,1,0,0:0:0:0:
256,192,124535,1,0,0:0:0:0:
256,192,124709,1,8,0:0:0:0:
256,192,124884,1,8,0:0:0:0:
256,192,124971,1,8,0:0:0:0:
256,192,125058,1,0,0:0:0:0:
256,192,125233,1,0,0:0:0:0:
256,192,125407,1,0,0:0:0:0:
256,192,125581,1,8,0:0:0:0:
256,192,125756,1,0,0:0:0:0:
256,192,126105,1,8,0:0:0:0:
256,192,126279,1,8,0:0:0:0:
256,192,126366,1,8,0:0:0:0:
256,192,126454,1,0,0:0:0:0:
256,192,126541,1,8,0:0:0:0:
256,192,126628,1,0,0:0:0:0:
256,192,126802,1,8,0:0:0:0:
256,192,126890,1,8,0:0:0:0:
256,192,126977,1,0,0:0:0:0:
256,192,127064,1,0,0:0:0:0:
256,192,127151,1,0,0:0:0:0:
256,192,127326,1,0,0:0:0:0:
256,192,127500,1,8,0:0:0:0:
256,192,127675,1,0,0:0:0:0:
256,192,127762,1,8,0:0:0:0:
256,192,127849,1,0,0:0:0:0:
256,192,128023,1,0,0:0:0:0:
256,192,128198,1,8,0:0:0:0:
256,192,128372,1,0,0:0:0:0:
256,192,128459,1,0,0:0:0:0:
256,192,128547,1,0,0:0:0:0:
256,192,128721,1,0,0:0:0:0:
256,192,128808,1,8,0:0:0:0:
256,192,128895,1,8,0:0:0:0:
256,192,129157,1,8,0:0:0:0:
256,192,129244,1,0,0:0:0:0:
256,192,129331,1,8,0:0:0:0:
256,192,129593,1,12,0:0:0:0:
256,192,129768,1,4,0:0:0:0:
256,192,129942,1,0,0:0:0:0:
256,192,130116,1,0,0:0:0:0:
256,192,130291,1,8,0:0:0:0:
256,192,130465,1,0,0:0:0:0:
256,192,130552,1,8,0:0:0:0:
256,192,130640,1,0,0:0:0:0:
256,192,130814,1,0,0:0:0:0:
256,192,130988,1,8,0:0:0:0:
256,192,131163,1,0,0:0:0:0:
256,192,131337,1,0,0:0:0:0:
256,192,131512,1,0,0:0:0:0:
256,192,131686,1,8,0:0:0:0:
256,192,131861,1,0,0:0:0:0:
256,192,131948,1,8,0:0:0:0:
256,192,132035,1,0,0:0:0:0:
256,192,132122,1,8,0:0:0:0:
256,192,132209,1,0,0:0:0:0:
256,192,132384,1,8,0:0:0:0:
256,192,132558,1,0,0:0:0:0:
256,192,132645,1,0,0:0:0:0:
256,192,132733,1,12,0:0:0:0:
256,192,132907,1,0,0:0:0:0:
256,192,133081,1,8,0:0:0:0:
256,192,133256,1,0,0:0:0:0:
256,192,133343,1,8,0:0:0:0:
256,192,133430,1,0,0:0:0:0:
256,192,133605,1,0,0:0:0:0:
256,192,133692,1,8,0:0:0:0:
256,192,133779,1,8,0:0:0:0:
256,192,133954,1,0,0:0:0:0:
256,192,134041,1,0,0:0:0:0:
256,192,134128,1,0,0:0:0:0:
256,192,134302,1,0,0:0:0:0:
256,192,134390,1,8,0:0:0:0:
256,192,134477,1,8,0:0:0:0:
256,192,134651,1,0,0:0:0:0:
256,192,134738,1,8,0:0:0:0:
256,192,134826,1,0,0:0:0:0:
256,192,134913,1,8,0:0:0:0:
256,192,135000,1,0,0:0:0:0:
256,192,135175,1,8,0:0:0:0:
256,192,135349,1,0,0:0:0:0:
256,192,135523,1,0,0:0:0:0:
256,192,135698,1,0,0:0:0:0:
256,192,135872,1,8,0:0:0:0:
256,192,136134,1,8,0:0:0:0:
256,192,136221,1,0,0:0:0:0:
256,192,136395,1,0,0:0:0:0:
256,192,136570,1,8,0:0:0:0:
256,192,136744,1,0,0:0:0:0:
256,192,136919,1,0,0:0:0:0:
256,192,137093,1,0,0:0:0:0:
256,192,137268,1,8,0:0:0:0:
256,192,137442,1,0,0:0:0:0:
256,192,137529,1,8,0:0:0:0:
256,192,137616,1,0,0:0:0:0:
256,192,137704,1,8,0:0:0:0:
256,192,137791,1,0,0:0:0:0:
256,192,137965,1,12,0:0:0:0:
256,192,138140,1,4,0:0:0:0:
256,192,138314,1,12,0:0:0:0:
256,192,138488,1,0,0:0:0:0:
256,192,138663,1,8,0:0:0:0:
256,192,138837,1,0,0:0:0:0:
256,192,138925,1,8,0:0:0:0:
256,192,139012,1,0,0:0:0:0:
256,192,139186,1,0,0:0:0:0:
256,192,139361,1,8,0:0:0:0:
256,192,139535,1,0,0:0:0:0:
256,192,139622,1,0,0:0:0:0:
256,192,139709,1,0,0:0:0:0:
256,192,139884,1,0,0:0:0:0:
256,192,139971,1,0,0:0:0:0:
256,192,140058,1,8,0:0:0:0:
256,192,140320,1,8,0:0:0:0:
256,192,140407,1,0,0:0:0:0:
256,192,140494,1,8,0:0:0:0:
256,192,140756,1,12,0:0:0:0:
256,192,140930,1,4,0:0:0:0:
256,192,141105,1,0,0:0:0:0:
256,192,141279,1,0,0:0:0:0:
256,192,141454,1,8,0:0:0:0:
256,192,141628,1,0,0:0:0:0:
256,192,141715,1,8,0:0:0:0:
256,192,141802,1,0,0:0:0:0:
256,192,141977,1,0,0:0:0:0:
256,192,142151,1,8,0:0:0:0:
256,192,142326,1,0,0:0:0:0:
256,192,142500,1,0,0:0:0:0:
256,192,142675,1,0,0:0:0:0:
256,192,142849,1,8,0:0:0:0:
256,192,143023,1,0,0:0:0:0:
256,192,143111,1,8,0:0:0:0:
256,192,143198,1,0,0:0:0:0:
256,192,143285,1,8,0:0:0:0:
256,192,143372,1,0,0:0:0:0:
256,192,143459,1,0,0:0:0:0:
256,192,143547,1,8,0:0:0:0:
256,192,143721,1,0,0:0:0:0:
256,192,143895,1,12,0:0:0:0:
256,192,144070,1,0,0:0:0:0:
256,192,144244,1,8,0:0:0:0:
256,192,144419,1,0,0:0:0:0:
256,192,144506,1,8,0:0:0:0:
256,192,144593,1,0,0:0:0:0:
256,192,144768,1,0,0:0:0:0:
256,192,144942,1,8,0:0:0:0:
256,192,145116,1,0,0:0:0:0:
256,192,145204,1,0,0:0:0:0:
256,192,145291,1,0,0:0:0:0:
256,192,145465,1,0,0:0:0:0:
256,192,145640,1,8,0:0:0:0:
256,192,145814,1,8,0:0:0:0:
256,192,145901,1,8,0:0:0:0:
256,192,145988,1,0,0:0:0:0:
256,192,146076,1,8,0:0:0:0:
256,192,146163,1,0,0:0:0:0:
256,192,146337,1,8,0:0:0:0:
256,192,146512,1,0,0:0:0:0:
256,192,146599,1,0,0:0:0:0:
256,192,146686,1,0,0:0:0:0:
256,192,146861,1,0,0:0:0:0:
256,192,147035,1,8,0:0:0:0:
256,192,147209,1,0,0:0:0:0:
256,192,147297,1,8,0:0:0:0:
256,192,147384,1,0,0:0:0:0:
256,192,147558,1,0,0:0:0:0:
256,192,147733,1,8,0:0:0:0:
256,192,147907,1,0,0:0:0:0:
256,192,148081,1,12,0:0:0:0:
256,192,148430,1,12,0:0:0:0:
256,192,148779,1,8,0:0:0:0:
256,192,148866,1,8,0:0:0:0:
256,192,148954,1,8,0:0:0:0:
256,192,149041,1,8,0:0:0:0:
256,192,149128,1,0,0:0:0:0:
256,192,149215,1,0,0:0:0:0:
256,192,149302,1,8,0:0:0:0:
256,192,149390,1,8,0:0:0:0:
256,192,149477,1,8,0:0:0:0:
256,192,149651,1,8,0:0:0:0:
256,192,149738,1,8,0:0:0:0:
256,192,149826,1,0,0:0:0:0:
256,192,149913,1,0,0:0:0:0:
256,192,150000,1,8,0:0:0:0:
256,192,150087,1,0,0:0:0:0:
256,192,150175,1,8,0:0:0:0:
256,192,150262,1,0,0:0:0:0:
256,192,150349,1,8,0:0:0:0:
256,192,150436,1,8,0:0:0:0:
256,192,150523,1,0,0:0:0:0:
256,192,150611,1,0,0:0:0:0:
256,192,150698,1,8,0:0:0:0:
256,192,150785,1,0,0:0:0:0:
256,192,150872,1,8,0:0:0:0:
256,192,150959,1,0,0:0:0:0:
256,192,151047,1,8,0:0:0:0:
256,192,151134,1,8,0:0:0:0:
256,192,151221,1,0,0:0:0:0:
256,192,151308,1,0,0:0:0:0:
256,192,151395,1,8,0:0:0:0:
256,192,151483,1,0,0:0:0:0:
256,192,151570,1,8,0:0:0:0:
256,192,151657,1,0,0:0:0:0:
256,192,151744,1,8,0:0:0:0:
256,192,151831,1,8,0:0:0:0:
256,192,151919,1,0,0:0:0:0:
256,192,152006,1,0,0:0:0:0:
256,192,152093,1,8,0:0:0:0:
256,192,152180,1,8,0:0:0:0:
256,192,152268,1,8,0:0:0:0:
256,192,152442,1,8,0:0:0:0:
256,192,152529,1,8,0:0:0:0:
256,192,152616,1,0,0:0:0:0:
256,192,152704,1,0,0:0:0:0:
256,192,152791,1,8,0:0:0:0:
256,192,152878,1,0,0:0:0:0:
256,192,152965,1,8,0:0:0:0:
256,192,153052,1,0,0:0:0:0:
256,192,153140,1,8,0:0:0:0:
256,192,153227,1,8,0:0:0:0:
256,192,153314,1,0,0:0:0:0:
256,192,153401,1,0,0:0:0:0:
256,192,153488,1,8,0:0:0:0:
256,192,153576,1,0,0:0:0:0:
256,192,153663,1,8,0:0:0:0:
256,192,153750,1,0,0:0:0:0:
256,192,153837,1,8,0:0:0:0:
256,192,153925,1,8,0:0:0:0:
256,192,154012,1,0,0:0:0:0:
256,192,154099,1,0,0:0:0:0:
256,192,154186,1,8,0:0:0:0:
256,192,154273,1,0,0:0:0:0:
256,192,154361,1,8,0:0:0:0:
256,192,154448,1,0,0:0:0:0:
256,192,154535,1,8,0:0:0:0:
256,192,154622,1,0,0:0:0:0:
256,192,154709,1,8,0:0:0:0:
256,192,154797,1,8,0:0:0:0:
256,192,154884,1,8,0:0:0:0:
256,192,154971,1,8,0:0:0:0:
256,192,155058,1,8,0:0:0:0:
256,192,155407,1,8,0:0:0:0:
256,192,155494,1,8,0:0:0:0:
256,192,155581,1,8,0:0:0:0:
256,192,155669,1,8,0:0:0:0:
256,192,155756,1,0,0:0:0:0:
256,192,155843,1,0,0:0:0:0:
256,192,155930,1,0,0:0:0:0:
256,192,156018,1,0,0:0:0:0:
256,192,156105,1,0,0:0:0:0:
256,192,156192,1,0,0:0:0:0:
256,192,156279,1,8,0:0:0:0:
256,192,156366,1,8,0:0:0:0:
256,192,156454,1,0,0:0:0:0:
256,192,156802,1,8,0:0:0:0:
256,192,156890,1,8,0:0:0:0:
256,192,156977,1,0,0:0:0:0:
256,192,157064,1,0,0:0:0:0:
256,192,157151,1,8,0:0:0:0:
256,192,157326,1,8,0:0:0:0:
256,192,157413,1,0,0:0:0:0:
256,192,157587,1,8,0:0:0:0:
256,192,157675,1,8,0:0:0:0:
256,192,157762,1,8,0:0:0:0:
256,192,157849,1,0,0:0:0:0:
256,192,158023,1,0,0:0:0:0:
256,192,158111,1,8,0:0:0:0:
256,192,158198,1,0,0:0:0:0:
256,192,158285,1,0,0:0:0:0:
256,192,158372,1,8,0:0:0:0:
256,192,158459,1,0,0:0:0:0:
256,192,158547,1,0,0:0:0:0:
256,192,158634,1,0,0:0:0:0:
256,192,158721,1,0,0:0:0:0:
256,192,158808,1,8,0:0:0:0:
256,192,158895,1,0,0:0:0:0:
256,192,158983,1,0,0:0:0:0:
256,192,159070,1,8,0:0:0:0:
256,192,159157,1,8,0:0:0:0:
256,192,159244,1,8,0:0:0:0:
256,192,159331,1,0,0:0:0:0:
256,192,159419,1,0,0:0:0:0:
256,192,159506,1,0,0:0:0:0:
256,192,159593,1,8,0:0:0:0:
256,192,159680,1,0,0:0:0:0:
256,192,159768,1,0,0:0:0:0:
256,192,159855,1,0,0:0:0:0:
256,192,159942,1,0,0:0:0:0:
256,192,160029,1,8,0:0:0:0:
256,192,160116,1,0,0:0:0:0:
256,192,160204,1,8,0:0:0:0:
256,192,160291,1,8,0:0:0:0:
256,192,160378,1,8,0:0:0:0:
256,192,160465,1,8,0:0:0:0:
256,192,160552,1,8,0:0:0:0:
256,192,160640,1,8,0:0:0:0:
256,192,160727,1,0,0:0:0:0:
256,192,160814,1,0,0:0:0:0:
256,192,160901,1,8,0:0:0:0:
256,192,160988,1,8,0:0:0:0:
256,192,161076,1,0,0:0:0:0:
256,192,161163,1,8,0:0:0:0:
256,192,161250,1,0,0:0:0:0:
256,192,161337,1,8,0:0:0:0:
256,192,161425,1,0,0:0:0:0:
256,192,161512,1,8,0:0:0:0:
256,192,161599,1,8,0:0:0:0:
256,192,161686,1,0,0:0:0:0:
256,192,161773,1,0,0:0:0:0:
256,192,161861,1,8,0:0:0:0:
256,192,161948,1,0,0:0:0:0:
256,192,162035,1,8,0:0:0:0:
256,192,162122,1,0,0:0:0:0:
256,192,162209,1,8,0:0:0:0:
256,192,162297,1,8,0:0:0:0:
256,192,162384,1,0,0:0:0:0:
256,192,162471,1,0,0:0:0:0:
256,192,162558,1,8,0:0:0:0:
256,192,162645,1,0,0:0:0:0:
256,192,162733,1,8,0:0:0:0:
256,192,162820,1,0,0:0:0:0:
256,192,162907,1,0,0:0:0:0:
256,192,162994,1,8,0:0:0:0:
256,192,163081,1,0,0:0:0:0:
256,192,163169,1,0,0:0:0:0:
256,192,163256,1,8,0:0:0:0:
256,192,163343,1,8,0:0:0:0:
256,192,163430,1,8,0:0:0:0:
256,192,163518,1,0,0:0:0:0:
256,192,163605,1,0,0:0:0:0:
256,192,163692,1,8,0:0:0:0:
256,192,163779,1,8,0:0:0:0:
256,192,163867,1,0,0:0:0:0:
256,192,163954,1,8,0:0:0:0:
256,192,164041,1,0,0:0:0:0:
256,192,164128,1,8,0:0:0:0:
256,192,164216,1,0,0:0:0:0:
256,192,164303,1,8,0:0:0:0:
256,192,164390,1,8,0:0:0:0:
256,192,164477,1,0,0:0:0:0:
256,192,164564,1,0,0:0:0:0:
256,192,164652,1,8,0:0:0:0:
256,192,164739,1,0,0:0:0:0:
256,192,164826,1,8,0:0:0:0:
256,192,164913,1,0,0:0:0:0:
256,192,165000,1,8,0:0:0:0:
256,192,165088,1,8,0:0:0:0:
256,192,165175,1,0,0:0:0:0:
256,192,165262,1,0,0:0:0:0:
256,192,165349,1,8,0:0:0:0:
256,192,165436,1,0,0:0:0:0:
256,192,165524,1,8,0:0:0:0:
256,192,165611,1,0,0:0:0:0:
256,192,165698,1,8,0:0:0:0:
256,192,165785,1,8,0:0:0:0:
256,192,165872,1,8,0:0:0:0:
256,192,165960,1,8,0:0:0:0:
256,192,166047,1,8,0:0:0:0:
256,192,166134,1,8,0:0:0:0:
256,192,166221,1,8,0:0:0:0:
256,192,166570,1,8,0:0:0:0:
256,192,166657,1,8,0:0:0:0:
256,192,166744,1,8,0:0:0:0:
256,192,166831,1,0,0:0:0:0:
256,192,166919,1,0,0:0:0:0:
256,192,167006,1,0,0:0:0:0:
256,192,167093,1,0,0:0:0:0:
256,192,167180,1,0,0:0:0:0:
256,192,167268,1,0,0:0:0:0:
256,192,167355,1,0,0:0:0:0:
256,192,167442,1,8,0:0:0:0:
256,192,167529,1,8,0:0:0:0:
256,192,167616,1,0,0:0:0:0:
256,192,167965,1,0,0:0:0:0:
256,192,168052,1,8,0:0:0:0:
256,192,168140,1,0,0:0:0:0:
256,192,168227,1,0,0:0:0:0:
256,192,168314,1,8,0:0:0:0:
256,192,168488,1,8,0:0:0:0:
256,192,168576,1,8,0:0:0:0:
256,192,168750,1,8,0:0:0:0:
256,192,168837,1,0,0:0:0:0:
256,192,168925,1,8,0:0:0:0:
256,192,169012,1,0,0:0:0:0:
256,192,169099,1,0,0:0:0:0:
256,192,169186,1,8,0:0:0:0:
256,192,169273,1,8,0:0:0:0:
256,192,169361,1,8,0:0:0:0:
256,192,169448,1,0,0:0:0:0:
256,192,169535,1,8,0:0:0:0:
256,192,169622,1,0,0:0:0:0:
256,192,169709,1,8,0:0:0:0:
256,192,169797,1,8,0:0:0:0:
256,192,169884,1,8,0:0:0:0:
256,192,169971,1,8,0:0:0:0:
256,192,170058,1,0,0:0:0:0:
256,192,170145,1,8,0:0:0:0:
256,192,170233,1,8,0:0:0:0:
256,192,170320,1,8,0:0:0:0:
256,192,170407,1,8,0:0:0:0:
256,192,170494,1,0,0:0:0:0:
256,192,170581,1,0,0:0:0:0:
256,192,170669,1,8,0:0:0:0:
256,192,170756,1,8,0:0:0:0:
256,192,170843,1,0,0:0:0:0:
256,192,170930,1,8,0:0:0:0:
256,192,171018,1,0,0:0:0:0:
256,192,171105,1,0,0:0:0:0:
256,192,171192,1,8,0:0:0:0:
256,192,171279,1,8,0:0:0:0:
256,192,171366,1,0,0:0:0:0:
256,192,171454,1,8,0:0:0:0:
256,192,171541,1,8,0:0:0:0:
256,192,171628,1,8,0:0:0:0:
256,192,171715,1,8,0:0:0:0:
256,192,171802,1,8,0:0:0:0:
256,192,171890,1,0,0:0:0:0:
256,192,171977,1,0,0:0:0:0:
256,192,172064,1,8,0:0:0:0:
256,192,172151,1,0,0:0:0:0:
256,192,172238,1,0,0:0:0:0:
256,192,172326,1,8,0:0:0:0:
256,192,172413,1,0,0:0:0:0:
256,192,172500,1,0,0:0:0:0:
256,192,172587,1,8,0:0:0:0:
256,192,172675,1,0,0:0:0:0:
256,192,172762,1,0,0:0:0:0:
256,192,172849,1,8,0:0:0:0:
256,192,172936,1,0,0:0:0:0:
256,192,173023,1,0,0:0:0:0:
256,192,173111,1,8,0:0:0:0:
256,192,173198,1,8,0:0:0:0:
256,192,173285,1,8,0:0:0:0:
256,192,173372,1,8,0:0:0:0:
256,192,173459,1,8,0:0:0:0:
256,192,173547,1,8,0:0:0:0:
256,192,173634,1,8,0:0:0:0:
256,192,173721,1,8,0:0:0:0:
256,192,173808,1,8,0:0:0:0:
256,192,173895,1,8,0:0:0:0:
256,192,173983,1,8,0:0:0:0:
256,192,174070,1,8,0:0:0:0:
256,192,174157,1,8,0:0:0:0:
256,192,174244,1,8,0:0:0:0:
256,192,174331,1,8,0:0:0:0:
256,192,174419,1,8,0:0:0:0:
256,192,174506,1,8,0:0:0:0:
256,192,174593,1,8,0:0:0:0:
256,192,174680,1,8,0:0:0:0:
256,192,174768,1,0,0:0:0:0:
256,192,174942,1,8,0:0:0:0:
256,192,175116,1,0,0:0:0:0:
256,192,175204,1,8,0:0:0:0:
256,192,175291,1,0,0:0:0:0:
256,192,175378,1,8,0:0:0:0:
256,192,175465,1,0,0:0:0:0:
256,192,175552,1,8,0:0:0:0:
256,192,175640,1,0,0:0:0:0:
256,192,175727,1,8,0:0:0:0:
256,192,175814,1,8,0:0:0:0:
256,192,175901,1,8,0:0:0:0:
256,192,175988,1,0,0:0:0:0:
