osu file format v14

[General]
AudioFilename: audio.mp3
AudioLeadIn: 0
PreviewTime: 162509
Countdown: 0
SampleSet: Normal
StackLeniency: 0.7
Mode: 1
LetterboxInBreaks: 0
WidescreenStoryboard: 1

[Editor]
Bookmarks: 23570,45262,66955,83224,96782,118474,140167,163215,184907,206600,222869,236427,258120,279812,301504,313706,335353,357045
DistanceSpacing: 1.1
BeatDivisor: 4
GridSize: 32
TimelineZoom: 4.200004

[Metadata]
Title:Kyoumu Shuusou Kyoku ~ Pandemonic Planet
TitleUnicode:狂夢終葬曲 ~ Pandemonic Planet
Artist:dBu music
ArtistUnicode:dBu music
Creator:Guardistack-
Version:Satanic Collab
Source:東方紺珠伝 ~ Legacy of Lunatic Kingdom.
Tags:ZUN Touhou Project steven1 Shirai- どぶウサギ 純弾奏結界 凶夢追奏曲 Nightmare Canon パンデモニックプラネット ヘカーティア・ラピスラズリ
BeatmapID:1129831
BeatmapSetID:533302

[Difficulty]
HPDrainRate:4
CircleSize:2
OverallDifficulty:6.6
ApproachRate:6.6
SliderMultiplier:1.4
SliderTickRate:1

[Events]
//Background and Video events
0,0,"maxresdefaault.jpg",0,175
//Break Periods
//Storyboard Layer 0 (Background)
//Storyboard Layer 1 (Fail)
//Storyboard Layer 2 (Pass)
//Storyboard Layer 3 (Foreground)
//Storyboard Sound Samples

[TimingPoints]
476,338.983050847458,4,1,0,100,1,0
20814,-71.4285714285714,4,1,0,100,0,0
23018,-100,4,1,0,100,0,0
44713,-105.263157894737,4,1,0,100,0,0
44882,-109.89010989011,4,1,0,100,0,0
45052,-113.636363636364,4,1,0,100,0,0
45221,-117.647058823529,4,1,0,85,0,0
67255,-125,4,1,0,80,0,0
70984,-117.647058823529,4,1,0,90,0,0
71831,-113.636363636364,4,1,0,95,0,0
72001,-111.111111111111,4,1,0,95,0,0
72086,-108.695652173913,4,1,0,95,0,0
72170,-106.382978723404,4,1,0,95,0,0
72340,-100,4,1,0,100,0,0
94035,-71.4285714285714,4,1,0,100,0,0
96238,-100,4,1,0,100,0,0
118442,-117.647058823529,4,1,0,90,0,0
140137,-100,4,1,0,100,0,0
163187,-100,4,1,0,100,0,1
183526,-100,4,1,0,100,0,0
184882,-100,4,1,0,100,0,1
206577,-100,4,1,0,100,0,0
206916,-125,4,1,0,80,0,0
211323,-117.647058823529,4,1,0,85,0,0
211492,-113.636363636364,4,1,0,85,0,0
211662,-111.111111111111,4,1,0,90,0,0
211747,-108.695652173913,4,1,0,90,0,0
211831,-106.382978723404,4,1,0,95,0,0
212001,-100,4,1,0,100,0,0
233865,-71.4285714285714,4,1,0,100,0,0
235899,-100,4,1,0,100,0,0
257594,-105.263157894737,4,1,0,100,0,0
257764,-108.695652173913,4,1,0,100,0,0
257848,-111.111111111111,4,1,0,100,0,0
257933,-114.942528735632,4,1,0,100,0,0
258103,-117.647058823529,4,1,0,90,0,0
279798,-100,4,1,0,100,0,0
313696,-100,4,1,0,100,0,1
334035,-100,4,1,0,100,0,0
334882,-99.009900990099,4,1,0,100,0,0
334967,-98.0392156862745,4,1,0,100,0,0
335052,-97.0873786407767,4,1,0,100,0,0
335137,-96.1538461538461,4,1,0,100,0,0
335221,-95.2380952380952,4,1,0,100,0,0
335306,-94.3396226415094,4,1,0,100,0,0
335391,-93.4579439252336,4,1,0,100,0,1
335476,-90.9090909090909,4,1,0,100,0,1
357086,-90.9090909090909,4,1,0,100,0,0
357764,-133.333333333333,4,1,0,85,0,0

[HitObjects]
320,160,9967,5,12,0:0:0:0:
320,160,10137,1,0,0:0:0:0:
320,160,10306,1,8,0:0:0:0:
192,128,10476,1,0,0:0:0:0:
224,96,10645,1,8,0:0:0:0:
224,96,10814,1,0,0:0:0:0:
224,96,10899,1,0,0:0:0:0:
224,96,10984,1,0,0:0:0:0:
224,96,11153,1,8,0:0:0:0:
224,96,11323,1,0,0:0:0:0:
224,96,11492,1,0,0:0:0:0:
224,96,11662,1,8,0:0:0:0:
224,96,11831,1,0,0:0:0:0:
224,96,12001,1,8,0:0:0:0:
224,96,12170,1,0,0:0:0:0:
224,96,12255,1,8,0:0:0:0:
224,96,12340,1,0,0:0:0:0:
224,96,12509,1,0,0:0:0:0:
320,160,12679,1,12,0:0:0:0:
320,160,12849,1,0,0:0:0:0:
320,160,13018,1,8,0:0:0:0:
192,128,13188,1,0,0:0:0:0:
224,96,13357,1,8,0:0:0:0:
224,96,13526,1,0,0:0:0:0:
224,96,13611,1,0,0:0:0:0:
224,96,13696,1,0,0:0:0:0:
224,96,13865,1,8,0:0:0:0:
224,96,14035,1,0,0:0:0:0:
224,96,14204,1,0,0:0:0:0:
224,96,14374,1,8,0:0:0:0:
224,96,14543,1,0,0:0:0:0:
224,96,14713,1,8,0:0:0:0:
224,96,14882,1,0,0:0:0:0:
224,96,14967,1,8,0:0:0:0:
224,96,15052,1,0,0:0:0:0:
224,96,15221,1,0,0:0:0:0:
320,160,15391,1,12,0:0:0:0:
320,160,15561,1,0,0:0:0:0:
320,160,15730,1,8,0:0:0:0:
192,128,15900,1,8,0:0:0:0:
224,96,16069,1,0,0:0:0:0:
224,96,16238,1,0,0:0:0:0:
224,96,16323,1,0,0:0:0:0:
224,96,16408,1,8,0:0:0:0:
224,96,16577,1,8,0:0:0:0:
224,96,16747,1,0,0:0:0:0:
224,96,16916,1,0,0:0:0:0:
224,96,17086,1,8,0:0:0:0:
224,96,17255,1,8,0:0:0:0:
224,96,17425,1,0,0:0:0:0:
224,96,17594,1,0,0:0:0:0:
224,96,17679,1,8,0:0:0:0:
224,96,17764,1,8,0:0:0:0:
224,96,17933,1,0,0:0:0:0:
320,160,18103,1,12,0:0:0:0:
320,160,18273,1,0,0:0:0:0:
320,160,18442,1,8,0:0:0:0:
192,128,18612,1,8,0:0:0:0:
224,96,18781,1,0,0:0:0:0:
224,96,18950,1,0,0:0:0:0:
224,96,19035,1,0,0:0:0:0:
224,96,19120,1,8,0:0:0:0:
224,96,19289,1,0,0:0:0:0:
224,96,19459,1,8,0:0:0:0:
224,96,19628,1,0,0:0:0:0:
320,128,19713,1,0,0:0:0:0:
224,96,19798,1,8,0:0:0:0:
320,192,19882,1,8,0:0:0:0:
224,96,19967,1,0,0:0:0:0:
224,96,20137,1,8,0:0:0:0:
224,96,20306,1,0,0:0:0:0:
224,96,20391,1,0,0:0:0:0:
224,96,20476,1,8,0:0:0:0:
160,128,20560,1,8,0:0:0:0:
224,96,20645,1,0,0:0:0:0:
160,160,20814,2,4,L|224:160,14,48.9999985046387
320,160,22170,1,12,0:0:0:0:
352,160,23018,1,12,0:0:0:0:
320,160,23187,1,12,0:0:0:0:
352,160,23357,1,12,0:0:0:0:
256,192,23526,5,4,0:0:0:0:
256,192,23696,1,0,0:0:0:0:
256,192,23781,1,0,0:0:0:0:
256,192,23865,1,2,0:0:0:0:
256,192,24035,1,0,0:0:0:0:
256,192,24204,1,2,0:0:0:0:
256,192,24374,1,0,0:0:0:0:
256,192,24459,1,0,0:0:0:0:
256,192,24543,1,2,0:0:0:0:
256,192,24713,1,0,0:0:0:0:
256,192,24882,1,2,0:0:0:0:
256,192,25052,1,0,0:0:0:0:
256,192,25137,1,0,0:0:0:0:
256,192,25221,1,2,0:0:0:0:
256,192,25391,1,0,0:0:0:0:
256,192,25560,1,2,0:0:0:0:
256,192,25730,1,0,0:0:0:0:
256,192,25814,1,2,0:0:0:0:
256,192,25899,1,0,0:0:0:0:
256,192,26069,1,0,0:0:0:0:
256,192,26238,1,2,0:0:0:0:
256,192,26408,1,0,0:0:0:0:
256,192,26577,1,2,0:0:0:0:
256,192,26662,1,0,0:0:0:0:
256,192,26747,1,2,0:0:0:0:
256,192,26916,1,2,0:0:0:0:
256,192,27086,1,0,0:0:0:0:
256,192,27255,1,2,0:0:0:0:
256,192,27340,1,2,0:0:0:0:
256,192,27425,1,0,0:0:0:0:
256,192,27594,1,2,0:0:0:0:
256,192,27679,1,0,0:0:0:0:
256,192,27764,1,0,0:0:0:0:
256,192,27848,1,0,0:0:0:0:
256,192,27933,1,2,0:0:0:0:
256,192,28018,1,0,0:0:0:0:
256,192,28103,1,2,0:0:0:0:
256,192,28187,1,2,0:0:0:0:
256,192,28272,1,0,0:0:0:0:
256,192,28442,1,0,0:0:0:0:
256,192,28526,1,2,0:0:0:0:
256,192,28611,1,0,0:0:0:0:
256,192,28781,1,2,0:0:0:0:
256,192,28950,1,4,0:0:0:0:
256,192,29120,1,0,0:0:0:0:
256,192,29204,1,0,0:0:0:0:
256,192,29289,1,2,0:0:0:0:
256,192,29459,1,0,0:0:0:0:
256,192,29628,1,2,0:0:0:0:
256,192,29798,1,0,0:0:0:0:
256,192,29882,1,0,0:0:0:0:
256,192,29967,1,2,0:0:0:0:
256,192,30137,1,0,0:0:0:0:
256,192,30306,1,4,0:0:0:0:
256,192,30476,1,2,0:0:0:0:
256,192,30645,1,0,0:0:0:0:
256,192,30814,1,2,0:0:0:0:
256,192,30984,1,0,0:0:0:0:
256,192,31069,1,0,0:0:0:0:
256,192,31153,1,2,0:0:0:0:
256,192,31238,1,0,0:0:0:0:
256,192,31323,1,2,0:0:0:0:
256,192,31492,1,0,0:0:0:0:
256,192,31662,1,6,0:0:0:0:
256,192,31831,1,0,0:0:0:0:
256,192,31916,1,0,0:0:0:0:
256,192,32001,1,0,0:0:0:0:
256,192,32170,1,0,0:0:0:0:
256,192,32340,1,6,0:0:0:0:
256,192,32509,1,0,0:0:0:0:
256,192,32679,1,6,0:0:0:0:
256,192,32848,1,0,0:0:0:0:
256,192,33018,1,6,0:0:0:0:
256,192,33357,1,0,0:0:0:0:
256,192,33696,1,0,0:0:0:0:
256,192,33950,1,0,0:0:0:0:
256,192,34035,1,0,0:0:0:0:
256,192,34204,1,0,0:0:0:0:
256,192,34374,1,6,0:0:0:0:
256,192,34543,1,0,0:0:0:0:
256,192,34628,1,0,0:0:0:0:
256,192,34713,1,2,0:0:0:0:
256,192,34882,1,0,0:0:0:0:
256,192,35052,1,2,0:0:0:0:
256,192,35221,1,0,0:0:0:0:
256,192,35306,1,2,0:0:0:0:
256,192,35391,1,2,0:0:0:0:
256,192,35560,1,0,0:0:0:0:
256,192,35730,1,2,0:0:0:0:
256,192,35899,1,0,0:0:0:0:
256,192,35984,1,0,0:0:0:0:
256,192,36069,1,2,0:0:0:0:
256,192,36238,1,0,0:0:0:0:
256,192,36408,1,2,0:0:0:0:
256,192,36577,1,0,0:0:0:0:
256,192,36662,1,0,0:0:0:0:
256,192,36747,1,2,0:0:0:0:
256,192,36916,1,2,0:0:0:0:
256,192,37086,1,0,0:0:0:0:
256,192,37255,1,2,0:0:0:0:
256,192,37425,1,2,0:0:0:0:
256,192,37509,1,2,0:0:0:0:
256,192,37594,1,0,0:0:0:0:
256,192,37764,1,2,0:0:0:0:
256,192,37933,1,0,0:0:0:0:
256,192,38103,1,2,0:0:0:0:
256,192,38187,1,0,0:0:0:0:
256,192,38272,1,2,0:0:0:0:
256,192,38357,1,2,0:0:0:0:
256,192,38442,1,0,0:0:0:0:
256,192,38611,1,2,0:0:0:0:
256,192,38781,1,0,0:0:0:0:
256,192,38865,1,0,0:0:0:0:
256,192,38950,1,2,0:0:0:0:
256,192,39120,1,2,0:0:0:0:
256,192,39204,1,0,0:0:0:0:
256,192,39374,1,0,0:0:0:0:
256,192,39459,1,2,0:0:0:0:
256,192,39628,1,0,0:0:0:0:
256,192,39798,1,4,0:0:0:0:
256,192,39967,1,0,0:0:0:0:
256,192,40052,1,0,0:0:0:0:
256,192,40137,1,2,0:0:0:0:
256,192,40306,1,0,0:0:0:0:
256,192,40476,1,2,0:0:0:0:
256,192,40560,1,2,0:0:0:0:
256,192,40645,1,2,0:0:0:0:
256,192,40730,1,2,0:0:0:0:
256,192,40814,1,0,0:0:0:0:
256,192,40984,1,2,0:0:0:0:
256,192,41153,1,4,0:0:0:0:
256,192,41323,1,2,0:0:0:0:
256,192,41492,1,0,0:0:0:0:
256,192,41662,1,2,0:0:0:0:
256,192,41831,1,0,0:0:0:0:
256,192,41916,1,0,0:0:0:0:
256,192,42001,1,2,0:0:0:0:
256,192,42086,1,0,0:0:0:0:
256,192,42170,1,2,0:0:0:0:
256,192,42340,1,0,0:0:0:0:
256,192,42509,1,6,0:0:0:0:
256,192,42679,1,0,0:0:0:0:
256,192,42764,1,0,0:0:0:0:
256,192,42848,1,0,0:0:0:0:
256,192,43018,1,0,0:0:0:0:
256,192,43187,1,6,0:0:0:0:
256,192,43357,1,0,0:0:0:0:
256,192,43526,1,6,0:0:0:0:
256,192,43696,1,0,0:0:0:0:
256,192,43865,1,6,0:0:0:0:
256,192,44204,1,0,0:0:0:0:
256,192,44543,1,0,0:0:0:0:
256,192,44713,1,2,0:0:0:0:
256,192,44882,1,0,0:0:0:0:
256,192,45052,1,0,0:0:0:0:
256,192,45221,5,12,0:2:0:0:
256,192,45560,1,0,0:2:0:0:
256,192,45730,1,8,0:2:0:0:
256,192,45899,1,0,0:2:0:0:
256,192,46238,1,0,0:2:0:0:
256,192,46408,1,8,0:2:0:0:
256,192,46577,1,8,0:2:0:0:
256,192,46916,1,0,0:2:0:0:
256,192,47086,1,8,0:2:0:0:
256,192,47255,1,0,0:2:0:0:
256,192,47425,1,8,0:2:0:0:
224,192,47509,1,8,0:2:0:0:
256,192,47594,1,0,0:2:0:0:
256,192,47764,1,8,0:2:0:0:
256,192,47933,1,8,0:2:0:0:
256,192,48018,1,0,0:2:0:0:
256,192,48103,1,8,0:2:0:0:
256,192,48187,1,0,0:2:0:0:
256,192,48272,1,8,0:2:0:0:
256,192,48442,1,0,0:2:0:0:
256,192,48611,1,8,0:2:0:0:
256,192,48781,1,0,0:0:0:0:
256,192,48865,1,0,0:0:0:0:
256,192,48950,1,0,0:2:0:0:
256,192,49120,1,8,0:2:0:0:
256,192,49289,1,8,0:2:0:0:
256,192,49459,1,0,0:0:0:0:
256,192,49628,1,0,0:2:0:0:
256,192,49713,1,8,0:2:0:0:
256,192,49798,1,0,0:2:0:0:
224,192,50137,1,0,0:2:0:0:
256,192,50221,1,8,0:2:0:0:
224,192,50306,1,8,0:2:0:0:
224,192,50476,1,8,0:2:0:0:
224,192,50645,1,4,0:2:0:0:
256,192,50984,1,8,0:2:0:0:
256,192,51153,1,0,0:2:0:0:
256,192,51238,1,0,0:0:0:0:
256,192,51323,1,8,0:2:0:0:
256,192,51492,1,0,0:0:0:0:
256,192,51662,1,0,0:2:0:0:
256,192,51831,1,8,0:2:0:0:
256,192,51916,1,0,0:0:0:0:
256,192,52001,1,8,0:2:0:0:
256,192,52170,1,8,0:2:0:0:
256,192,52340,1,0,0:2:0:0:
256,192,52509,1,8,0:2:0:0:
256,192,52594,1,8,0:2:0:0:
256,192,52679,1,0,0:2:0:0:
256,192,52848,1,8,0:2:0:0:
256,192,53018,1,8,0:2:0:0:
256,192,53357,1,0,0:2:0:0:
256,192,53526,1,8,0:2:0:0:
256,192,53696,1,0,0:2:0:0:
256,192,53865,1,0,0:2:0:0:
256,192,53950,1,0,0:2:0:0:
256,192,54035,1,8,0:2:0:0:
256,192,54204,1,0,0:2:0:0:
256,192,54374,1,8,0:2:0:0:
256,192,54713,1,8,0:2:0:0:
256,192,55052,1,8,0:2:0:0:
256,192,55221,1,0,0:2:0:0:
256,192,55306,1,0,0:2:0:0:
256,192,55391,1,8,0:2:0:0:
256,192,55560,1,8,0:2:0:0:
256,192,55730,1,8,0:2:0:0:
256,192,55899,1,0,0:2:0:0:
256,192,56069,1,12,0:2:0:0:
256,192,56408,1,0,0:2:0:0:
256,192,56577,1,8,0:2:0:0:
256,192,56747,1,0,0:2:0:0:
256,224,57086,1,0,0:2:0:0:
256,192,57255,1,8,0:2:0:0:
256,192,57425,1,8,0:2:0:0:
256,192,57764,1,0,0:2:0:0:
256,192,57933,1,8,0:2:0:0:
256,192,58103,1,0,0:2:0:0:
256,192,58272,1,8,0:2:0:0:
256,192,58357,1,8,0:2:0:0:
256,192,58442,1,0,0:2:0:0:
256,192,58611,1,0,0:2:0:0:
256,192,58781,1,8,0:2:0:0:
256,192,58865,1,0,0:2:0:0:
256,192,58950,1,8,0:2:0:0:
256,192,59035,1,0,0:2:0:0:
256,192,59120,1,8,0:2:0:0:
256,192,59289,1,0,0:2:0:0:
256,192,59459,1,8,0:2:0:0:
256,192,59628,1,0,0:0:0:0:
256,192,59713,1,0,0:2:0:0:
256,192,59798,1,0,0:2:0:0:
256,192,59967,1,8,0:2:0:0:
256,192,60137,1,8,0:2:0:0:
256,192,60306,1,0,0:0:0:0:
256,192,60476,1,8,0:2:0:0:
256,192,60560,1,8,0:2:0:0:
256,192,60645,1,0,0:2:0:0:
256,192,60984,1,0,0:2:0:0:
256,192,61069,1,8,0:2:0:0:
256,192,61153,1,8,0:2:0:0:
256,192,61323,1,8,0:2:0:0:
256,192,61492,1,4,0:2:0:0:
256,192,61831,1,8,0:2:0:0:
256,192,62001,1,0,0:0:0:0:
256,192,62086,1,0,0:0:0:0:
256,192,62170,1,8,0:2:0:0:
256,192,62340,1,0,0:0:0:0:
256,192,62509,1,0,0:2:0:0:
256,192,62679,1,8,0:2:0:0:
256,192,62764,1,0,0:0:0:0:
256,192,62848,1,0,0:2:0:0:
256,192,63018,1,0,0:2:0:0:
256,192,63187,1,8,0:2:0:0:
256,192,63357,1,0,0:2:0:0:
256,192,63442,1,8,0:2:0:0:
256,192,63526,1,0,0:2:0:0:
256,192,63696,1,0,0:0:0:0:
256,192,63865,1,8,0:2:0:0:
256,192,64204,1,0,0:2:0:0:
256,192,64374,1,8,0:2:0:0:
256,192,64543,1,0,0:2:0:0:
256,192,64713,1,0,0:2:0:0:
256,192,64798,1,0,0:2:0:0:
256,192,64882,1,8,0:2:0:0:
256,192,65052,1,0,0:2:0:0:
256,192,65221,1,0,0:2:0:0:
256,192,65560,1,12,0:2:0:0:
256,192,65730,1,0,0:2:0:0:
256,192,65899,1,8,0:2:0:0:
256,192,66069,1,0,0:2:0:0:
256,192,66238,1,8,0:2:0:0:
256,192,66323,1,0,0:2:0:0:
256,192,66408,1,8,0:2:0:0:
256,192,66492,1,0,0:2:0:0:
256,192,66577,1,8,0:2:0:0:
320,128,66916,5,4,0:0:0:0:
320,160,67255,1,8,0:0:0:0:
384,160,67594,1,0,0:0:0:0:
320,128,67933,1,8,0:0:0:0:
416,160,68272,1,0,0:0:0:0:
256,96,68611,1,8,0:0:0:0:
416,160,68950,1,0,0:0:0:0:
192,128,69289,1,8,0:0:0:0:
320,96,69628,1,0,0:0:0:0:
320,128,69967,1,8,0:0:0:0:
288,96,70306,1,0,0:0:0:0:
320,128,70645,1,8,0:0:0:0:
288,96,70984,1,0,0:0:0:0:
352,288,71153,1,0,0:0:0:0:
320,128,71323,1,8,0:0:0:0:
283,210,71492,1,8,0:0:0:0:
320,160,71662,1,0,0:0:0:0:
320,160,71831,1,0,0:0:0:0:
320,160,72001,1,0,0:0:0:0:
288,64,72086,1,0,0:0:0:0:
320,160,72170,1,8,0:0:0:0:
288,160,72340,1,4,0:0:0:0:
347,190,72509,1,0,0:0:0:0:
338,194,72679,1,8,0:0:0:0:
350,246,72848,1,0,0:0:0:0:
350,246,72933,1,0,0:0:0:0:
350,246,73018,1,8,0:0:0:0:
295,233,73187,1,0,0:0:0:0:
295,233,73357,1,8,0:0:0:0:
333,221,73442,1,0,0:0:0:0:
333,221,73526,1,0,0:0:0:0:
333,221,73611,1,0,0:0:0:0:
333,221,73696,1,8,0:0:0:0:
283,192,73865,1,0,0:0:0:0:
283,192,74035,1,8,0:0:0:0:
250,139,74204,1,0,0:0:0:0:
217,115,74289,1,0,0:0:0:0:
274,110,74374,1,8,0:0:0:0:
101,149,74543,1,0,0:0:0:0:
159,116,74713,1,8,0:0:0:0:
220,101,74798,1,8,0:0:0:0:
152,130,74882,1,0,0:0:0:0:
159,118,74967,1,0,0:0:0:0:
166,132,75052,1,8,0:0:0:0:
308,107,75221,1,0,0:0:0:0:
308,107,75391,1,8,0:0:0:0:
308,107,75560,1,0,0:0:0:0:
308,107,75645,1,0,0:0:0:0:
308,107,75730,1,8,0:0:0:0:
285,69,75899,1,0,0:0:0:0:
285,69,76069,1,8,0:0:0:0:
285,69,76153,1,0,0:0:0:0:
285,69,76238,1,0,0:0:0:0:
285,69,76323,1,0,0:0:0:0:
285,69,76408,1,8,0:0:0:0:
339,48,76577,1,0,0:0:0:0:
339,48,76747,1,8,0:0:0:0:
339,48,76916,1,0,0:0:0:0:
339,48,77001,1,0,0:0:0:0:
339,48,77086,1,8,0:0:0:0:
339,48,77255,1,0,0:0:0:0:
339,48,77425,1,8,0:0:0:0:
339,48,77509,1,8,0:0:0:0:
339,48,77594,1,0,0:0:0:0:
339,48,77679,1,0,0:0:0:0:
339,48,77764,1,8,0:0:0:0:
308,107,77933,1,0,0:0:0:0:
308,107,78103,1,8,0:0:0:0:
308,107,78187,1,8,0:0:0:0:
308,107,78272,1,0,0:0:0:0:
308,107,78442,1,8,0:0:0:0:
285,69,78611,1,0,0:0:0:0:
285,69,78781,1,8,0:0:0:0:
285,69,78865,1,0,0:0:0:0:
285,69,78950,1,0,0:0:0:0:
285,69,79035,1,0,0:0:0:0:
285,69,79120,1,8,0:0:0:0:
339,48,79289,1,0,0:0:0:0:
339,48,79459,1,8,0:0:0:0:
192,96,79543,1,8,0:0:0:0:
339,48,79628,1,0,0:0:0:0:
339,48,79798,1,8,0:0:0:0:
339,48,79967,1,0,0:0:0:0:
339,48,80137,1,8,0:0:0:0:
339,48,80221,1,8,0:0:0:0:
339,48,80306,1,0,0:0:0:0:
339,48,80391,1,0,0:0:0:0:
339,48,80476,1,8,0:0:0:0:
313,121,80645,1,0,0:0:0:0:
128,32,80730,1,0,0:0:0:0:
313,121,80814,1,8,0:0:0:0:
306,101,80899,1,8,0:0:0:0:
313,121,80984,1,0,0:0:0:0:
306,101,81153,1,8,0:0:0:0:
306,101,81323,1,0,0:0:0:0:
320,160,81408,1,0,0:0:0:0:
306,101,81492,1,8,0:0:0:0:
306,101,81577,1,0,0:0:0:0:
306,101,81662,1,0,0:0:0:0:
306,104,81747,1,0,0:0:0:0:
309,101,81831,1,8,0:0:0:0:
314,97,82001,1,0,0:0:0:0:
314,97,82170,1,8,0:0:0:0:
186,137,82255,1,8,0:0:0:0:
310,108,82340,1,0,0:0:0:0:
310,108,82425,1,0,0:0:0:0:
200,138,82509,1,8,0:0:0:0:
200,138,82594,1,8,0:0:0:0:
200,138,82679,1,0,0:0:0:0:
200,138,82764,1,0,0:0:0:0:
200,138,82848,1,8,0:0:0:0:
200,138,82933,1,0,0:0:0:0:
200,138,83018,1,8,0:0:0:0:
256,192,83187,5,6,0:0:0:0:
256,192,83357,1,0,0:0:0:0:
256,192,83442,1,0,0:0:0:0:
256,192,83526,1,2,0:0:0:0:
256,192,83696,1,0,0:0:0:0:
256,192,83865,1,2,0:0:0:0:
256,192,83950,1,2,0:0:0:0:
256,192,84035,1,0,0:0:0:0:
256,192,84120,1,0,0:0:0:0:
256,192,84204,1,2,0:0:0:0:
256,192,84374,1,0,0:0:0:0:
256,192,84543,1,2,0:0:0:0:
256,192,84713,1,0,0:0:0:0:
256,192,84798,1,0,0:0:0:0:
256,192,84882,1,2,0:0:0:0:
256,192,85052,1,0,0:0:0:0:
256,192,85221,1,2,0:0:0:0:
256,192,85306,1,2,0:0:0:0:
256,192,85391,1,0,0:0:0:0:
256,192,85476,1,2,0:0:0:0:
256,192,85560,1,2,0:0:0:0:
256,192,85730,1,0,0:0:0:0:
256,192,85899,1,2,0:0:0:0:
256,192,86069,1,0,0:0:0:0:
256,192,86153,1,0,0:0:0:0:
256,192,86238,1,2,0:0:0:0:
256,192,86408,1,0,0:0:0:0:
256,192,86577,1,2,0:0:0:0:
256,192,86662,1,2,0:0:0:0:
256,192,86747,1,0,0:0:0:0:
256,192,86831,1,0,0:0:0:0:
256,192,86916,1,2,0:0:0:0:
256,192,87086,1,0,0:0:0:0:
256,192,87255,1,2,0:0:0:0:
256,192,87425,1,0,0:0:0:0:
256,192,87509,1,0,0:0:0:0:
256,192,87594,1,2,0:0:0:0:
256,192,87764,1,0,0:0:0:0:
256,192,87933,1,2,0:0:0:0:
256,192,88018,1,2,0:0:0:0:
256,192,88103,1,0,0:0:0:0:
256,192,88188,1,2,0:0:0:0:
256,192,88273,1,2,0:0:0:0:
256,192,88442,1,0,0:0:0:0:
256,192,88611,1,2,0:0:0:0:
256,192,88781,1,0,0:0:0:0:
256,192,88865,1,0,0:0:0:0:
256,192,88950,1,2,0:0:0:0:
256,192,89120,1,0,0:0:0:0:
256,192,89204,1,0,0:0:0:0:
256,192,89289,1,2,0:0:0:0:
256,192,89374,1,2,0:0:0:0:
256,192,89459,1,2,0:0:0:0:
256,192,89543,1,0,0:0:0:0:
256,192,89628,1,2,0:0:0:0:
256,192,89798,1,0,0:0:0:0:
256,192,89967,1,2,0:0:0:0:
256,192,90137,1,0,0:0:0:0:
256,192,90221,1,0,0:0:0:0:
256,192,90306,1,2,0:0:0:0:
256,192,90476,1,0,0:0:0:0:
256,192,90560,1,0,0:0:0:0:
256,192,90645,1,2,0:0:0:0:
256,192,90730,1,0,0:0:0:0:
256,192,90814,1,2,0:0:0:0:
256,192,90899,1,0,0:0:0:0:
256,192,90984,1,2,0:0:0:0:
256,192,91153,1,0,0:0:0:0:
256,192,91323,1,2,0:0:0:0:
256,192,91408,1,0,0:0:0:0:
256,192,91492,1,0,0:0:0:0:
256,192,91577,1,0,0:0:0:0:
256,192,91662,1,2,0:0:0:0:
256,192,91747,1,0,0:0:0:0:
256,192,91831,1,2,0:0:0:0:
256,192,91916,1,0,0:0:0:0:
256,192,92001,1,0,0:0:0:0:
256,192,92086,1,0,0:0:0:0:
256,192,92170,1,2,0:0:0:0:
256,192,92255,1,0,0:0:0:0:
256,192,92340,1,2,0:0:0:0:
256,192,92425,1,2,0:0:0:0:
256,192,92509,1,0,0:0:0:0:
256,192,92594,1,0,0:0:0:0:
256,192,92679,1,2,0:0:0:0:
256,192,92764,1,0,0:0:0:0:
256,192,92848,1,0,0:0:0:0:
256,192,92933,1,0,0:0:0:0:
256,192,93018,1,2,0:0:0:0:
256,192,93103,1,0,0:0:0:0:
256,192,93187,1,2,0:0:0:0:
256,192,93272,1,0,0:0:0:0:
256,192,93357,1,0,0:0:0:0:
256,192,93442,1,0,0:0:0:0:
256,192,93526,1,2,0:0:0:0:
256,192,93611,1,0,0:0:0:0:
256,192,93696,1,2,0:0:0:0:
256,192,93781,1,2,0:0:0:0:
256,192,93865,1,0,0:0:0:0:
192,192,94035,2,4,L|288:192,14,48.9999985046387
256,192,95391,5,6,0:0:0:0:
256,192,96238,1,6,0:0:0:0:
256,192,96408,1,6,0:0:0:0:
256,192,96577,1,6,0:0:0:0:
256,192,96747,5,4,0:2:0:0:
256,192,96916,1,0,0:2:0:0:
256,192,97001,1,0,0:2:0:0:
256,192,97086,1,8,0:2:0:0:
256,192,97255,1,0,0:2:0:0:
256,192,97425,1,8,0:2:0:0:
256,192,97594,1,0,0:2:0:0:
256,192,97679,1,8,0:2:0:0:
256,192,97764,1,8,0:2:0:0:
256,192,97848,1,0,0:2:0:0:
256,192,97933,1,8,0:2:0:0:
256,192,98103,1,0,0:2:0:0:
256,192,98272,1,0,0:2:0:0:
256,192,98357,1,0,0:2:0:0:
256,192,98442,1,8,0:2:0:0:
256,192,98611,1,0,0:2:0:0:
256,192,98781,1,8,0:2:0:0:
256,192,98950,1,0,0:2:0:0:
256,192,99035,1,8,0:2:0:0:
256,192,99120,1,8,0:2:0:0:
256,192,99204,1,0,0:2:0:0:
256,192,99289,1,8,0:2:0:0:
256,192,99374,1,8,0:2:0:0:
256,192,99459,1,0,0:2:0:0:
256,192,99628,1,0,0:2:0:0:
256,192,99798,1,8,0:2:0:0:
256,192,99967,1,8,0:2:0:0:
256,192,100052,1,8,0:2:0:0:
256,192,100137,1,0,0:2:0:0:
256,192,100306,1,0,0:2:0:0:
256,192,100476,1,8,0:2:0:0:
256,192,100645,1,8,0:2:0:0:
256,192,100814,1,0,0:2:0:0:
256,192,100899,1,8,0:2:0:0:
256,192,100984,1,0,0:2:0:0:
256,192,101069,1,0,0:2:0:0:
256,192,101153,1,8,0:2:0:0:
256,192,101238,1,0,0:2:0:0:
256,192,101323,1,8,0:2:0:0:
256,192,101408,1,8,0:2:0:0:
256,192,101492,1,0,0:2:0:0:
256,192,101747,1,0,0:2:0:0:
256,192,101831,1,8,0:2:0:0:
256,192,102001,1,8,0:2:0:0:
256,192,102170,1,0,0:2:0:0:
256,192,102340,1,0,0:2:0:0:
256,192,102509,1,8,0:2:0:0:
256,192,102679,1,0,0:2:0:0:
256,192,102764,1,0,0:2:0:0:
256,192,102848,1,0,0:2:0:0:
256,192,103018,1,8,0:2:0:0:
256,192,103187,1,0,0:2:0:0:
256,192,103272,1,0,0:2:0:0:
256,192,103357,1,8,0:2:0:0:
256,192,103526,1,0,0:2:0:0:
256,192,103696,1,0,0:2:0:0:
256,192,103865,1,8,0:2:0:0:
256,192,104035,1,0,0:2:0:0:
256,192,104120,1,0,0:2:0:0:
256,192,104204,1,0,0:2:0:0:
256,192,104374,1,8,0:2:0:0:
256,192,104543,1,0,0:2:0:0:
256,192,104628,1,8,0:2:0:0:
256,192,104713,1,0,0:2:0:0:
256,192,104882,1,12,0:2:0:0:
256,192,105052,1,0,0:2:0:0:
256,192,105221,1,0,0:2:0:0:
256,192,105391,1,0,0:2:0:0:
256,192,105560,1,8,0:2:0:0:
256,192,105645,1,0,0:2:0:0:
256,192,105730,1,0,0:2:0:0:
256,192,105814,1,0,0:2:0:0:
256,192,105899,1,8,0:2:0:0:
256,192,105984,1,8,0:2:0:0:
256,192,106069,1,0,0:2:0:0:
256,192,106153,1,0,0:2:0:0:
256,192,106238,1,8,0:2:0:0:
256,192,106577,1,8,0:2:0:0:
256,192,106916,1,8,0:2:0:0:
256,192,107001,1,0,0:2:0:0:
256,192,107086,1,8,0:2:0:0:
256,192,107170,1,0,0:2:0:0:
256,192,107255,1,8,0:2:0:0:
256,192,107425,1,0,0:2:0:0:
256,192,107594,1,4,0:2:0:0:
256,192,107764,1,0,0:2:0:0:
256,192,107933,1,8,0:2:0:0:
256,192,108018,1,8,0:2:0:0:
256,192,108103,1,0,0:2:0:0:
256,192,108272,1,0,0:2:0:0:
256,192,108442,1,8,0:2:0:0:
256,192,108611,1,0,0:2:0:0:
224,192,108696,1,0,0:2:0:0:
224,192,108781,1,8,0:2:0:0:
256,192,108950,1,0,0:2:0:0:
256,192,109120,1,0,0:2:0:0:
256,192,109289,1,8,0:2:0:0:
256,192,109374,1,8,0:2:0:0:
256,192,109459,1,0,0:2:0:0:
256,192,109628,1,0,0:2:0:0:
256,192,109798,1,8,0:2:0:0:
256,192,109967,1,0,0:2:0:0:
256,192,110052,1,0,0:2:0:0:
256,192,110137,1,8,0:2:0:0:
256,192,110306,1,8,0:2:0:0:
256,192,110476,1,0,0:2:0:0:
256,192,110645,1,8,0:2:0:0:
256,192,110814,1,0,0:2:0:0:
256,192,110899,1,0,0:2:0:0:
256,192,110984,1,8,0:2:0:0:
256,192,111153,1,0,0:2:0:0:
256,192,111238,1,0,0:2:0:0:
256,192,111323,1,8,0:2:0:0:
256,192,111492,1,0,0:2:0:0:
256,192,111662,1,8,0:2:0:0:
256,192,111747,1,8,0:2:0:0:
256,192,111831,1,0,0:2:0:0:
256,192,111916,1,0,0:2:0:0:
256,192,112001,1,8,0:2:0:0:
256,192,112086,1,0,0:2:0:0:
256,192,112170,1,8,0:2:0:0:
256,192,112255,1,8,0:2:0:0:
256,192,112340,1,0,0:2:0:0:
256,192,112594,1,0,0:2:0:0:
256,192,112679,1,8,0:2:0:0:
256,192,112848,1,8,0:2:0:0:
256,192,113018,1,0,0:2:0:0:
256,192,113187,1,0,0:2:0:0:
256,192,113272,1,0,0:2:0:0:
256,192,113357,1,8,0:2:0:0:
256,192,113526,1,0,0:2:0:0:
256,192,113611,1,8,0:2:0:0:
256,192,113696,1,0,0:2:0:0:
256,192,113781,1,0,0:2:0:0:
256,192,113865,1,8,0:2:0:0:
256,192,113950,1,8,0:2:0:0:
256,192,114035,1,0,0:2:0:0:
256,192,114204,1,8,0:2:0:0:
256,192,114374,1,0,0:2:0:0:
256,192,114543,1,0,0:2:0:0:
256,192,114628,1,0,0:2:0:0:
256,192,114713,1,8,0:2:0:0:
256,192,114882,1,0,0:2:0:0:
256,192,114967,1,8,0:2:0:0:
256,192,115052,1,0,0:2:0:0:
256,192,115137,1,0,0:2:0:0:
256,192,115221,1,8,0:2:0:0:
256,192,115306,1,8,0:2:0:0:
256,192,115391,1,0,0:2:0:0:
256,192,115476,1,0,0:0:0:0:
256,192,115560,1,8,0:2:0:0:
256,192,115730,1,12,0:2:0:0:
256,192,115899,1,0,0:2:0:0:
256,192,116069,1,0,0:2:0:0:
256,192,116238,1,0,0:2:0:0:
256,192,116408,1,12,0:2:0:0:
256,192,116577,1,0,0:2:0:0:
256,192,116747,1,0,0:2:0:0:
256,192,116916,1,0,0:2:0:0:
256,192,117086,1,12,0:2:0:0:
256,192,117425,1,0,0:2:0:0:
256,192,117764,1,0,0:2:0:0:
256,192,117848,1,0,0:2:0:0:
256,192,117933,1,8,0:2:0:0:
256,192,118103,1,0,0:0:0:0:
131,132,118442,5,4,0:0:0:0:
224,160,118781,1,0,0:0:0:0:
192,96,118950,1,8,0:0:0:0:
384,160,119120,1,0,0:0:0:0:
224,128,119459,1,8,0:0:0:0:
288,160,119628,1,0,0:0:0:0:
96,160,119798,1,0,0:0:0:0:
288,128,120137,1,8,0:0:0:0:
256,96,120306,1,0,0:0:0:0:
224,128,120391,1,0,0:0:0:0:
352,64,120476,1,0,0:0:0:0:
256,128,120645,1,0,0:0:0:0:
320,128,120814,1,8,0:0:0:0:
320,128,120984,1,0,0:0:0:0:
320,128,121153,1,8,0:0:0:0:
160,224,121238,1,0,0:0:0:0:
288,128,121323,1,8,0:0:0:0:
288,128,121408,1,0,0:0:0:0:
352,160,121492,1,8,0:0:0:0:
352,192,121831,1,0,0:0:0:0:
352,192,122170,1,8,0:0:0:0:
224,128,122340,1,0,0:0:0:0:
320,224,122509,1,0,0:0:0:0:
320,224,122679,1,0,0:0:0:0:
192,96,122764,1,0,0:0:0:0:
320,224,122848,1,8,0:0:0:0:
320,224,123018,1,0,0:0:0:0:
384,192,123357,1,0,0:0:0:0:
416,160,123526,1,8,0:0:0:0:
416,160,123696,1,0,0:0:0:0:
288,192,123865,1,8,0:0:0:0:
352,192,124204,1,8,0:0:0:0:
160,192,124374,1,0,0:0:0:0:
352,224,124543,1,0,0:0:0:0:
160,160,124713,1,0,0:0:0:0:
256,192,124798,1,0,0:0:0:0:
384,224,124882,1,8,0:0:0:0:
416,192,125052,1,8,0:0:0:0:
224,160,125137,1,8,0:0:0:0:
416,192,125221,1,0,0:0:0:0:
288,192,125391,1,0,0:0:0:0:
288,192,125560,1,8,0:0:0:0:
288,192,125645,1,0,0:0:0:0:
288,192,125730,1,0,0:0:0:0:
320,160,125899,1,0,0:0:0:0:
320,160,126069,1,0,0:0:0:0:
320,160,126238,1,8,0:0:0:0:
320,160,126577,1,4,0:0:0:0:
288,96,126747,1,0,0:0:0:0:
224,160,126831,1,0,0:0:0:0:
288,96,126916,1,8,0:0:0:0:
288,96,127086,1,0,0:0:0:0:
288,96,127255,1,8,0:0:0:0:
288,128,127425,1,8,0:0:0:0:
288,128,127509,1,8,0:0:0:0:
288,128,127594,1,0,0:0:0:0:
288,128,127764,1,0,0:0:0:0:
384,256,127933,1,8,0:0:0:0:
384,256,128272,1,8,0:0:0:0:
384,256,128611,1,8,0:0:0:0:
384,224,128781,1,0,0:0:0:0:
384,224,128865,1,0,0:0:0:0:
384,224,128950,1,0,0:0:0:0:
416,224,129120,1,8,0:0:0:0:
416,192,129289,1,4,0:0:0:0:
160,160,129628,1,0,0:0:0:0:
160,160,129798,1,8,0:0:0:0:
160,160,129967,1,0,0:0:0:0:
224,192,130306,1,8,0:0:0:0:
224,224,130476,1,0,0:0:0:0:
224,224,130645,1,0,0:0:0:0:
192,128,130984,1,0,0:0:0:0:
192,128,131153,1,0,0:0:0:0:
192,128,131323,1,8,0:0:0:0:
224,160,131492,1,8,0:0:0:0:
192,128,131577,1,8,0:0:0:0:
192,128,131662,1,0,0:0:0:0:
224,128,131831,1,0,0:0:0:0:
224,160,132001,1,8,0:0:0:0:
32,160,132086,1,0,0:0:0:0:
224,160,132170,1,8,0:0:0:0:
224,160,132255,1,0,0:0:0:0:
224,160,132340,1,8,0:0:0:0:
224,32,132679,1,0,0:0:0:0:
224,32,133018,1,8,0:0:0:0:
128,128,133187,1,0,0:0:0:0:
256,32,133357,1,0,0:0:0:0:
256,32,133526,1,0,0:0:0:0:
160,96,133611,1,0,0:0:0:0:
256,32,133696,1,8,0:0:0:0:
160,128,133865,1,0,0:0:0:0:
256,64,134204,1,0,0:0:0:0:
256,64,134374,1,8,0:0:0:0:
320,64,134543,1,8,0:0:0:0:
320,64,134713,1,8,0:0:0:0:
256,32,135052,1,0,0:0:0:0:
288,128,135391,1,8,0:0:0:0:
288,96,135645,1,0,0:0:0:0:
256,96,135730,1,0,0:0:0:0:
256,96,135899,1,0,0:0:0:0:
256,96,136069,1,8,0:0:0:0:
256,96,136238,1,8,0:0:0:0:
256,96,136323,1,8,0:0:0:0:
256,96,136408,1,0,0:0:0:0:
256,96,136577,1,0,0:0:0:0:
224,96,136747,1,0,0:0:0:0:
224,96,136916,1,8,0:0:0:0:
224,96,137086,1,8,0:0:0:0:
288,224,137425,1,4,0:0:0:0:
128,128,137594,1,0,0:0:0:0:
128,128,137679,1,0,0:0:0:0:
128,128,137764,1,0,0:0:0:0:
128,128,137933,1,0,0:0:0:0:
320,224,138103,1,4,0:0:0:0:
160,128,138272,1,0,0:0:0:0:
160,128,138357,1,0,0:0:0:0:
160,128,138442,1,8,0:0:0:0:
160,96,138611,1,0,0:0:0:0:
352,256,138781,1,12,0:0:0:0:
224,128,139120,1,8,0:0:0:0:
256,192,139459,1,8,0:0:0:0:
256,192,139628,1,8,0:0:0:0:
256,192,139798,1,8,0:0:0:0:
256,192,140137,5,0,0:0:0:0:
256,192,140306,1,0,0:0:0:0:
256,192,140391,1,0,0:0:0:0:
256,192,140476,1,2,0:0:0:0:
256,192,140645,1,0,0:0:0:0:
256,192,140814,1,2,0:0:0:0:
256,192,140984,1,2,0:0:0:0:
256,192,141069,1,0,0:0:0:0:
256,192,141153,1,2,0:0:0:0:
256,192,141323,1,0,0:0:0:0:
256,192,141492,1,2,0:0:0:0:
256,192,141662,1,0,0:0:0:0:
256,192,141747,1,0,0:0:0:0:
256,192,141831,1,2,0:0:0:0:
256,192,142001,1,0,0:0:0:0:
256,192,142170,1,2,0:0:0:0:
256,192,142340,1,2,0:0:0:0:
256,192,142425,1,2,0:0:0:0:
256,192,142509,1,0,0:0:0:0:
256,192,142679,1,0,0:0:0:0:
256,192,142848,1,2,0:0:0:0:
256,192,143018,1,0,0:0:0:0:
256,192,143103,1,0,0:0:0:0:
256,192,143187,1,2,0:0:0:0:
256,192,143357,1,0,0:0:0:0:
256,192,143526,1,2,0:0:0:0:
256,192,143696,1,2,0:0:0:0:
256,192,143781,1,0,0:0:0:0:
256,192,143865,1,2,0:0:0:0:
256,192,144035,1,0,0:0:0:0:
256,192,144204,1,2,0:0:0:0:
256,192,144374,1,0,0:0:0:0:
256,192,144459,1,0,0:0:0:0:
256,192,144543,1,2,0:0:0:0:
256,192,144713,1,0,0:0:0:0:
256,192,144882,1,2,0:0:0:0:
256,192,145052,1,2,0:0:0:0:
256,192,145137,1,2,0:0:0:0:
256,192,145221,1,0,0:0:0:0:
256,192,145391,1,0,0:0:0:0:
256,192,145560,1,2,0:0:0:0:
256,192,145730,1,0,0:0:0:0:
256,192,145815,1,0,0:0:0:0:
256,192,145899,1,2,0:0:0:0:
256,192,146069,1,0,0:0:0:0:
256,192,146238,1,2,0:0:0:0:
256,192,146323,1,2,0:0:0:0:
256,192,146408,1,0,0:0:0:0:
256,192,146493,1,0,0:0:0:0:
256,192,146577,1,2,0:0:0:0:
256,192,146747,1,0,0:0:0:0:
256,192,146916,1,2,0:0:0:0:
256,192,147086,1,0,0:0:0:0:
256,192,147171,1,0,0:0:0:0:
256,192,147255,1,2,0:0:0:0:
256,192,147425,1,0,0:0:0:0:
256,192,147594,1,2,0:0:0:0:
256,192,147679,1,0,0:0:0:0:
256,192,147764,1,0,0:0:0:0:
256,192,147849,1,0,0:0:0:0:
256,192,147933,1,2,0:0:0:0:
256,192,148103,1,0,0:0:0:0:
256,192,148272,1,2,0:0:0:0:
256,192,148442,1,0,0:0:0:0:
256,192,148526,1,0,0:0:0:0:
256,192,148611,1,2,0:0:0:0:
256,192,148781,1,0,0:0:0:0:
256,192,148950,1,2,0:0:0:0:
256,192,149035,1,2,0:0:0:0:
256,192,149120,1,0,0:0:0:0:
256,192,149204,1,0,0:0:0:0:
256,192,149289,1,2,0:0:0:0:
256,192,149459,1,0,0:0:0:0:
256,192,149628,1,2,0:0:0:0:
256,192,149798,1,0,0:0:0:0:
256,192,149882,1,0,0:0:0:0:
256,192,149967,1,2,0:0:0:0:
256,192,150137,1,0,0:0:0:0:
256,192,150305,1,2,0:0:0:0:
256,192,150390,1,0,0:0:0:0:
256,192,150475,1,0,0:0:0:0:
256,192,150560,1,0,0:0:0:0:
256,192,150644,1,2,0:0:0:0:
256,192,150814,1,0,0:0:0:0:
256,192,150984,1,2,0:0:0:0:
256,192,151154,1,0,0:0:0:0:
256,192,151238,1,0,0:0:0:0:
256,192,151323,1,2,0:0:0:0:
256,192,151493,1,2,0:0:0:0:
256,192,151577,1,0,0:0:0:0:
256,192,151662,1,2,0:0:0:0:
256,192,151747,1,2,0:0:0:0:
256,192,151831,1,2,0:0:0:0:
256,192,151916,1,0,0:0:0:0:
256,192,152001,1,2,0:0:0:0:
256,192,152171,1,0,0:0:0:0:
256,192,152340,1,2,0:0:0:0:
256,192,152509,1,0,0:0:0:0:
256,192,152594,1,0,0:0:0:0:
256,192,152679,1,2,0:0:0:0:
256,192,152849,1,2,0:0:0:0:
256,192,152933,1,0,0:0:0:0:
256,192,153018,1,2,0:0:0:0:
256,192,153103,1,2,0:0:0:0:
256,192,153187,1,0,0:0:0:0:
256,192,153272,1,0,0:0:0:0:
256,192,153357,1,2,0:0:0:0:
256,192,153526,1,0,0:0:0:0:
256,192,153696,1,2,0:0:0:0:
256,192,153865,1,0,0:0:0:0:
256,192,153950,1,0,0:0:0:0:
256,192,154035,1,2,0:0:0:0:
256,192,154204,1,2,0:0:0:0:
256,192,154288,1,0,0:0:0:0:
256,192,154373,1,2,0:0:0:0:
256,192,154458,1,2,0:0:0:0:
256,192,154542,1,2,0:0:0:0:
256,192,154627,1,0,0:0:0:0:
256,192,154712,1,2,0:0:0:0:
256,192,154882,1,0,0:0:0:0:
256,192,155052,1,2,0:0:0:0:
256,192,155221,1,0,0:0:0:0:
256,192,155306,1,0,0:0:0:0:
256,192,155391,1,2,0:0:0:0:
256,192,155560,1,2,0:0:0:0:
256,192,155644,1,0,0:0:0:0:
256,192,155729,1,2,0:0:0:0:
256,192,155814,1,2,0:0:0:0:
256,192,155898,1,0,0:0:0:0:
256,192,155983,1,0,0:0:0:0:
256,192,156068,1,2,0:0:0:0:
256,192,156238,1,0,0:0:0:0:
256,192,156407,1,2,0:0:0:0:
256,192,156577,1,2,0:0:0:0:
256,192,156662,1,2,0:0:0:0:
256,192,156747,1,2,0:0:0:0:
256,192,156831,1,0,0:0:0:0:
256,192,156916,1,2,0:0:0:0:
256,192,157001,1,0,0:0:0:0:
256,192,157086,1,2,0:0:0:0:
256,192,157170,1,2,0:0:0:0:
256,192,157255,1,0,0:0:0:0:
256,192,157340,1,0,0:0:0:0:
256,192,157425,1,2,0:0:0:0:
256,192,157594,1,0,0:0:0:0:
256,192,157764,1,2,0:0:0:0:
256,192,157933,1,2,0:0:0:0:
256,192,158018,1,0,0:0:0:0:
256,192,158103,1,2,0:0:0:0:
256,192,158187,1,0,0:0:0:0:
256,192,158272,1,0,0:0:0:0:
256,192,158357,1,2,0:0:0:0:
256,192,158442,1,2,0:0:0:0:
256,192,158526,1,0,0:0:0:0:
256,192,158611,1,2,0:0:0:0:
256,192,158696,1,0,0:0:0:0:
256,192,158781,1,2,0:0:0:0:
256,192,158950,1,0,0:0:0:0:
256,192,159120,1,2,0:0:0:0:
256,192,159289,1,2,0:0:0:0:
256,192,159374,1,2,0:0:0:0:
256,192,159459,1,2,0:0:0:0:
256,192,159543,1,0,0:0:0:0:
256,192,159628,1,2,0:0:0:0:
256,192,159713,1,0,0:0:0:0:
256,192,159798,1,2,0:0:0:0:
256,192,159882,1,2,0:0:0:0:
256,192,159967,1,0,0:0:0:0:
256,192,160052,1,0,0:0:0:0:
256,192,160137,1,2,0:0:0:0:
256,192,160306,1,2,0:0:0:0:
256,192,160476,1,4,0:0:0:0:
256,192,162509,1,0,0:0:0:0:
256,192,162679,1,0,0:0:0:0:
256,192,162764,1,0,0:0:0:0:
256,192,162848,1,0,0:0:0:0:
256,192,162933,1,0,0:0:0:0:
256,192,163018,1,0,0:0:0:0:
256,192,163187,1,8,0:2:0:0:
256,192,163272,5,0,0:2:0:0:
256,192,163357,1,0,0:2:0:0:
256,192,163442,1,0,0:2:0:0:
256,192,163526,1,8,0:2:0:0:
256,192,163611,1,0,0:2:0:0:
256,192,163696,1,8,0:2:0:0:
256,192,163781,1,0,0:2:0:0:
256,192,163865,1,8,0:2:0:0:
256,192,163950,1,8,0:2:0:0:
256,192,164035,1,0,0:2:0:0:
256,192,164120,1,0,0:2:0:0:
256,192,164204,1,8,0:2:0:0:
256,192,164289,1,0,0:2:0:0:
256,192,164374,1,8,0:2:0:0:
256,192,164459,1,0,0:2:0:0:
256,192,164543,1,8,0:2:0:0:
256,192,164713,1,0,0:2:0:0:
256,192,164882,1,8,0:2:0:0:
256,192,164967,1,0,0:2:0:0:
256,192,165052,1,8,0:2:0:0:
256,192,165221,1,0,0:2:0:0:
256,192,165391,1,8,0:2:0:0:
256,192,165560,1,0,0:2:0:0:
256,192,165730,1,0,0:0:0:0:
256,192,165899,1,8,0:2:0:0:
256,192,166069,1,0,0:2:0:0:
256,192,166238,1,8,0:2:0:0:
256,192,166323,1,0,0:2:0:0:
256,192,166408,1,0,0:2:0:0:
256,192,166577,1,8,0:2:0:0:
256,192,166747,1,0,0:2:0:0:
256,192,166916,1,8,0:2:0:0:
256,192,167001,1,0,0:2:0:0:
256,192,167086,1,8,0:2:0:0:
256,192,167255,1,8,0:2:0:0:
256,192,167340,1,8,0:2:0:0:
256,192,167425,1,8,0:2:0:0:
256,192,167509,1,8,0:2:0:0:
256,192,167594,1,0,0:2:0:0:
256,192,167679,1,0,0:2:0:0:
256,192,167764,1,8,0:2:0:0:
256,192,167933,1,0,0:0:0:0:
256,192,168103,1,8,0:2:0:0:
256,192,168187,1,8,0:2:0:0:
256,192,168272,1,8,0:2:0:0:
256,192,168442,1,8,0:2:0:0:
256,192,168611,1,8,0:2:0:0:
256,192,168696,1,0,0:2:0:0:
256,192,168781,1,0,0:2:0:0:
256,192,168865,1,0,0:2:0:0:
256,192,168950,1,8,0:2:0:0:
256,192,169035,1,0,0:2:0:0:
256,192,169120,1,8,0:2:0:0:
256,192,169204,1,0,0:2:0:0:
256,192,169289,1,8,0:2:0:0:
256,192,169374,1,0,0:2:0:0:
256,192,169459,1,0,0:2:0:0:
256,192,169543,1,0,0:2:0:0:
256,192,169628,1,8,0:2:0:0:
256,192,169713,1,8,0:2:0:0:
256,192,169798,1,0,0:2:0:0:
256,192,169882,1,0,0:2:0:0:
256,192,169967,1,8,0:2:0:0:
256,192,170137,1,0,0:2:0:0:
256,192,170221,1,8,0:2:0:0:
256,192,170306,1,0,0:2:0:0:
256,192,170476,1,0,0:2:0:0:
256,192,170645,1,0,0:2:0:0:
256,192,170814,1,8,0:2:0:0:
256,192,170899,1,8,0:2:0:0:
256,192,170984,1,0,0:2:0:0:
256,192,171069,1,0,0:2:0:0:
256,192,171153,1,8,0:2:0:0:
256,192,171323,1,8,0:2:0:0:
256,192,171408,1,0,0:2:0:0:
256,224,171492,1,0,0:2:0:0:
256,192,171577,1,0,0:2:0:0:
256,192,171662,1,8,0:2:0:0:
256,192,171747,1,8,0:2:0:0:
256,224,171831,1,0,0:2:0:0:
256,192,171916,1,0,0:2:0:0:
256,192,172001,1,8,0:2:0:0:
256,224,172086,1,0,0:2:0:0:
256,192,172170,1,0,0:2:0:0:
256,224,172255,1,0,0:2:0:0:
256,192,172340,1,8,0:2:0:0:
256,224,172425,1,8,0:2:0:0:
256,224,172509,1,0,0:2:0:0:
256,224,172594,1,0,0:2:0:0:
256,192,172679,1,8,0:2:0:0:
256,224,172848,1,8,0:2:0:0:
256,224,173018,1,8,0:2:0:0:
256,224,173187,1,8,0:2:0:0:
256,224,173357,1,0,0:2:0:0:
256,224,173442,1,0,0:2:0:0:
256,224,173526,1,0,0:2:0:0:
256,224,173611,1,0,0:2:0:0:
256,224,173696,1,8,0:2:0:0:
256,224,173865,1,8,0:2:0:0:
256,224,173950,1,8,0:2:0:0:
256,224,174035,1,0,0:2:0:0:
256,224,174120,1,0,0:0:0:0:
256,224,174204,1,0,0:2:0:0:
256,224,174289,1,0,0:2:0:0:
256,224,174374,1,8,0:2:0:0:
256,224,174459,1,0,0:2:0:0:
256,224,174543,1,8,0:2:0:0:
256,224,174628,1,0,0:2:0:0:
256,224,174713,1,8,0:2:0:0:
256,224,174798,1,0,0:2:0:0:
256,224,174882,1,0,0:2:0:0:
256,224,174967,1,0,0:2:0:0:
256,224,175052,1,8,0:2:0:0:
256,224,175137,1,8,0:2:0:0:
256,224,175221,1,0,0:2:0:0:
256,224,175306,1,0,0:2:0:0:
256,224,175391,1,8,0:2:0:0:
256,224,175560,1,0,0:0:0:0:
256,224,175730,1,8,0:2:0:0:
256,224,175814,1,0,0:2:0:0:
256,224,175899,1,8,0:2:0:0:
256,224,175984,1,8,0:2:0:0:
256,224,176069,1,0,0:2:0:0:
256,224,176238,1,8,0:2:0:0:
256,224,176408,1,0,0:2:0:0:
256,192,176577,1,0,0:0:0:0:
256,224,176747,1,8,0:2:0:0:
256,224,176831,1,0,0:2:0:0:
256,224,176916,1,0,0:2:0:0:
256,224,177086,1,8,0:2:0:0:
256,224,177170,1,8,0:2:0:0:
256,224,177255,1,0,0:2:0:0:
256,224,177425,1,0,0:2:0:0:
256,224,177509,1,0,0:2:0:0:
256,224,177594,1,8,0:2:0:0:
256,224,177764,1,8,0:2:0:0:
256,224,177848,1,0,0:2:0:0:
256,224,177933,1,8,0:2:0:0:
256,224,178103,1,8,0:2:0:0:
256,224,178187,1,8,0:2:0:0:
256,224,178272,1,0,0:2:0:0:
256,224,178357,1,0,0:2:0:0:
256,224,178442,1,8,0:2:0:0:
256,224,178526,1,0,0:2:0:0:
256,224,178611,1,8,0:2:0:0:
256,224,178781,1,0,0:2:0:0:
256,224,178950,1,8,0:2:0:0:
256,224,179035,1,0,0:2:0:0:
256,224,179120,1,8,0:2:0:0:
256,224,179289,1,8,0:2:0:0:
256,192,179459,1,8,0:2:0:0:
256,192,179543,1,0,0:0:0:0:
256,192,179628,1,0,0:2:0:0:
256,192,179713,1,0,0:2:0:0:
256,192,179798,1,8,0:2:0:0:
256,192,179882,1,0,0:2:0:0:
256,192,179967,1,8,0:2:0:0:
256,192,180052,1,0,0:2:0:0:
256,192,180137,1,8,0:2:0:0:
256,192,180221,1,8,0:2:0:0:
256,192,180306,1,0,0:2:0:0:
256,192,180391,1,0,0:2:0:0:
256,192,180476,1,8,0:2:0:0:
256,192,180560,1,0,0:2:0:0:
256,192,180645,1,8,0:2:0:0:
256,192,180730,1,0,0:2:0:0:
256,192,180814,1,8,0:2:0:0:
256,192,180984,1,8,0:2:0:0:
256,192,181069,1,8,0:2:0:0:
256,192,181154,1,0,0:2:0:0:
256,192,181323,1,8,0:2:0:0:
256,192,181492,1,0,0:2:0:0:
256,192,181662,1,8,0:2:0:0:
256,192,181831,1,0,0:2:0:0:
256,192,182001,1,0,0:2:0:0:
256,192,182170,1,8,0:2:0:0:
256,192,182255,1,0,0:2:0:0:
256,192,182340,1,0,0:2:0:0:
256,192,182425,1,0,0:2:0:0:
256,192,182509,1,8,0:2:0:0:
256,192,182594,1,8,0:2:0:0:
256,192,182679,1,0,0:2:0:0:
256,192,182764,1,0,0:2:0:0:
256,192,182848,1,8,0:2:0:0:
256,192,182933,1,0,0:2:0:0:
256,192,183018,1,0,0:2:0:0:
256,192,183103,1,0,0:2:0:0:
256,192,183187,1,8,0:2:0:0:
256,192,183272,1,8,0:2:0:0:
256,192,183357,1,0,0:2:0:0:
256,192,183442,1,0,0:2:0:0:
256,192,183526,1,8,0:2:0:0:
256,192,183611,1,0,0:2:0:0:
256,192,183696,1,0,0:2:0:0:
256,192,183781,1,8,0:2:0:0:
256,192,183865,1,0,0:2:0:0:
256,192,184035,1,0,0:2:0:0:
256,192,184120,1,0,0:0:0:0:
256,192,184204,1,8,0:2:0:0:
256,192,184374,1,0,0:2:0:0:
256,192,184459,1,0,0:2:0:0:
256,192,184543,1,8,0:2:0:0:
256,192,184628,1,8,0:2:0:0:
256,192,184713,1,0,0:2:0:0:
320,160,184882,5,0,0:0:0:0:
320,160,184967,1,0,0:0:0:0:
320,160,185052,1,8,0:0:0:0:
320,160,185137,1,0,0:0:0:0:
320,160,185221,1,8,0:0:0:0:
192,128,185306,1,8,0:0:0:0:
192,224,185391,1,8,0:0:0:0:
224,192,185476,1,0,0:0:0:0:
224,192,185560,1,8,0:0:0:0:
256,128,185645,1,0,0:0:0:0:
256,128,185730,1,0,0:0:0:0:
256,128,185814,1,8,0:0:0:0:
256,128,185899,1,0,0:0:0:0:
256,128,185984,1,0,0:0:0:0:
256,160,186069,1,8,0:0:0:0:
192,160,186153,1,0,0:0:0:0:
256,160,186238,1,8,0:0:0:0:
128,128,186323,1,8,0:0:0:0:
192,128,186408,1,0,0:0:0:0:
192,128,186492,1,8,0:0:0:0:
192,128,186577,1,0,0:0:0:0:
128,128,186662,1,0,0:0:0:0:
224,224,186747,1,8,0:0:0:0:
416,128,186831,1,0,0:0:0:0:
224,224,186916,1,8,0:0:0:0:
224,224,187001,1,8,0:0:0:0:
224,224,187086,1,0,0:0:0:0:
288,64,187170,1,0,0:0:0:0:
224,224,187255,1,8,0:0:0:0:
192,160,187340,1,8,0:0:0:0:
192,160,187425,1,0,0:0:0:0:
416,160,187594,1,4,0:0:0:0:
352,160,187764,1,0,0:0:0:0:
352,160,187848,1,0,0:0:0:0:
352,160,187933,1,8,0:0:0:0:
352,160,188103,1,0,0:0:0:0:
352,160,188272,1,8,0:0:0:0:
160,128,188357,1,0,0:0:0:0:
224,128,188442,1,8,0:0:0:0:
256,128,188526,1,8,0:0:0:0:
256,128,188611,1,0,0:0:0:0:
160,128,188781,1,8,0:0:0:0:
160,128,188950,1,0,0:0:0:0:
160,128,189035,1,0,0:0:0:0:
160,128,189120,1,0,0:0:0:0:
160,128,189204,1,8,0:0:0:0:
160,128,189289,1,0,0:0:0:0:
160,128,189374,1,0,0:0:0:0:
160,128,189459,1,8,0:0:0:0:
256,160,189543,1,0,0:0:0:0:
256,160,189628,1,8,0:0:0:0:
256,160,189713,1,8,0:0:0:0:
256,160,189798,1,0,0:0:0:0:
256,160,189882,1,0,0:0:0:0:
256,160,189967,1,8,0:0:0:0:
224,160,190137,1,0,0:0:0:0:
224,224,190306,1,8,0:0:0:0:
256,224,190391,1,8,0:0:0:0:
256,224,190476,1,0,0:0:0:0:
256,224,190560,1,8,0:0:0:0:
256,224,190645,1,0,0:0:0:0:
192,160,190730,1,0,0:0:0:0:
192,160,190814,1,8,0:0:0:0:
224,128,190899,1,0,0:0:0:0:
224,96,190984,1,8,0:0:0:0:
224,96,191069,1,8,0:0:0:0:
224,96,191153,1,0,0:0:0:0:
160,128,191238,1,0,0:0:0:0:
160,128,191323,1,8,0:0:0:0:
160,128,191408,1,8,0:0:0:0:
160,128,191492,1,0,0:0:0:0:
256,128,191577,1,0,0:0:0:0:
256,128,191662,1,8,0:0:0:0:
256,128,191747,1,8,0:0:0:0:
256,128,191831,1,0,0:0:0:0:
256,128,191916,1,8,0:0:0:0:
256,128,192001,1,0,0:0:0:0:
256,128,192086,1,0,0:0:0:0:
256,128,192170,1,8,0:0:0:0:
256,128,192255,1,0,0:0:0:0:
256,128,192340,1,8,0:0:0:0:
256,160,192425,1,8,0:0:0:0:
256,160,192509,1,8,0:0:0:0:
224,128,192594,1,0,0:0:0:0:
224,128,192679,1,8,0:0:0:0:
256,64,192764,1,8,0:0:0:0:
224,160,192848,1,0,0:0:0:0:
224,160,193018,1,4,0:0:0:0:
192,128,193187,1,0,0:0:0:0:
192,128,193272,1,0,0:0:0:0:
192,128,193357,1,8,0:0:0:0:
192,128,193526,1,0,0:0:0:0:
192,128,193696,1,4,0:0:0:0:
224,128,193865,1,0,0:0:0:0:
224,128,193950,1,0,0:0:0:0:
224,128,194035,1,8,0:0:0:0:
224,96,194204,1,0,0:0:0:0:
256,64,194374,1,8,0:0:0:0:
256,64,194459,1,0,0:0:0:0:
256,64,194543,1,8,0:0:0:0:
256,64,194628,1,8,0:0:0:0:
256,64,194713,1,0,0:0:0:0:
256,64,194798,1,0,0:0:0:0:
256,64,194882,1,8,0:0:0:0:
256,64,194967,1,0,0:0:0:0:
256,64,195052,1,8,0:0:0:0:
256,64,195137,1,8,0:0:0:0:
256,64,195221,1,0,0:0:0:0:
256,64,195306,1,0,0:0:0:0:
256,64,195391,1,8,0:0:0:0:
256,128,195560,1,8,0:0:0:0:
320,160,195730,1,0,0:0:0:0:
320,160,195815,1,0,0:0:0:0:
320,160,195900,1,0,0:0:0:0:
320,160,195985,1,0,0:0:0:0:
320,160,196069,1,8,0:0:0:0:
192,128,196154,1,8,0:0:0:0:
192,224,196239,1,8,0:0:0:0:
224,192,196324,1,0,0:0:0:0:
224,192,196408,1,8,0:0:0:0:
256,128,196493,1,0,0:0:0:0:
256,128,196578,1,0,0:0:0:0:
256,128,196662,1,8,0:0:0:0:
256,128,196747,1,0,0:0:0:0:
256,128,196832,1,0,0:0:0:0:
256,160,196917,1,8,0:0:0:0:
192,160,197001,1,0,0:0:0:0:
256,160,197086,1,8,0:0:0:0:
128,128,197171,1,8,0:0:0:0:
192,128,197255,1,0,0:0:0:0:
192,128,197340,1,0,0:0:0:0:
192,128,197425,1,8,0:0:0:0:
128,128,197510,1,0,0:0:0:0:
224,224,197595,1,0,0:0:0:0:
416,128,197679,1,0,0:0:0:0:
224,224,197764,1,8,0:0:0:0:
224,224,197849,1,8,0:0:0:0:
224,224,197933,1,8,0:0:0:0:
288,64,198018,1,0,0:0:0:0:
224,224,198103,1,8,0:0:0:0:
192,160,198188,1,8,0:0:0:0:
192,160,198273,1,0,0:0:0:0:
416,160,198442,1,4,0:0:0:0:
352,160,198612,1,0,0:0:0:0:
352,160,198696,1,0,0:0:0:0:
352,160,198781,1,8,0:0:0:0:
352,160,198951,1,0,0:0:0:0:
352,160,199120,1,8,0:0:0:0:
160,128,199205,1,8,0:0:0:0:
224,128,199290,1,0,0:0:0:0:
256,128,199374,1,8,0:0:0:0:
256,128,199459,1,0,0:0:0:0:
160,128,199629,1,8,0:0:0:0:
160,128,199798,1,0,0:0:0:0:
160,128,199883,1,0,0:0:0:0:
160,128,199968,1,0,0:0:0:0:
160,128,200052,1,0,0:0:0:0:
160,128,200137,1,8,0:0:0:0:
160,128,200222,1,8,0:0:0:0:
160,128,200307,1,0,0:0:0:0:
256,160,200391,1,8,0:0:0:0:
256,160,200476,1,0,0:0:0:0:
256,160,200561,1,0,0:0:0:0:
256,160,200646,1,8,0:0:0:0:
256,160,200730,1,0,0:0:0:0:
256,160,200815,1,0,0:0:0:0:
224,160,200985,1,0,0:0:0:0:
224,224,201154,1,8,0:0:0:0:
256,224,201239,1,8,0:0:0:0:
256,224,201324,1,0,0:0:0:0:
256,224,201408,1,8,0:0:0:0:
256,224,201492,1,0,0:0:0:0:
192,160,201578,1,0,0:0:0:0:
192,160,201662,1,8,0:0:0:0:
224,128,201747,1,0,0:0:0:0:
224,96,201832,1,8,0:0:0:0:
224,96,201916,1,8,0:0:0:0:
224,96,202001,1,0,0:0:0:0:
160,128,202086,1,8,0:0:0:0:
160,128,202171,1,8,0:0:0:0:
160,128,202256,1,0,0:0:0:0:
160,128,202340,1,8,0:0:0:0:
256,128,202425,1,0,0:0:0:0:
256,128,202510,1,8,0:0:0:0:
256,128,202595,1,8,0:0:0:0:
256,128,202679,1,0,0:0:0:0:
256,128,202764,1,0,0:0:0:0:
256,128,202848,1,8,0:0:0:0:
256,128,202934,1,0,0:0:0:0:
256,128,203018,1,0,0:0:0:0:
256,128,203103,1,0,0:0:0:0:
256,128,203188,1,8,0:0:0:0:
256,160,203273,1,8,0:0:0:0:
256,160,203357,1,8,0:0:0:0:
224,128,203442,1,0,0:0:0:0:
224,128,203527,1,8,0:0:0:0:
256,64,203612,1,8,0:0:0:0:
224,160,203696,1,0,0:0:0:0:
224,160,203866,1,4,0:0:0:0:
192,128,204035,1,0,0:0:0:0:
192,128,204120,1,0,0:0:0:0:
192,128,204205,1,8,0:0:0:0:
192,128,204374,1,0,0:0:0:0:
192,128,204544,1,4,0:0:0:0:
224,128,204713,1,0,0:0:0:0:
224,128,204798,1,0,0:0:0:0:
224,128,204883,1,8,0:0:0:0:
224,96,205052,1,0,0:0:0:0:
256,64,205222,1,8,0:0:0:0:
256,64,205307,1,0,0:0:0:0:
256,64,205391,1,8,0:0:0:0:
256,64,205476,1,8,0:0:0:0:
256,64,205561,1,0,0:0:0:0:
256,64,205646,1,0,0:0:0:0:
256,64,205730,1,8,0:0:0:0:
256,64,205815,1,0,0:0:0:0:
256,64,205900,1,8,0:0:0:0:
256,64,205985,1,8,0:0:0:0:
256,64,206069,1,8,0:0:0:0:
256,64,206154,1,0,0:0:0:0:
256,64,206239,1,8,0:0:0:0:
256,128,206408,1,8,0:0:0:0:
224,128,206577,1,4,0:0:0:0:
256,192,207255,5,2,0:0:0:0:
256,192,207933,1,2,0:0:0:0:
256,192,208611,1,0,0:0:0:0:
256,192,208950,1,0,0:0:0:0:
256,192,209289,1,0,0:0:0:0:
256,192,209967,1,2,0:0:0:0:
256,192,210645,1,2,0:0:0:0:
256,192,211323,1,0,0:0:0:0:
256,192,211492,1,0,0:0:0:0:
256,192,211662,1,0,0:0:0:0:
256,192,211747,1,0,0:0:0:0:
256,192,211831,1,0,0:0:0:0:
256,192,212001,1,4,0:0:0:0:
256,192,212170,1,2,0:0:0:0:
256,192,212340,1,0,0:0:0:0:
256,192,212425,1,0,0:0:0:0:
256,192,212509,1,2,0:0:0:0:
256,192,212679,1,0,0:0:0:0:
256,192,212848,1,2,0:0:0:0:
256,192,212933,1,2,0:0:0:0:
256,192,213018,1,0,0:0:0:0:
256,192,213103,1,0,0:0:0:0:
256,192,213187,1,2,0:0:0:0:
256,192,213357,1,0,0:0:0:0:
256,192,213526,1,2,0:0:0:0:
256,192,213696,1,0,0:0:0:0:
256,192,213781,1,0,0:0:0:0:
256,192,213865,1,2,0:0:0:0:
256,192,214035,1,0,0:0:0:0:
256,192,214204,1,2,0:0:0:0:
256,192,214289,1,0,0:0:0:0:
256,192,214374,1,2,0:0:0:0:
256,192,214459,1,2,0:0:0:0:
256,192,214543,1,0,0:0:0:0:
256,192,214713,1,0,0:0:0:0:
256,192,214882,1,2,0:0:0:0:
256,192,215052,1,0,0:0:0:0:
256,192,215137,1,0,0:0:0:0:
256,192,215221,1,2,0:0:0:0:
256,192,215391,1,0,0:0:0:0:
256,192,215560,1,2,0:0:0:0:
256,192,215645,1,2,0:0:0:0:
256,192,215730,1,0,0:0:0:0:
256,192,215814,1,0,0:0:0:0:
256,192,215899,1,2,0:0:0:0:
256,192,216069,1,0,0:0:0:0:
256,192,216238,1,2,0:0:0:0:
256,192,216408,1,0,0:0:0:0:
256,192,216492,1,0,0:0:0:0:
256,192,216577,1,2,0:0:0:0:
256,192,216747,1,0,0:0:0:0:
256,192,216916,1,2,0:0:0:0:
256,192,217001,1,0,0:0:0:0:
256,192,217086,1,2,0:0:0:0:
256,192,217170,1,2,0:0:0:0:
256,192,217255,1,0,0:0:0:0:
256,192,217425,1,4,0:0:0:0:
256,192,217594,1,4,0:0:0:0:
256,192,217764,1,2,0:0:0:0:
256,192,217848,1,2,0:0:0:0:
256,192,217933,1,2,0:0:0:0:
256,192,218103,1,4,0:0:0:0:
256,192,218272,1,4,0:0:0:0:
256,192,218442,1,2,0:0:0:0:
256,192,218781,1,4,0:0:0:0:
256,192,218950,1,4,0:0:0:0:
256,192,219120,1,2,0:0:0:0:
256,192,219204,1,2,0:0:0:0:
256,192,219289,1,2,0:0:0:0:
256,192,219459,1,4,0:0:0:0:
256,192,219628,1,4,0:0:0:0:
256,192,219798,1,2,0:0:0:0:
256,192,220137,1,4,0:0:0:0:
256,192,220306,1,4,0:0:0:0:
256,192,220476,1,2,0:0:0:0:
256,192,220560,1,0,0:0:0:0:
256,192,220645,1,2,0:0:0:0:
256,192,220814,1,4,0:0:0:0:
256,192,220984,1,4,0:0:0:0:
256,192,221153,1,2,0:0:0:0:
256,192,221238,1,2,0:0:0:0:
256,192,221323,1,2,0:0:0:0:
256,192,221492,1,4,0:0:0:0:
256,192,221662,1,4,0:0:0:0:
256,192,221831,1,2,0:0:0:0:
256,192,221916,1,0,0:0:0:0:
256,192,222001,1,2,0:0:0:0:
256,192,222086,1,0,0:0:0:0:
256,192,222170,1,0,0:0:0:0:
256,192,222340,1,0,0:0:0:0:
256,192,222509,1,2,0:0:0:0:
256,192,222594,1,0,0:0:0:0:
256,192,222679,1,0,0:0:0:0:
256,192,222848,5,12,0:2:0:0:
256,192,223018,1,0,0:2:0:0:
256,192,223103,1,0,0:2:0:0:
256,192,223187,1,8,0:2:0:0:
256,192,223357,1,0,0:2:0:0:
256,192,223526,1,8,0:2:0:0:
256,192,223696,1,0,0:2:0:0:
256,192,223781,1,0,0:2:0:0:
256,192,223865,1,8,0:2:0:0:
256,192,223950,1,8,0:2:0:0:
256,192,224035,1,0,0:2:0:0:
256,192,224120,1,0,0:2:0:0:
256,192,224204,1,8,0:2:0:0:
256,192,224374,1,0,0:2:0:0:
256,192,224459,1,0,0:2:0:0:
256,192,224543,1,8,0:2:0:0:
256,192,224713,1,0,0:2:0:0:
256,192,224882,1,8,0:2:0:0:
256,192,225052,1,0,0:2:0:0:
256,192,225137,1,0,0:2:0:0:
256,192,225221,1,8,0:2:0:0:
256,192,225306,1,8,0:2:0:0:
256,192,225391,1,0,0:2:0:0:
256,192,225476,1,0,0:2:0:0:
256,192,225560,1,8,0:2:0:0:
256,192,225730,1,0,0:2:0:0:
256,192,225899,1,8,0:2:0:0:
256,192,225984,1,8,0:2:0:0:
256,192,226069,1,0,0:2:0:0:
256,192,226238,1,8,0:2:0:0:
256,192,226408,1,0,0:2:0:0:
256,224,226492,1,0,0:0:0:0:
256,192,226577,1,8,0:2:0:0:
256,192,226662,1,0,0:2:0:0:
256,192,226747,1,0,0:2:0:0:
256,192,226916,1,8,0:2:0:0:
256,192,227086,1,0,0:2:0:0:
256,192,227255,1,8,0:2:0:0:
256,192,227340,1,8,0:2:0:0:
256,192,227425,1,0,0:2:0:0:
256,192,227594,1,8,0:2:0:0:
256,192,227764,1,0,0:2:0:0:
256,192,227848,1,0,0:0:0:0:
256,192,227933,1,8,0:2:0:0:
256,192,228018,1,0,0:2:0:0:
256,192,228103,1,0,0:2:0:0:
256,192,228272,5,12,0:2:0:0:
256,192,228442,1,0,0:2:0:0:
256,192,228611,1,12,0:2:0:0:
256,192,228781,1,0,0:2:0:0:
256,192,228950,1,12,0:2:0:0:
256,192,229120,1,0,0:2:0:0:
256,192,229289,1,12,0:2:0:0:
256,192,229459,1,0,0:2:0:0:
256,192,229628,1,12,0:2:0:0:
256,192,229798,1,0,0:2:0:0:
256,192,229967,1,12,0:2:0:0:
256,192,230137,1,0,0:2:0:0:
256,192,230306,1,12,0:2:0:0:
256,192,230476,1,0,0:2:0:0:
256,192,230645,1,12,0:2:0:0:
256,192,230814,1,0,0:2:0:0:
256,192,230984,5,8,0:2:0:0:
256,192,231069,1,0,0:2:0:0:
256,192,231153,1,8,0:2:0:0:
256,192,231238,1,8,0:2:0:0:
256,192,231323,5,0,0:2:0:0:
256,192,231408,1,0,0:2:0:0:
256,192,231492,1,8,0:2:0:0:
256,192,231577,1,0,0:2:0:0:
256,192,231662,5,8,0:2:0:0:
256,192,231747,1,8,0:2:0:0:
256,192,231831,1,8,0:2:0:0:
256,192,231916,1,0,0:2:0:0:
256,192,232001,5,8,0:2:0:0:
256,192,232086,1,8,0:2:0:0:
256,192,232170,1,8,0:2:0:0:
256,192,232255,1,0,0:2:0:0:
256,192,232340,5,8,0:2:0:0:
256,192,232425,1,0,0:2:0:0:
256,192,232509,1,8,0:2:0:0:
256,192,232594,1,8,0:2:0:0:
256,192,232679,5,0,0:2:0:0:
256,192,232764,1,0,0:2:0:0:
256,192,232848,1,8,0:2:0:0:
256,192,232933,1,0,0:2:0:0:
256,192,233018,1,8,0:2:0:0:
256,192,233103,1,8,0:2:0:0:
256,192,233187,1,0,0:2:0:0:
256,192,233272,1,8,0:2:0:0:
256,192,233357,1,8,0:2:0:0:
256,192,233442,1,0,0:2:0:0:
256,192,233526,1,8,0:2:0:0:
256,192,233611,1,0,0:2:0:0:
256,192,233696,1,8,0:2:0:0:
256,192,233865,2,4,L|256:288,12,48.9999985046387,4|4|4|4|4|4|4|4|4|4|4|4|4,0:2|0:2|0:2|0:2|0:2|0:2|0:2|0:2|0:2|0:2|0:2|0:2|0:2,0:2:0:0:
256,192,235052,1,12,0:2:0:0:
256,192,235899,1,12,0:2:0:0:
256,192,236069,1,12,0:2:0:0:
256,192,236238,1,12,0:2:0:0:
213,140,236408,5,4,0:0:0:0:
323,108,236747,1,8,0:0:0:0:
311,116,236916,1,0,0:0:0:0:
318,58,237001,1,0,0:0:0:0:
324,77,237086,1,0,0:0:0:0:
325,72,237255,1,0,0:0:0:0:
325,72,237425,1,8,0:0:0:0:
335,142,237764,1,0,0:0:0:0:
335,142,238103,1,8,0:0:0:0:
339,140,238272,1,0,0:0:0:0:
341,140,238442,1,0,0:0:0:0:
262,70,238526,1,0,0:0:0:0:
343,140,238611,1,0,0:0:0:0:
343,140,238781,1,8,0:0:0:0:
256,192,238950,1,0,0:0:0:0:
355,114,239120,1,0,0:0:0:0:
360,111,239459,1,8,0:0:0:0:
308,65,239628,1,0,0:0:0:0:
309,69,239713,1,0,0:0:0:0:
360,111,239798,1,0,0:0:0:0:
360,111,239967,1,0,0:0:0:0:
360,111,240137,1,8,0:0:0:0:
296,50,240306,1,0,0:0:0:0:
365,93,240476,1,0,0:0:0:0:
302,56,240560,1,8,0:0:0:0:
365,93,240645,1,0,0:0:0:0:
365,93,240814,1,8,0:0:0:0:
365,93,240984,1,8,0:0:0:0:
341,34,241069,1,8,0:0:0:0:
365,93,241153,1,0,0:0:0:0:
365,93,241408,1,8,0:0:0:0:
365,93,241492,1,8,0:0:0:0:
192,160,241662,1,0,0:0:0:0:
362,130,241831,1,0,0:0:0:0:
366,101,242170,1,8,0:0:0:0:
260,166,242340,1,0,0:0:0:0:
260,166,242425,1,0,0:0:0:0:
319,58,242509,1,0,0:0:0:0:
319,58,242679,1,0,0:0:0:0:
322,54,242848,1,8,0:0:0:0:
276,146,243187,1,0,0:0:0:0:
283,149,243526,1,8,0:0:0:0:
283,149,243696,1,0,0:0:0:0:
283,149,243865,1,0,0:0:0:0:
293,93,243950,1,0,0:0:0:0:
283,149,244035,1,0,0:0:0:0:
282,151,244204,1,8,0:0:0:0:
352,224,244374,1,0,0:0:0:0:
224,147,244543,1,0,0:0:0:0:
224,147,244882,1,8,0:0:0:0:
304,187,245052,1,0,0:0:0:0:
352,204,245137,1,0,0:0:0:0:
224,147,245221,1,0,0:0:0:0:
224,147,245391,1,0,0:0:0:0:
224,147,245560,1,8,0:0:0:0:
372,192,245730,1,0,0:0:0:0:
368,192,245814,1,0,0:0:0:0:
263,68,245899,1,8,0:0:0:0:
263,68,246069,1,0,0:0:0:0:
263,68,246238,1,12,0:0:0:0:
263,68,246408,1,0,0:0:0:0:
263,68,246577,1,12,0:0:0:0:
263,68,246747,1,0,0:0:0:0:
263,68,246916,1,12,0:0:0:0:
319,160,247086,1,0,0:0:0:0:
373,135,247255,1,4,0:0:0:0:
323,108,247594,1,8,0:0:0:0:
311,116,247764,1,0,0:0:0:0:
318,58,247848,1,0,0:0:0:0:
324,77,247933,1,0,0:0:0:0:
325,72,248102,1,0,0:0:0:0:
325,72,248272,1,8,0:0:0:0:
288,160,248442,1,0,0:0:0:0:
335,142,248611,1,0,0:0:0:0:
335,142,248950,1,8,0:0:0:0:
339,140,249119,1,0,0:0:0:0:
341,140,249289,1,0,0:0:0:0:
262,70,249374,1,0,0:0:0:0:
343,140,249458,1,0,0:0:0:0:
343,140,249628,1,8,0:0:0:0:
448,224,249798,1,8,0:0:0:0:
355,114,249882,1,0,0:0:0:0:
355,114,249967,1,0,0:0:0:0:
360,111,250306,1,8,0:0:0:0:
308,65,250475,1,0,0:0:0:0:
309,69,250560,1,0,0:0:0:0:
360,111,250645,1,8,0:0:0:0:
360,111,250814,1,0,0:0:0:0:
360,111,250984,1,8,0:0:0:0:
296,50,251153,1,0,0:0:0:0:
365,93,251323,1,0,0:0:0:0:
302,56,251407,1,0,0:0:0:0:
365,93,251492,1,0,0:0:0:0:
365,93,251661,1,8,0:0:0:0:
256,224,251747,1,0,0:0:0:0:
365,93,251831,1,8,0:0:0:0:
341,34,251916,1,0,0:0:0:0:
365,93,252000,1,0,0:0:0:0:
365,93,252255,1,8,0:0:0:0:
365,93,252339,1,8,0:0:0:0:
288,256,252509,1,0,0:0:0:0:
362,130,252678,1,0,0:0:0:0:
366,101,253017,1,8,0:0:0:0:
260,166,253187,1,0,0:0:0:0:
260,166,253272,1,0,0:0:0:0:
319,58,253356,1,0,0:0:0:0:
319,58,253526,1,0,0:0:0:0:
322,54,253695,1,8,0:0:0:0:
96,160,253865,1,0,0:0:0:0:
276,146,254034,1,0,0:0:0:0:
283,149,254373,1,8,0:0:0:0:
283,149,254543,1,0,0:0:0:0:
283,149,254712,1,0,0:0:0:0:
293,93,254797,1,0,0:0:0:0:
283,149,254882,1,8,0:0:0:0:
282,151,255051,1,8,0:0:0:0:
192,160,255221,1,8,0:0:0:0:
224,147,255390,1,0,0:0:0:0:
224,147,255729,1,8,0:0:0:0:
304,187,255899,1,0,0:0:0:0:
352,204,255984,1,0,0:0:0:0:
224,147,256068,1,0,0:0:0:0:
224,147,256238,1,0,0:0:0:0:
224,147,256407,1,8,0:0:0:0:
372,192,256577,1,0,0:0:0:0:
368,192,256661,1,0,0:0:0:0:
263,68,256746,1,8,0:0:0:0:
181,78,256831,1,8,0:0:0:0:
263,68,256916,1,0,0:0:0:0:
263,68,257085,1,12,0:0:0:0:
263,68,257255,1,0,0:0:0:0:
263,68,257424,1,12,0:0:0:0:
263,68,257594,1,0,0:0:0:0:
263,68,257764,1,8,0:0:0:0:
263,68,257848,1,8,0:0:0:0:
319,160,257933,1,0,0:0:0:0:
256,192,258103,5,6,0:0:0:0:
256,192,258272,1,0,0:0:0:0:
256,192,258441,1,2,0:0:0:0:
256,192,258526,1,0,0:0:0:0:
256,192,258611,1,2,0:0:0:0:
256,192,258780,1,0,0:0:0:0:
256,192,258950,1,2,0:0:0:0:
256,192,259034,1,0,0:0:0:0:
256,192,259119,1,0,0:0:0:0:
256,192,259289,1,2,0:0:0:0:
256,192,259458,1,0,0:0:0:0:
256,192,259628,1,0,0:0:0:0:
256,192,259712,1,0,0:0:0:0:
256,192,259797,1,2,0:0:0:0:
256,192,259967,1,0,0:0:0:0:
256,192,260137,1,2,0:0:0:0:
256,192,260306,1,2,0:0:0:0:
256,192,260391,1,2,0:0:0:0:
256,192,260476,1,0,0:0:0:0:
256,192,260645,1,0,0:0:0:0:
256,192,260814,1,2,0:0:0:0:
256,192,260899,1,0,0:0:0:0:
256,192,260984,1,2,0:0:0:0:
256,192,261069,1,0,0:0:0:0:
256,192,261153,1,2,0:0:0:0:
256,192,261323,1,0,0:0:0:0:
256,192,261492,1,0,0:0:0:0:
256,192,261662,1,0,0:0:0:0:
256,192,261747,1,0,0:0:0:0:
256,192,261831,1,2,0:0:0:0:
256,192,262001,1,0,0:0:0:0:
256,192,262170,1,0,0:0:0:0:
256,192,262340,1,2,0:0:0:0:
256,192,262425,1,0,0:0:0:0:
256,192,262509,1,2,0:0:0:0:
256,192,262679,1,2,0:0:0:0:
256,192,263018,1,0,0:0:0:0:
256,192,263187,1,0,0:0:0:0:
256,192,263357,1,0,0:0:0:0:
256,192,263526,1,6,0:0:0:0:
256,192,263865,1,0,0:0:0:0:
256,192,264204,1,2,0:0:0:0:
256,192,264459,1,0,0:0:0:0:
256,192,264713,1,0,0:0:0:0:
256,192,264882,1,6,0:0:0:0:
256,192,265108,1,0,0:0:0:0:
256,192,265391,1,2,0:0:0:0:
256,192,265560,1,0,0:0:0:0:
256,192,265899,1,2,0:0:0:0:
256,192,265984,1,2,0:0:0:0:
256,192,266069,1,0,0:0:0:0:
256,192,266238,1,4,0:0:0:0:
256,192,266408,1,2,0:0:0:0:
256,192,266492,1,0,0:0:0:0:
256,192,266577,1,2,0:0:0:0:
256,192,266747,1,2,0:0:0:0:
256,192,266916,1,4,0:0:0:0:
256,192,267086,1,2,0:0:0:0:
256,192,267170,1,0,0:0:0:0:
256,192,267255,1,0,0:0:0:0:
256,192,267425,1,2,0:0:0:0:
256,192,267594,1,4,0:0:0:0:
192,192,267764,2,0,L|224:192,8,29.8349985830307
256,192,268611,1,0,0:0:0:0:
256,192,268781,1,0,0:0:0:0:
256,192,268950,1,6,0:0:0:0:
256,192,269120,1,0,0:0:0:0:
256,192,269289,1,2,0:0:0:0:
256,192,269374,1,0,0:0:0:0:
256,192,269459,1,2,0:0:0:0:
256,192,269628,1,0,0:0:0:0:
256,192,269798,1,2,0:0:0:0:
256,192,269882,1,2,0:0:0:0:
256,192,269967,1,0,0:0:0:0:
256,192,270137,1,2,0:0:0:0:
256,192,270306,1,0,0:0:0:0:
256,192,270476,1,0,0:0:0:0:
256,192,270560,1,0,0:0:0:0:
256,192,270645,1,2,0:0:0:0:
256,192,270814,1,2,0:0:0:0:
256,192,270984,1,0,0:0:0:0:
256,192,271069,1,2,0:0:0:0:
256,192,271153,1,0,0:0:0:0:
256,192,271323,1,2,0:0:0:0:
256,192,271492,1,0,0:0:0:0:
256,192,271662,1,2,0:0:0:0:
256,192,271747,1,0,0:0:0:0:
256,192,271831,1,2,0:0:0:0:
256,192,271916,1,0,0:0:0:0:
256,192,272001,1,2,0:0:0:0:
256,192,272170,1,0,0:0:0:0:
192,192,272340,2,0,L|224:192,16,29.7500005674362
256,192,273865,1,0,0:0:0:0:
256,192,274035,1,0,0:0:0:0:
256,192,274204,1,0,0:0:0:0:
256,192,274374,1,6,0:0:0:0:
256,192,274713,1,0,0:0:0:0:
256,192,275052,1,2,0:0:0:0:
256,192,275306,1,0,0:0:0:0:
256,192,275560,1,0,0:0:0:0:
256,192,275730,1,6,0:0:0:0:
256,192,275956,1,0,0:0:0:0:
256,192,276238,1,2,0:0:0:0:
256,192,276408,1,0,0:0:0:0:
256,192,276747,1,2,0:0:0:0:
256,192,276831,1,0,0:0:0:0:
256,192,276916,1,0,0:0:0:0:
256,192,277086,1,4,0:0:0:0:
256,192,277255,1,2,0:0:0:0:
256,192,277425,1,2,0:0:0:0:
256,192,277509,1,2,0:0:0:0:
256,192,277594,1,0,0:0:0:0:
256,192,277764,1,4,0:0:0:0:
256,192,277933,1,2,0:0:0:0:
256,192,278103,1,2,0:0:0:0:
256,192,278187,1,0,0:0:0:0:
256,192,278272,1,2,0:0:0:0:
256,192,278442,1,4,0:0:0:0:
256,192,278781,1,0,0:0:0:0:
256,192,279120,1,2,0:0:0:0:
256,192,279289,1,2,0:0:0:0:
256,192,279459,1,2,0:0:0:0:
256,192,279798,5,12,0:2:0:0:
256,192,279967,1,0,0:2:0:0:
256,192,280137,1,8,0:2:0:0:
256,192,280221,1,0,0:2:0:0:
256,192,280306,1,8,0:2:0:0:
256,192,280476,1,0,0:2:0:0:
256,192,280645,1,0,0:2:0:0:
256,192,280814,1,8,0:2:0:0:
256,192,280984,1,0,0:2:0:0:
256,192,281153,1,8,0:2:0:0:
256,192,281323,1,0,0:2:0:0:
256,192,281493,1,8,0:2:0:0:
256,192,281577,1,0,0:2:0:0:
256,192,281662,1,8,0:2:0:0:
256,192,281832,1,0,0:2:0:0:
256,192,282001,1,0,0:2:0:0:
256,192,282170,1,8,0:2:0:0:
256,192,282340,1,0,0:2:0:0:
256,192,282509,1,8,0:2:0:0:
256,192,282679,1,0,0:2:0:0:
256,192,282764,1,0,0:2:0:0:
256,192,282848,1,8,0:2:0:0:
256,192,283018,1,0,0:2:0:0:
256,192,283187,1,8,0:2:0:0:
256,192,283357,1,0,0:2:0:0:
256,192,283526,1,8,0:2:0:0:
256,192,283611,1,8,0:2:0:0:
256,192,283696,1,0,0:2:0:0:
256,192,283865,1,8,0:2:0:0:
256,192,284035,1,0,0:2:0:0:
256,192,284120,1,0,0:2:0:0:
256,192,284204,1,8,0:2:0:0:
256,192,284374,1,0,0:2:0:0:
256,192,284543,1,8,0:2:0:0:
256,192,284713,1,0,0:2:0:0:
256,192,284882,1,8,0:2:0:0:
256,192,284967,1,8,0:2:0:0:
256,192,285052,1,0,0:2:0:0:
256,192,285221,1,8,0:2:0:0:
256,192,285306,1,0,0:2:0:0:
256,192,285391,1,0,0:2:0:0:
256,192,285476,1,0,0:2:0:0:
256,192,285560,1,8,0:2:0:0:
256,192,285730,1,0,0:2:0:0:
256,192,285899,1,8,0:2:0:0:
256,192,286069,1,0,0:2:0:0:
256,192,286238,1,8,0:2:0:0:
256,192,286408,1,0,0:2:0:0:
256,192,286577,1,8,0:2:0:0:
256,192,286662,1,0,0:2:0:0:
256,192,286747,1,8,0:2:0:0:
256,192,286832,1,8,0:2:0:0:
256,192,286916,1,8,0:2:0:0:
256,192,287086,1,0,0:2:0:0:
256,192,287255,1,8,0:2:0:0:
256,192,287425,1,0,0:2:0:0:
256,192,287594,1,8,0:2:0:0:
256,192,287764,1,0,0:2:0:0:
256,192,287933,1,8,0:2:0:0:
256,192,288018,1,0,0:2:0:0:
256,192,288103,1,0,0:2:0:0:
256,192,288187,1,0,0:2:0:0:
256,192,288272,1,8,0:2:0:0:
256,192,288442,1,8,0:2:0:0:
256,192,288526,1,0,0:2:0:0:
256,192,288611,1,8,0:2:0:0:
256,192,288696,1,8,0:2:0:0:
256,192,288781,1,0,0:2:0:0:
256,192,288950,1,8,0:2:0:0:
256,192,289120,1,0,0:2:0:0:
256,192,289289,1,8,0:2:0:0:
256,192,289374,1,0,0:2:0:0:
256,192,289459,1,8,0:2:0:0:
256,192,289543,1,8,0:2:0:0:
256,192,289628,1,8,0:2:0:0:
256,192,289798,1,8,0:2:0:0:
256,192,289882,1,0,0:2:0:0:
256,192,289967,1,8,0:2:0:0:
256,192,290052,1,8,0:2:0:0:
256,192,290137,1,0,0:2:0:0:
256,192,290306,1,8,0:2:0:0:
256,192,290476,1,0,0:2:0:0:
256,192,290645,1,12,0:2:0:0:
256,192,290814,1,8,0:2:0:0:
256,192,290899,1,8,0:2:0:0:
256,192,290984,1,0,0:2:0:0:
256,192,291153,1,8,0:2:0:0:
256,192,291238,1,8,0:2:0:0:
256,192,291323,1,0,0:2:0:0:
256,192,291492,1,8,0:2:0:0:
256,192,291577,1,8,0:2:0:0:
256,192,291662,1,0,0:2:0:0:
224,192,291747,1,0,0:2:0:0:
256,192,291831,1,8,0:2:0:0:
256,192,291916,1,8,0:2:0:0:
256,192,292001,1,0,0:2:0:0:
256,192,292170,1,8,0:2:0:0:
256,192,292255,1,0,0:2:0:0:
256,192,292340,1,0,0:2:0:0:
256,192,292509,1,8,0:2:0:0:
256,192,292594,1,0,0:2:0:0:
256,192,292679,1,0,0:2:0:0:
256,192,292848,1,8,0:2:0:0:
256,192,292933,1,0,0:2:0:0:
256,192,293018,1,0,0:2:0:0:
256,192,293103,1,0,0:2:0:0:
256,192,293187,1,8,0:2:0:0:
256,192,293272,1,8,0:2:0:0:
256,192,293357,1,0,0:2:0:0:
256,192,293526,1,8,0:2:0:0:
256,192,293696,1,0,0:2:0:0:
256,192,293781,1,0,0:2:0:0:
256,192,293865,1,8,0:2:0:0:
256,192,294035,1,0,0:2:0:0:
256,192,294120,1,0,0:2:0:0:
256,192,294204,1,8,0:2:0:0:
256,192,294374,1,0,0:2:0:0:
256,192,294459,1,0,0:2:0:0:
256,192,294543,1,8,0:2:0:0:
256,192,294628,1,8,0:2:0:0:
256,192,294713,1,0,0:2:0:0:
256,192,294798,1,0,0:2:0:0:
256,192,294882,1,8,0:2:0:0:
256,192,294967,1,8,0:2:0:0:
256,192,295052,1,0,0:2:0:0:
256,192,295221,1,8,0:2:0:0:
256,192,295306,1,8,0:2:0:0:
256,192,295391,1,0,0:2:0:0:
256,192,295560,1,8,0:2:0:0:
256,192,295730,1,8,0:2:0:0:
256,192,295814,1,0,0:2:0:0:
256,192,295899,1,8,0:2:0:0:
256,192,296069,1,8,0:2:0:0:
256,192,296238,1,0,0:2:0:0:
256,192,296408,1,8,0:2:0:0:
256,192,296492,1,8,0:2:0:0:
256,192,296577,1,0,0:2:0:0:
256,192,296747,1,8,0:2:0:0:
256,192,296916,1,0,0:2:0:0:
256,192,297086,1,8,0:2:0:0:
256,192,297255,1,8,0:2:0:0:
256,192,297340,1,8,0:2:0:0:
256,192,297425,1,8,0:2:0:0:
256,192,297594,1,0,0:2:0:0:
256,192,297764,1,8,0:2:0:0:
256,192,297848,1,8,0:2:0:0:
256,192,297933,1,0,0:2:0:0:
256,192,298103,1,8,0:2:0:0:
256,192,298272,1,0,0:2:0:0:
256,192,298442,1,8,0:2:0:0:
256,192,298611,1,8,0:2:0:0:
256,192,298781,1,8,0:2:0:0:
256,192,298865,1,0,0:2:0:0:
256,192,298950,1,0,0:2:0:0:
256,192,299035,1,0,0:2:0:0:
256,192,299120,1,8,0:2:0:0:
256,192,299289,1,0,0:2:0:0:
256,192,299374,1,0,0:2:0:0:
256,192,299459,1,8,0:2:0:0:
256,192,299628,1,0,0:2:0:0:
256,192,299798,1,8,0:2:0:0:
256,192,299882,1,8,0:2:0:0:
256,192,299967,1,0,0:2:0:0:
256,192,300137,1,8,0:2:0:0:
256,192,300221,1,0,0:2:0:0:
256,192,300306,1,8,0:2:0:0:
256,192,300391,1,0,0:2:0:0:
256,192,300476,1,8,0:2:0:0:
256,192,300645,1,0,0:2:0:0:
256,192,300730,1,0,0:2:0:0:
256,192,300815,1,8,0:2:0:0:
256,192,300984,1,0,0:2:0:0:
256,192,301154,1,8,0:2:0:0:
256,192,301238,1,8,0:2:0:0:
256,192,301323,1,0,0:2:0:0:
256,128,301492,5,0,0:0:0:0:
384,160,301662,1,0,0:0:0:0:
384,128,301831,1,8,0:0:0:0:
384,128,301916,1,0,0:0:0:0:
384,128,302001,1,0,0:0:0:0:
320,192,302170,1,0,0:0:0:0:
320,192,302340,1,8,0:0:0:0:
384,224,302509,1,8,0:0:0:0:
384,224,302594,1,8,0:0:0:0:
384,224,302679,1,0,0:0:0:0:
416,224,302848,1,0,0:0:0:0:
352,96,303018,1,0,0:0:0:0:
384,224,303187,1,8,0:0:0:0:
384,224,303272,1,8,0:0:0:0:
384,224,303357,1,8,0:0:0:0:
288,128,303526,1,0,0:0:0:0:
288,128,303696,1,8,0:0:0:0:
384,224,303865,1,8,0:0:0:0:
384,224,303950,1,8,0:0:0:0:
384,224,304035,1,0,0:0:0:0:
352,160,304204,1,0,0:0:0:0:
352,160,304374,1,0,0:0:0:0:
320,192,304543,1,8,0:0:0:0:
224,128,304628,1,0,0:0:0:0:
352,160,304713,1,0,0:0:0:0:
352,160,304882,1,0,0:0:0:0:
352,160,305052,1,8,0:0:0:0:
480,192,305221,1,8,0:0:0:0:
480,192,305306,1,8,0:0:0:0:
480,192,305391,1,0,0:0:0:0:
480,192,305560,1,0,0:0:0:0:
256,160,305730,1,8,0:0:0:0:
480,192,305814,1,8,0:0:0:0:
288,160,305899,1,8,0:0:0:0:
224,160,305984,1,0,0:0:0:0:
288,160,306069,1,8,0:0:0:0:
352,160,306238,1,8,0:0:0:0:
352,160,306323,1,0,0:0:0:0:
352,160,306408,1,8,0:0:0:0:
352,160,306492,1,8,0:0:0:0:
352,160,306577,1,0,0:0:0:0:
352,128,306662,1,0,0:0:0:0:
352,128,306747,1,8,0:0:0:0:
352,128,306831,1,8,0:0:0:0:
352,128,306916,1,0,0:0:0:0:
224,160,307086,1,8,0:0:0:0:
320,128,307255,1,0,0:0:0:0:
352,128,307425,1,0,0:0:0:0:
128,128,307509,1,0,0:0:0:0:
352,128,307594,1,8,0:0:0:0:
352,224,307679,1,8,0:0:0:0:
352,128,307764,1,0,0:0:0:0:
384,224,307933,1,8,0:0:0:0:
352,224,308103,1,0,0:0:0:0:
352,224,308272,1,8,0:0:0:0:
128,128,308357,1,8,0:0:0:0:
384,192,308442,1,0,0:0:0:0:
160,96,308611,1,8,0:0:0:0:
384,192,308781,1,0,0:0:0:0:
224,192,308865,1,0,0:0:0:0:
352,192,308950,1,8,0:0:0:0:
128,160,309035,1,8,0:0:0:0:
352,192,309120,1,0,0:0:0:0:
448,224,309289,1,8,0:0:0:0:
256,160,309459,1,8,0:0:0:0:
256,160,309628,1,0,0:0:0:0:
256,160,309713,1,0,0:0:0:0:
256,160,309798,1,8,0:0:0:0:
224,160,309882,1,0,0:0:0:0:
224,160,309967,1,8,0:0:0:0:
224,160,310052,1,8,0:0:0:0:
224,160,310137,1,0,0:0:0:0:
224,128,310221,1,8,0:0:0:0:
224,128,310306,1,0,0:0:0:0:
160,96,310391,1,0,0:0:0:0:
160,96,310476,1,8,0:0:0:0:
160,96,310560,1,0,0:0:0:0:
160,96,310645,1,8,0:0:0:0:
160,96,310730,1,8,0:0:0:0:
160,96,310814,1,0,0:0:0:0:
96,128,310899,1,0,0:0:0:0:
96,128,310984,1,8,0:0:0:0:
288,192,313018,5,0,0:0:0:0:
224,224,313187,1,0,0:0:0:0:
256,224,313272,1,0,0:0:0:0:
256,224,313357,1,0,0:0:0:0:
256,224,313442,1,0,0:0:0:0:
256,224,313526,1,0,0:0:0:0:
256,192,313696,5,0,0:0:0:0:
256,192,313781,1,0,0:0:0:0:
256,192,313865,1,0,0:0:0:0:
256,192,313950,1,0,0:0:0:0:
256,192,314035,1,2,0:0:0:0:
256,192,314120,1,2,0:0:0:0:
256,192,314204,1,2,0:0:0:0:
256,192,314289,1,2,0:0:0:0:
256,192,314374,1,0,0:0:0:0:
256,192,314459,1,0,0:0:0:0:
256,192,314543,1,0,0:0:0:0:
256,192,314628,1,0,0:0:0:0:
256,192,314713,1,2,0:0:0:0:
256,192,314798,1,0,0:0:0:0:
256,192,314882,1,0,0:0:0:0:
256,192,314967,1,0,0:0:0:0:
256,192,315052,1,2,0:0:0:0:
256,192,315137,1,2,0:0:0:0:
256,192,315221,1,0,0:0:0:0:
256,192,315306,1,0,0:0:0:0:
256,192,315391,1,2,0:0:0:0:
256,192,315476,1,0,0:0:0:0:
256,192,315560,1,0,0:0:0:0:
256,192,315645,1,0,0:0:0:0:
256,192,315730,1,2,0:0:0:0:
256,192,315814,1,0,0:0:0:0:
256,192,315899,1,2,0:0:0:0:
256,192,315984,1,0,0:0:0:0:
256,192,316069,1,2,0:0:0:0:
256,192,316153,1,0,0:0:0:0:
256,192,316238,1,2,0:0:0:0:
256,192,316323,1,0,0:0:0:0:
256,192,316408,1,2,0:0:0:0:
256,192,316492,1,2,0:0:0:0:
256,192,316577,1,0,0:0:0:0:
256,192,316662,1,0,0:0:0:0:
256,192,316747,1,2,0:0:0:0:
256,192,316831,1,2,0:0:0:0:
256,192,316916,1,2,0:0:0:0:
256,192,317001,1,0,0:0:0:0:
256,192,317086,1,2,0:0:0:0:
256,192,317170,1,0,0:0:0:0:
256,192,317255,1,0,0:0:0:0:
256,192,317340,1,0,0:0:0:0:
256,192,317425,1,2,0:0:0:0:
256,192,317509,1,2,0:0:0:0:
256,192,317594,1,0,0:0:0:0:
256,192,317679,1,0,0:0:0:0:
256,192,317764,1,2,0:0:0:0:
256,192,317848,1,0,0:0:0:0:
256,192,317933,1,0,0:0:0:0:
256,192,318018,1,0,0:0:0:0:
256,192,318103,1,2,0:0:0:0:
256,192,318187,1,2,0:0:0:0:
256,192,318272,1,0,0:0:0:0:
256,192,318357,1,2,0:0:0:0:
256,192,318442,1,0,0:0:0:0:
256,192,318611,1,0,0:0:0:0:
256,192,318696,1,0,0:0:0:0:
256,192,318781,1,2,0:0:0:0:
256,192,318950,1,2,0:0:0:0:
256,192,319120,1,0,0:0:0:0:
256,192,319204,1,0,0:0:0:0:
256,192,319289,1,0,0:0:0:0:
256,192,319374,1,0,0:0:0:0:
256,192,319459,1,2,0:0:0:0:
256,192,319543,1,2,0:0:0:0:
256,192,319628,1,0,0:0:0:0:
256,192,319713,1,0,0:0:0:0:
256,192,319798,1,2,0:0:0:0:
256,192,319882,1,0,0:0:0:0:
256,192,319967,1,0,0:0:0:0:
256,192,320052,1,0,0:0:0:0:
256,192,320137,1,2,0:0:0:0:
256,192,320221,1,2,0:0:0:0:
256,192,320306,1,0,0:0:0:0:
256,192,320391,1,0,0:0:0:0:
256,192,320476,1,2,0:0:0:0:
256,192,320560,1,2,0:0:0:0:
256,192,320645,1,0,0:0:0:0:
256,192,320730,1,0,0:0:0:0:
256,192,320814,1,2,0:0:0:0:
256,192,320899,1,0,0:0:0:0:
256,192,320984,1,0,0:0:0:0:
256,192,321069,1,0,0:0:0:0:
256,192,321153,1,2,0:0:0:0:
256,192,321238,1,0,0:0:0:0:
256,192,321323,1,2,0:0:0:0:
256,192,321408,1,0,0:0:0:0:
256,192,321492,1,2,0:0:0:0:
256,192,321577,1,2,0:0:0:0:
256,192,321662,1,0,0:0:0:0:
256,192,321747,1,0,0:0:0:0:
256,192,321831,1,2,0:0:0:0:
256,192,322001,1,2,0:0:0:0:
256,192,322086,1,2,0:0:0:0:
256,192,322170,1,0,0:0:0:0:
256,192,322340,1,0,0:0:0:0:
256,192,322425,1,2,0:0:0:0:
256,192,322509,1,0,0:0:0:0:
256,192,322679,1,2,0:0:0:0:
256,192,322764,1,0,0:0:0:0:
256,192,322848,1,2,0:0:0:0:
256,192,323018,1,0,0:0:0:0:
256,192,323187,1,2,0:0:0:0:
256,192,323272,1,0,0:0:0:0:
256,192,323357,1,2,0:0:0:0:
256,192,323442,1,0,0:0:0:0:
256,192,323526,1,2,0:0:0:0:
256,192,323611,1,2,0:0:0:0:
256,192,323696,1,0,0:0:0:0:
256,192,323781,1,2,0:0:0:0:
256,192,323865,1,2,0:0:0:0:
256,192,323950,1,0,0:0:0:0:
256,192,324035,1,2,0:0:0:0:
256,192,324120,1,0,0:0:0:0:
256,192,324204,1,2,0:0:0:0:
256,192,324374,1,0,0:0:0:0:
256,192,324543,1,0,0:0:0:0:
256,192,324628,1,0,0:0:0:0:
256,192,324713,1,0,0:0:0:0:
256,192,324798,1,0,0:0:0:0:
256,192,324882,1,2,0:0:0:0:
256,192,324967,1,2,0:0:0:0:
256,192,325052,1,0,0:0:0:0:
256,192,325137,1,0,0:0:0:0:
256,192,325221,1,2,0:0:0:0:
256,192,325306,1,2,0:0:0:0:
256,192,325391,1,0,0:0:0:0:
256,192,325476,1,0,0:0:0:0:
256,192,325560,1,2,0:0:0:0:
256,192,325645,1,0,0:0:0:0:
256,192,325730,1,0,0:0:0:0:
256,192,325814,1,0,0:0:0:0:
256,192,325899,1,2,0:0:0:0:
256,192,325984,1,2,0:0:0:0:
256,192,326069,1,0,0:0:0:0:
256,192,326153,1,0,0:0:0:0:
256,192,326238,1,2,0:0:0:0:
256,192,326323,1,0,0:0:0:0:
256,192,326408,1,0,0:0:0:0:
256,192,326492,1,0,0:0:0:0:
256,192,326577,1,2,0:0:0:0:
256,192,326662,1,0,0:0:0:0:
256,192,326747,1,2,0:0:0:0:
256,192,326831,1,0,0:0:0:0:
256,192,326916,1,2,0:0:0:0:
256,192,327001,1,0,0:0:0:0:
256,192,327086,1,2,0:0:0:0:
256,192,327170,1,0,0:0:0:0:
256,192,327255,1,2,0:0:0:0:
256,192,327340,1,2,0:0:0:0:
256,192,327425,1,0,0:0:0:0:
256,192,327509,1,0,0:0:0:0:
256,192,327594,1,2,0:0:0:0:
256,192,327679,1,2,0:0:0:0:
256,192,327764,1,2,0:0:0:0:
256,192,327848,1,0,0:0:0:0:
256,192,327933,1,2,0:0:0:0:
256,192,328018,1,0,0:0:0:0:
256,192,328103,1,0,0:0:0:0:
256,192,328187,1,0,0:0:0:0:
256,192,328272,1,2,0:0:0:0:
256,192,328357,1,2,0:0:0:0:
256,192,328442,1,0,0:0:0:0:
256,192,328526,1,2,0:0:0:0:
256,192,328611,1,0,0:0:0:0:
256,192,328696,1,0,0:0:0:0:
256,192,328781,1,2,0:0:0:0:
256,192,328865,1,0,0:0:0:0:
256,192,328950,1,2,0:0:0:0:
256,192,329035,1,2,0:0:0:0:
256,192,329120,1,0,0:0:0:0:
256,192,329204,1,2,0:0:0:0:
256,192,329289,1,0,0:0:0:0:
256,192,329459,1,0,0:0:0:0:
256,192,329544,1,0,0:0:0:0:
256,192,329629,1,2,0:0:0:0:
256,192,329798,1,2,0:0:0:0:
256,192,329968,1,0,0:0:0:0:
256,192,330052,1,0,0:0:0:0:
256,192,330137,1,0,0:0:0:0:
256,192,330221,1,0,0:0:0:0:
256,192,330306,1,2,0:0:0:0:
256,192,330391,1,0,0:0:0:0:
256,192,330476,1,0,0:0:0:0:
256,192,330560,1,0,0:0:0:0:
256,192,330645,1,2,0:0:0:0:
256,192,330730,1,2,0:0:0:0:
256,192,330814,1,0,0:0:0:0:
256,192,330899,1,0,0:0:0:0:
256,192,330984,1,2,0:0:0:0:
256,192,331069,1,0,0:0:0:0:
256,192,331153,1,2,0:0:0:0:
256,192,331238,1,2,0:0:0:0:
256,192,331323,1,0,0:0:0:0:
256,192,331408,1,0,0:0:0:0:
256,192,331492,1,0,0:0:0:0:
256,192,331577,1,0,0:0:0:0:
256,192,331662,1,2,0:0:0:0:
256,192,331747,1,0,0:0:0:0:
256,192,331831,1,0,0:0:0:0:
256,192,331916,1,0,0:0:0:0:
256,192,332001,1,2,0:0:0:0:
256,192,332086,1,0,0:0:0:0:
256,192,332170,1,2,0:0:0:0:
256,192,332255,1,0,0:0:0:0:
256,192,332340,1,2,0:0:0:0:
256,192,332425,1,2,0:0:0:0:
256,192,332509,1,0,0:0:0:0:
256,192,332594,1,0,0:0:0:0:
256,192,332679,1,2,0:0:0:0:
256,192,332848,1,0,0:0:0:0:
256,192,332933,1,0,0:0:0:0:
256,192,333018,1,2,0:0:0:0:
256,192,333187,1,2,0:0:0:0:
256,192,333272,1,2,0:0:0:0:
256,192,333357,1,0,0:0:0:0:
256,192,333526,1,2,0:0:0:0:
256,192,333611,1,0,0:0:0:0:
256,192,333696,1,2,0:0:0:0:
256,192,333865,1,0,0:0:0:0:
256,192,334035,1,0,0:0:0:0:
256,192,334120,1,0,0:0:0:0:
256,192,334204,1,0,0:0:0:0:
256,192,334289,1,0,0:0:0:0:
256,192,334374,1,2,0:0:0:0:
256,192,334543,1,0,0:0:0:0:
256,192,334628,1,0,0:0:0:0:
256,192,334713,1,0,0:0:0:0:
256,192,334882,1,2,0:0:0:0:
256,192,334967,1,2,0:0:0:0:
256,192,335052,1,0,0:0:0:0:
256,192,335137,1,0,0:0:0:0:
256,192,335221,1,2,0:0:0:0:
256,192,335306,1,2,0:0:0:0:
256,192,335391,5,4,0:2:0:0:
256,192,335560,1,8,0:2:0:0:
256,192,335645,1,8,0:2:0:0:
256,192,335730,1,0,0:2:0:0:
256,192,335814,1,0,0:0:0:0:
256,192,335899,1,8,0:2:0:0:
256,192,335984,1,0,0:0:0:0:
256,192,336069,1,0,0:2:0:0:
256,192,336238,1,8,0:2:0:0:
256,192,336323,1,8,0:2:0:0:
256,192,336408,1,0,0:2:0:0:
256,224,336492,1,0,0:0:0:0:
256,192,336577,1,8,0:2:0:0:
256,224,336662,1,0,0:0:0:0:
256,192,336747,1,8,0:2:0:0:
256,192,336916,1,8,0:2:0:0:
256,192,337001,1,8,0:2:0:0:
256,192,337086,1,8,0:2:0:0:
256,192,337170,1,0,0:0:0:0:
256,192,337255,1,8,0:2:0:0:
256,192,337340,1,8,0:2:0:0:
256,192,337425,1,0,0:2:0:0:
256,192,337594,1,8,0:2:0:0:
256,192,337679,1,8,0:2:0:0:
256,192,337764,1,0,0:2:0:0:
256,192,337933,1,0,0:0:0:0:
256,192,338103,1,8,0:2:0:0:
256,192,338187,1,8,0:2:0:0:
256,192,338272,1,0,0:2:0:0:
256,192,338357,1,0,0:2:0:0:
256,192,338442,1,8,0:2:0:0:
256,192,338526,1,0,0:2:0:0:
256,192,338611,1,8,0:2:0:0:
256,192,338696,1,8,0:2:0:0:
256,192,338781,1,8,0:2:0:0:
256,192,338865,1,0,0:2:0:0:
256,192,338950,1,8,0:2:0:0:
256,192,339035,1,8,0:2:0:0:
256,192,339120,1,0,0:2:0:0:
256,192,339204,1,0,0:2:0:0:
256,192,339289,1,8,0:2:0:0:
256,192,339459,1,8,0:2:0:0:
256,192,339543,1,0,0:2:0:0:
256,192,339628,1,0,0:2:0:0:
256,192,339713,1,8,0:2:0:0:
256,192,339798,1,0,0:2:0:0:
256,192,339882,1,0,0:2:0:0:
256,192,339967,1,8,0:2:0:0:
256,192,340052,1,0,0:2:0:0:
256,192,340137,1,8,0:2:0:0:
256,192,340221,1,8,0:2:0:0:
256,192,340306,1,8,0:2:0:0:
256,192,340391,1,0,0:2:0:0:
256,192,340476,1,8,0:2:0:0:
256,192,340560,1,0,0:2:0:0:
256,192,340645,1,8,0:2:0:0:
256,192,340730,1,0,0:2:0:0:
256,192,340814,1,8,0:2:0:0:
256,192,340984,1,0,0:2:0:0:
256,192,341069,1,8,0:2:0:0:
256,192,341153,1,8,0:2:0:0:
256,192,341238,1,0,0:0:0:0:
256,192,341323,1,8,0:2:0:0:
256,192,341408,1,0,0:0:0:0:
256,192,341492,1,8,0:2:0:0:
256,192,341662,1,8,0:2:0:0:
256,192,341747,1,0,0:2:0:0:
256,192,341831,1,0,0:2:0:0:
256,192,341916,1,0,0:2:0:0:
256,192,342001,1,8,0:2:0:0:
256,192,342086,1,0,0:2:0:0:
256,192,342170,1,8,0:2:0:0:
256,192,342340,1,8,0:2:0:0:
256,192,342425,1,8,0:2:0:0:
256,192,342509,1,0,0:2:0:0:
256,192,342679,1,8,0:2:0:0:
256,192,342848,1,0,0:2:0:0:
256,192,342933,1,8,0:2:0:0:
256,192,343018,1,8,0:2:0:0:
256,192,343103,1,0,0:2:0:0:
256,192,343187,1,8,0:2:0:0:
256,192,343272,1,0,0:2:0:0:
256,192,343357,1,8,0:2:0:0:
256,192,343442,1,0,0:2:0:0:
256,192,343526,1,8,0:2:0:0:
256,192,343611,1,0,0:2:0:0:
256,192,343696,1,8,0:2:0:0:
256,192,343781,1,0,0:2:0:0:
256,192,343865,1,8,0:2:0:0:
256,192,343950,1,8,0:2:0:0:
256,192,344035,1,0,0:2:0:0:
256,192,344120,1,8,0:2:0:0:
256,192,344204,1,8,0:2:0:0:
256,192,344289,1,0,0:2:0:0:
256,192,344374,1,8,0:2:0:0:
256,192,344459,1,0,0:2:0:0:
256,192,344543,1,8,0:2:0:0:
256,192,344628,1,8,0:2:0:0:
256,192,344713,1,0,0:2:0:0:
256,192,344798,1,8,0:2:0:0:
256,192,344882,1,8,0:2:0:0:
256,192,345052,1,8,0:2:0:0:
256,192,345221,1,8,0:2:0:0:
256,192,345391,1,0,0:2:0:0:
256,192,345560,1,0,0:2:0:0:
256,192,345730,1,0,0:2:0:0:
256,192,345814,1,8,0:2:0:0:
256,192,345899,1,8,0:2:0:0:
256,192,346069,1,8,0:2:0:0:
256,192,346153,1,8,0:2:0:0:
256,192,346238,1,0,0:2:0:0:
256,192,346323,1,0,0:2:0:0:
256,192,346408,1,8,0:2:0:0:
256,192,346492,1,0,0:2:0:0:
256,192,346577,1,8,0:2:0:0:
256,192,346662,1,0,0:2:0:0:
256,192,346747,1,0,0:2:0:0:
256,192,346831,1,8,0:2:0:0:
256,192,346916,1,8,0:2:0:0:
256,192,347001,1,0,0:2:0:0:
256,192,347086,1,0,0:2:0:0:
256,192,347170,1,8,0:2:0:0:
256,192,347255,1,8,0:2:0:0:
256,192,347340,1,0,0:2:0:0:
256,192,347425,1,8,0:2:0:0:
256,192,347509,1,8,0:2:0:0:
256,192,347594,1,8,0:2:0:0:
256,192,347679,1,0,0:2:0:0:
256,192,347764,1,8,0:2:0:0:
256,192,347848,1,0,0:2:0:0:
256,192,347933,1,8,0:2:0:0:
256,192,348018,1,0,0:2:0:0:
256,192,348103,1,8,0:2:0:0:
256,192,348187,1,0,0:2:0:0:
256,192,348272,1,8,0:2:0:0:
256,192,348357,1,0,0:2:0:0:
256,192,348442,1,0,0:2:0:0:
256,192,348526,1,8,0:2:0:0:
256,192,348611,1,8,0:2:0:0:
256,192,348696,1,0,0:2:0:0:
256,192,348781,1,8,0:2:0:0:
256,192,348865,1,0,0:2:0:0:
256,192,348950,1,8,0:2:0:0:
256,192,349035,1,0,0:2:0:0:
256,192,349120,1,8,0:2:0:0:
256,192,349204,1,8,0:2:0:0:
256,192,349289,1,8,0:2:0:0:
256,192,349374,1,0,0:2:0:0:
256,192,349459,1,8,0:2:0:0:
256,192,349543,1,8,0:2:0:0:
256,192,349628,1,8,0:2:0:0:
256,192,349713,1,0,0:2:0:0:
256,192,349798,1,8,0:2:0:0:
256,192,349882,1,8,0:2:0:0:
256,192,349967,1,8,0:2:0:0:
256,192,350052,1,0,0:2:0:0:
256,192,350137,1,8,0:2:0:0:
256,192,350221,1,0,0:2:0:0:
256,192,350306,1,8,0:2:0:0:
256,192,350476,1,0,0:2:0:0:
256,192,350560,1,0,0:2:0:0:
256,192,350645,1,0,0:2:0:0:
256,192,350814,1,8,0:2:0:0:
256,192,350984,1,8,0:2:0:0:
256,192,351069,1,8,0:2:0:0:
256,192,351153,1,8,0:2:0:0:
256,192,351238,1,8,0:2:0:0:
256,192,351323,1,0,0:2:0:0:
256,192,351408,1,0,0:2:0:0:
256,192,351492,1,0,0:2:0:0:
256,192,351577,1,0,0:2:0:0:
256,192,351662,1,8,0:2:0:0:
256,192,351747,1,0,0:2:0:0:
256,192,351831,1,0,0:2:0:0:
256,192,351916,1,8,0:2:0:0:
256,192,352001,1,0,0:2:0:0:
256,192,352086,1,0,0:2:0:0:
256,192,352170,1,8,0:2:0:0:
256,192,352255,1,0,0:2:0:0:
256,192,352340,1,8,0:2:0:0:
256,192,352425,1,0,0:2:0:0:
256,192,352509,1,0,0:2:0:0:
256,192,352594,1,8,0:2:0:0:
256,192,352679,1,0,0:2:0:0:
256,192,352764,1,0,0:2:0:0:
256,192,352848,1,8,0:2:0:0:
256,192,352933,1,0,0:2:0:0:
256,192,353018,1,8,0:2:0:0:
256,192,353103,1,0,0:2:0:0:
256,192,353187,1,8,0:2:0:0:
256,192,353272,1,0,0:2:0:0:
256,192,353357,1,8,0:2:0:0:
256,192,353442,1,8,0:2:0:0:
256,192,353526,1,0,0:2:0:0:
256,192,353611,1,0,0:2:0:0:
256,192,353696,1,8,0:2:0:0:
256,192,353781,1,0,0:2:0:0:
256,192,353865,1,8,0:2:0:0:
256,192,353950,1,0,0:2:0:0:
256,192,354035,1,8,0:2:0:0:
256,192,354120,1,0,0:2:0:0:
256,192,354204,1,0,0:2:0:0:
256,192,354289,1,0,0:2:0:0:
256,192,354374,1,8,0:2:0:0:
256,192,354459,1,8,0:2:0:0:
256,192,354543,1,0,0:2:0:0:
256,192,354628,1,8,0:2:0:0:
256,192,354713,1,8,0:2:0:0:
256,192,354798,1,0,0:2:0:0:
256,192,354882,1,8,0:2:0:0:
256,192,354967,1,0,0:2:0:0:
256,192,355052,1,8,0:2:0:0:
256,192,355137,1,0,0:2:0:0:
256,192,355221,1,0,0:2:0:0:
256,192,355306,1,8,0:2:0:0:
256,192,355391,1,8,0:2:0:0:
256,192,355476,1,0,0:2:0:0:
256,192,355560,1,8,0:2:0:0:
256,192,355645,1,8,0:2:0:0:
256,192,355730,1,8,0:2:0:0:
256,192,355814,1,0,0:2:0:0:
256,192,355899,1,8,0:2:0:0:
256,192,355984,1,0,0:2:0:0:
256,192,356069,1,8,0:2:0:0:
256,192,356153,1,0,0:2:0:0:
256,192,356238,1,8,0:2:0:0:
256,192,356323,1,0,0:2:0:0:
256,192,356408,1,8,0:2:0:0:
256,192,356492,1,0,0:0:0:0:
256,192,356577,1,0,0:2:0:0:
256,192,356662,1,0,0:2:0:0:
256,192,356747,1,8,0:2:0:0:
256,192,356916,1,8,0:2:0:0:
384,128,357086,5,4,0:0:0:0:
320,64,357764,1,8,0:0:0:0:
320,128,358442,1,8,0:0:0:0:
320,128,359120,1,0,0:0:0:0:
320,128,359798,1,0,0:0:0:0:
128,96,359967,1,8,0:0:0:0:
352,96,360137,1,8,0:0:0:0:
288,96,360306,1,0,0:0:0:0:
288,96,360476,1,8,0:0:0:0:
320,64,360814,1,0,0:0:0:0:
288,128,361153,1,8,0:0:0:0:
288,128,361323,1,0,0:0:0:0:
288,128,361492,1,8,0:0:0:0:
288,128,361662,1,8,0:0:0:0:
288,128,361831,1,0,0:0:0:0:
320,96,362001,1,8,0:0:0:0:
192,128,362170,1,8,0:0:0:0:
256,192,362509,12,8,363696,0:0:0:0:
416,96,363865,5,4,0:0:0:0:
