osu file format v14

[General]
AudioFilename: audio.mp3
AudioLeadIn: 0
PreviewTime: 47529
Countdown: 1
SampleSet: Normal
StackLeniency: 0.4
Mode: 0
LetterboxInBreaks: 0
WidescreenStoryboard: 0

[Editor]
DistanceSpacing: 3
BeatDivisor: 4
GridSize: 32
TimelineZoom: 1.5

[Metadata]
Title:Fuuka Kyoku ~ Native Faith
TitleUnicode:Fuuka Kyoku ~ Native Faith
Artist:dBu
ArtistUnicode:dBu
Creator:Luna-
Version:asdf
Source:東方Project
Tags:Moriya Suwako touhou
BeatmapID:1395417
BeatmapSetID:658851

[Difficulty]
HPDrainRate:6
CircleSize:4
OverallDifficulty:8
ApproachRate:9
SliderMultiplier:1.9
SliderTickRate:1

[Events]
//Background and Video events
0,0,"cropped-1920-1080-217387.jpg",0,0
//Break Periods
//Storyboard Layer 0 (Background)
//Storyboard Layer 1 (Fail)
//Storyboard Layer 2 (Pass)
//Storyboard Layer 3 (Foreground)
//Storyboard Sound Samples

[TimingPoints]
175,348.837209302326,4,1,0,90,1,0
175,-142.857142857143,4,1,0,90,0,0
5756,-100,4,1,0,90,0,0
14128,-111.111111111111,4,1,0,90,0,0
15523,-100,4,1,0,90,0,0
16919,-111.111111111111,4,1,0,90,0,0
17616,-100,4,1,0,90,0,0
18314,-111.111111111111,4,1,0,90,0,0
26686,-100,4,1,0,90,0,0
28081,-111.111111111111,4,1,0,90,0,0
28779,-100,4,1,0,90,0,0
29477,-111.111111111111,4,1,0,90,0,0
36454,-100,4,1,0,90,0,0
47616,-90.9090909090909,4,1,0,90,0,0
69942,-125,4,1,0,90,0,0
81105,-100,4,1,0,90,0,0

[Colours]
Combo1 : 0,128,64
Combo2 : 255,255,128
Combo3 : 255,128,0
Combo4 : 0,255,64

[HitObjects]
448,320,175,6,0,P|417:313|317:302,1,132.999995941162
64,256,698,1,0,0:0:0:0:
64,256,785,1,0,0:0:0:0:
64,256,872,2,0,P|95:249|194:238,1,132.999995941162
448,160,1395,1,0,0:0:0:0:
448,160,1483,1,0,0:0:0:0:
448,160,1570,2,0,P|417:153|317:142,1,132.999995941162
64,96,2093,1,0,0:0:0:0:
64,96,2180,1,0,0:0:0:0:
64,96,2268,2,0,P|95:89|194:78,1,132.999995941162
316,301,2791,2,0,L|317:259,1,33.2499989852906
316,141,2965,5,0,0:0:0:0:
417,322,3140,1,0,0:0:0:0:
247,206,3314,1,0,0:0:0:0:
448,128,3488,1,0,0:0:0:0:
247,50,3663,5,0,0:0:0:0:
366,209,3837,1,0,0:0:0:0:
366,2,4012,1,0,0:0:0:0:
247,206,4186,1,0,0:0:0:0:
448,128,4361,5,0,0:0:0:0:
247,206,4535,1,0,0:0:0:0:
448,284,4710,1,0,0:0:0:0:
247,362,4884,1,0,0:0:0:0:
112,194,5058,1,0,0:0:0:0:
112,184,5145,1,0,0:0:0:0:
113,174,5232,1,0,0:0:0:0:
113,164,5319,1,0,0:0:0:0:
114,154,5406,1,0,0:0:0:0:
115,144,5494,1,0,0:0:0:0:
115,134,5581,1,0,0:0:0:0:
116,124,5668,1,0,0:0:0:0:
117,113,5756,5,0,0:0:0:0:
157,81,5843,1,0,0:0:0:0:
208,71,5930,1,0,0:0:0:0:
257,86,6017,1,0,0:0:0:0:
294,123,6104,1,0,0:0:0:0:
326,164,6192,1,0,0:0:0:0:
366,197,6279,1,0,0:0:0:0:
417,207,6366,1,0,0:0:0:0:
467,192,6454,5,0,0:0:0:0:
500,158,6541,1,0,0:0:0:0:
510,113,6628,1,0,0:0:0:0:
495,68,6715,1,0,0:0:0:0:
458,39,6802,1,0,0:0:0:0:
412,33,6890,1,0,0:0:0:0:
369,52,6977,1,0,0:0:0:0:
343,91,7064,1,0,0:0:0:0:
315,129,7151,5,0,0:0:0:0:
295,92,7238,1,0,0:0:0:0:
261,66,7325,1,0,0:0:0:0:
219,58,7412,1,0,0:0:0:0:
178,68,7499,1,0,0:0:0:0:
145,95,7587,1,0,0:0:0:0:
108,118,7675,1,0,0:0:0:0:
67,119,7762,1,0,0:0:0:0:
37,90,7849,5,0,0:0:0:0:
68,112,7936,1,0,0:0:0:0:
91,141,8023,1,0,0:0:0:0:
104,177,8110,1,0,0:0:0:0:
106,215,8197,1,0,0:0:0:0:
97,251,8285,1,0,0:0:0:0:
77,284,8372,1,0,0:0:0:0:
49,308,8459,1,0,0:0:0:0:
11,315,8547,5,0,0:0:0:0:
48,280,8634,1,0,0:0:0:0:
97,260,8721,1,0,0:0:0:0:
148,260,8808,1,0,0:0:0:0:
197,279,8895,1,0,0:0:0:0:
239,310,8983,1,0,0:0:0:0:
278,344,9070,1,0,0:0:0:0:
326,363,9157,1,0,0:0:0:0:
378,363,9244,5,0,0:0:0:0:
409,352,9331,1,0,0:0:0:0:
435,332,9418,1,0,0:0:0:0:
452,303,9505,1,0,0:0:0:0:
458,271,9592,1,0,0:0:0:0:
453,238,9680,1,0,0:0:0:0:
436,209,9767,1,0,0:0:0:0:
411,188,9854,1,0,0:0:0:0:
380,177,9942,5,0,0:0:0:0:
431,178,10029,1,0,0:0:0:0:
474,150,10116,1,0,0:0:0:0:
495,103,10203,1,0,0:0:0:0:
486,53,10290,1,0,0:0:0:0:
450,16,10378,1,0,0:0:0:0:
399,5,10465,1,0,0:0:0:0:
352,25,10552,1,0,0:0:0:0:
323,67,10640,5,0,0:0:0:0:
298,96,10727,1,0,0:0:0:0:
266,117,10814,1,0,0:0:0:0:
230,127,10901,1,0,0:0:0:0:
192,125,10988,1,0,0:0:0:0:
156,111,11076,1,0,0:0:0:0:
127,88,11163,1,0,0:0:0:0:
92,73,11250,1,0,0:0:0:0:
54,72,11337,1,0,0:0:0:0:
66,318,11686,5,0,0:0:0:0:
66,308,11773,1,0,0:0:0:0:
67,298,11860,1,0,0:0:0:0:
67,288,11947,1,0,0:0:0:0:
104,258,12035,1,0,0:0:0:0:
104,248,12122,1,0,0:0:0:0:
103,238,12209,1,0,0:0:0:0:
103,228,12296,1,0,0:0:0:0:
85,183,12384,5,0,0:0:0:0:
147,177,12471,1,0,0:0:0:0:
208,171,12558,1,0,0:0:0:0:
270,165,12645,1,0,0:0:0:0:
331,159,12732,1,0,0:0:0:0:
423,324,13081,5,0,0:0:0:0:
413,324,13168,1,0,0:0:0:0:
403,324,13255,1,0,0:0:0:0:
393,324,13342,1,0,0:0:0:0:
383,323,13430,2,0,B|374:266|374:266|392:221,1,95
254,108,13692,2,0,B|307:128|307:128|337:166,1,95
469,128,13954,2,0,B|447:140|447:140|420:145,1,47.5
279,244,14128,6,0,B|194:212|198:289|116:261,1,170.999994781494
42,222,14564,1,0,0:0:0:0:
42,222,14651,2,0,P|40:200|36:179,1,42.7499986953736
159,168,14826,2,0,P|142:251|135:336,1,170.999994781494
217,377,15262,1,0,0:0:0:0:
217,377,15349,2,0,P|238:378|259:382,1,42.7499986953736
441,315,15523,6,0,L|346:320,1,95
402,239,15785,2,0,L|307:244,1,95
316,165,16047,2,0,L|268:167,1,47.5
159,168,16221,1,0,0:0:0:0:
159,168,16570,5,0,0:0:0:0:
436,155,16744,1,0,0:0:0:0:
98,93,16919,6,0,P|63:167|98:242,1,170.999994781494
218,247,17355,1,0,0:0:0:0:
218,247,17442,2,0,L|215:199,1,42.7499986953736
321,73,17616,2,0,B|331:108|331:108|315:164,1,95
421,142,17878,2,0,B|414:177|414:177|376:222,1,95
471,258,18140,2,0,B|460:272|460:272|433:285,1,47.5,0|0,0:0|0:0,2:0:0:0:
465,365,18314,6,0,B|380:397|384:320|302:348,1,170.999994781494
88,339,18837,1,0,0:0:0:0:
51,317,18924,1,0,0:0:0:0:
36,278,19011,1,0,0:0:0:0:
48,238,19098,1,0,0:0:0:0:
81,213,19185,1,0,0:0:0:0:
123,214,19273,1,0,0:0:0:0:
156,240,19360,1,0,0:0:0:0:
193,261,19448,1,0,0:0:0:0:
235,260,19535,1,0,0:0:0:0:
275,245,19622,1,0,0:0:0:0:
312,224,19709,6,0,P|329:141|336:56,1,170.999994781494
64,96,20233,1,0,0:0:0:0:
64,96,20320,1,0,0:0:0:0:
64,96,20407,2,0,L|197:84,2,128.249996086121
448,192,21105,2,0,L|315:180,2,128.249996086121
64,288,21802,2,0,L|197:276,2,128.249996086121
0,224,22413,1,0,0:0:0:0:
0,223,22500,6,0,P|10:182|10:140,1,85.4999973907472
137,30,22849,2,0,P|136:72|147:113,1,85.4999973907472
191,276,23198,1,0,0:0:0:0:
226,252,23285,1,0,0:0:0:0:
268,255,23372,1,0,0:0:0:0:
300,281,23459,1,0,0:0:0:0:
334,308,23547,1,0,0:0:0:0:
369,331,23634,1,0,0:0:0:0:
411,328,23721,1,0,0:0:0:0:
443,302,23808,1,0,0:0:0:0:
458,262,23895,5,0,0:0:0:0:
241,335,24070,1,0,0:0:0:0:
458,262,24244,1,0,0:0:0:0:
241,189,24419,1,0,0:0:0:0:
458,116,24593,1,0,0:0:0:0:
241,43,24768,1,0,0:0:0:0:
243,77,24855,1,0,0:0:0:0:
245,111,24942,1,0,0:0:0:0:
64,320,25116,1,0,0:0:0:0:
66,285,25203,1,0,0:0:0:0:
68,251,25291,6,0,B|153:219|149:296|231:268,1,170.999994781494
314,244,25727,1,0,0:0:0:0:
314,244,25814,2,0,L|314:201,1,42.7499986953736
403,81,25988,2,0,L|406:251,1,170.999994781494
402,343,26425,1,0,0:0:0:0:
402,343,26512,2,0,L|360:343,1,42.7499986953736
225,359,26686,6,0,B|216:302|216:302|234:257,1,95
96,144,26948,2,0,B|149:164|149:164|179:202,1,95
311,164,27210,2,0,B|289:176|289:176|262:181,1,47.5
82,246,27384,1,0,0:0:0:0:
82,246,27733,5,0,0:0:0:0:
323,272,27907,1,0,0:0:0:0:
196,50,28081,6,0,B|149:82|149:82|172:193,1,170.999994781494
82,246,28518,1,0,0:0:0:0:
82,246,28605,2,0,L|68:201,1,42.7499986953736
277,175,28779,2,0,L|248:265,1,95
191,377,29041,2,0,L|162:286,1,95
349,247,29302,2,0,L|334:292,1,47.5
242,108,29477,6,0,B|327:76|323:153|405:125,1,170.999994781494
409,345,30000,5,0,0:0:0:0:
375,370,30087,1,0,0:0:0:0:
333,379,30174,1,0,0:0:0:0:
292,370,30261,1,0,0:0:0:0:
259,344,30348,1,0,0:0:0:0:
232,311,30436,1,0,0:0:0:0:
198,286,30523,1,0,0:0:0:0:
156,277,30610,1,0,0:0:0:0:
115,286,30697,1,0,0:0:0:0:
82,312,30784,1,0,0:0:0:0:
50,341,30872,6,0,P|67:257|74:172,1,170.999994781494
384,64,31395,1,0,0:0:0:0:
384,64,31483,1,0,0:0:0:0:
384,64,31570,2,0,B|369:128|369:128|392:193,2,128.249996086121
256,320,32268,2,0,B|271:256|271:256|248:191,2,128.249996086121
128,64,32965,2,0,B|143:128|143:128|120:193,2,128.249996086121
200,26,33576,1,0,0:0:0:0:
200,26,33663,6,0,L|221:116,1,85.4999973907472
370,270,34012,2,0,L|391:180,1,85.4999973907472
148,233,34361,1,0,0:0:0:0:
160,229,34448,1,0,0:0:0:0:
172,227,34535,1,0,0:0:0:0:
185,227,34622,1,0,0:0:0:0:
224,253,34709,1,0,0:0:0:0:
236,256,34796,1,0,0:0:0:0:
248,258,34883,1,0,0:0:0:0:
261,258,34970,1,0,0:0:0:0:
300,231,35058,6,0,L|295:185,3,42.7499986953736
389,186,35407,2,0,L|394:140,3,42.7499986953736
278,57,35756,2,0,L|219:60,1,42.7499986953736
393,143,35930,2,0,L|452:146,1,42.7499986953736
278,229,36105,2,0,L|219:232,1,42.7499986953736
393,315,36279,2,0,L|452:318,1,42.7499986953736
256,352,36454,5,0,0:0:0:0:
216,318,36541,1,0,0:0:0:0:
165,312,36628,1,0,0:0:0:0:
116,331,36715,1,0,0:0:0:0:
69,350,36802,1,0,0:0:0:0:
21,333,36889,1,0,0:0:0:0:
0,288,36976,1,0,0:0:0:0:
11,239,37063,1,0,0:0:0:0:
55,209,37151,5,0,0:0:0:0:
101,219,37238,1,0,0:0:0:0:
146,205,37325,1,0,0:0:0:0:
178,171,37412,1,0,0:0:0:0:
187,125,37499,1,0,0:0:0:0:
173,80,37587,1,0,0:0:0:0:
137,49,37674,1,0,0:0:0:0:
91,40,37761,1,0,0:0:0:0:
47,56,37849,5,0,0:0:0:0:
78,84,37936,1,0,0:0:0:0:
116,104,38023,1,0,0:0:0:0:
157,116,38110,1,0,0:0:0:0:
199,117,38197,1,0,0:0:0:0:
241,109,38285,1,0,0:0:0:0:
280,92,38372,1,0,0:0:0:0:
314,66,38459,1,0,0:0:0:0:
349,41,38547,5,0,0:0:0:0:
381,22,38634,1,0,0:0:0:0:
419,19,38721,1,0,0:0:0:0:
454,32,38808,1,0,0:0:0:0:
479,60,38895,1,0,0:0:0:0:
490,96,38983,1,0,0:0:0:0:
484,133,39070,1,0,0:0:0:0:
462,164,39157,1,0,0:0:0:0:
429,182,39244,5,0,0:0:0:0:
471,211,39331,1,0,0:0:0:0:
494,257,39418,1,0,0:0:0:0:
490,308,39505,1,0,0:0:0:0:
462,351,39592,1,0,0:0:0:0:
415,374,39680,1,0,0:0:0:0:
364,371,39767,1,0,0:0:0:0:
321,343,39854,1,0,0:0:0:0:
297,297,39942,5,0,0:0:0:0:
325,259,40029,1,0,0:0:0:0:
335,213,40116,1,0,0:0:0:0:
323,167,40203,1,0,0:0:0:0:
294,130,40290,1,0,0:0:0:0:
252,109,40378,1,0,0:0:0:0:
205,108,40465,1,0,0:0:0:0:
161,128,40552,1,0,0:0:0:0:
131,163,40639,5,0,0:0:0:0:
162,192,40727,1,0,0:0:0:0:
203,203,40814,1,0,0:0:0:0:
244,193,40901,1,0,0:0:0:0:
276,166,40988,1,0,0:0:0:0:
292,127,41076,1,0,0:0:0:0:
288,85,41163,1,0,0:0:0:0:
265,49,41250,1,0,0:0:0:0:
228,28,41337,5,0,0:0:0:0:
216,63,41424,1,0,0:0:0:0:
220,101,41511,1,0,0:0:0:0:
239,133,41598,1,0,0:0:0:0:
271,154,41685,1,0,0:0:0:0:
308,161,41773,1,0,0:0:0:0:
344,151,41860,1,0,0:0:0:0:
373,128,41947,1,0,0:0:0:0:
390,94,42034,1,0,0:0:0:0:
448,320,42384,5,0,0:0:0:0:
448,310,42471,1,0,0:0:0:0:
447,300,42558,1,0,0:0:0:0:
447,290,42645,1,0,0:0:0:0:
410,260,42733,1,0,0:0:0:0:
410,250,42820,1,0,0:0:0:0:
411,240,42907,1,0,0:0:0:0:
411,230,42994,1,0,0:0:0:0:
429,185,43082,5,0,0:0:0:0:
367,179,43169,1,0,0:0:0:0:
306,173,43256,1,0,0:0:0:0:
244,167,43343,1,0,0:0:0:0:
183,161,43430,1,0,0:0:0:0:
90,326,43779,5,0,0:0:0:0:
100,326,43866,1,0,0:0:0:0:
110,326,43953,1,0,0:0:0:0:
120,326,44040,1,0,0:0:0:0:
130,325,44128,2,0,B|139:268|139:268|125:233,1,95
259,110,44390,2,0,B|206:130|206:130|182:160,1,95
44,130,44652,2,0,B|66:142|66:142|88:146,1,47.5
234,246,44826,5,0,0:0:0:0:
280,223,44913,1,0,0:0:0:0:
331,228,45000,1,0,0:0:0:0:
372,260,45087,1,0,0:0:0:0:
422,275,45175,1,0,0:0:0:0:
470,259,45262,1,0,0:0:0:0:
503,220,45349,1,0,0:0:0:0:
511,169,45436,1,0,0:0:0:0:
494,119,45523,5,0,0:0:0:0:
465,135,45610,1,0,0:0:0:0:
432,138,45697,1,0,0:0:0:0:
400,128,45784,1,0,0:0:0:0:
375,107,45871,1,0,0:0:0:0:
354,81,45959,1,0,0:0:0:0:
323,67,46046,1,0,0:0:0:0:
291,61,46133,1,0,0:0:0:0:
257,63,46221,5,0,0:0:0:0:
258,115,46308,1,0,0:0:0:0:
259,167,46395,1,0,0:0:0:0:
261,219,46482,1,0,0:0:0:0:
290,249,46570,1,0,0:0:0:0:
238,250,46657,1,0,0:0:0:0:
186,251,46744,1,0,0:0:0:0:
134,253,46831,1,0,0:0:0:0:
81,253,46919,5,0,0:0:0:0:
108,199,47006,1,0,0:0:0:0:
163,174,47093,1,0,0:0:0:0:
222,188,47180,1,0,0:0:0:0:
274,222,47268,1,0,0:0:0:0:
333,236,47355,1,0,0:0:0:0:
388,211,47442,1,0,0:0:0:0:
416,157,47529,1,0,0:0:0:0:
409,94,47616,6,0,B|306:45|312:142|210:97,1,209.000006378174
126,48,48052,1,0,0:0:0:0:
126,48,48140,2,0,P|114:74|114:101,1,52.2500015945435
150,201,48314,2,0,P|108:116|23:157,1,209.000006378174
74,279,48750,1,0,0:0:0:0:
74,279,48837,2,0,L|141:277,1,52.2500015945435
296,279,49012,6,0,L|351:180,1,104.500003189087
209,96,49273,2,0,L|266:193,1,104.500003189087
410,112,49535,2,0,L|342:112,1,52.2500015945435
113,97,49709,1,0,0:0:0:0:
113,97,50058,1,0,0:0:0:0:
410,112,50233,1,0,0:0:0:0:
48,6,50407,6,0,P|2:104|50:189,1,209.000006378174
145,198,50843,1,0,0:0:0:0:
145,198,50930,2,0,L|212:196,1,52.2500015945435
258,119,51105,2,0,B|289:165|289:165|289:224,1,104.500003189087
157,341,51366,2,0,B|181:291|181:291|232:261,1,104.500003189087
351,307,51628,2,0,B|323:309|323:309|302:297,1,52.2500015945435
155,115,51802,6,0,P|218:36|319:40,1,209.000006378174
512,204,52326,1,0,0:0:0:0:
472,237,52413,1,0,0:0:0:0:
421,241,52500,1,0,0:0:0:0:
378,214,52587,1,0,0:0:0:0:
337,179,52675,1,0,0:0:0:0:
297,145,52762,1,0,0:0:0:0:
246,141,52849,1,0,0:0:0:0:
203,169,52936,1,0,0:0:0:0:
185,218,53023,1,0,0:0:0:0:
201,266,53111,1,0,0:0:0:0:
242,298,53198,6,0,P|137:297|33:302,1,209.000006378174
96,64,53721,1,0,0:0:0:0:
96,64,53808,1,0,0:0:0:0:
96,64,53895,2,0,P|101:142|101:220,2,156.750004783631
253,322,54593,2,0,L|255:165,2,156.750004783631
416,64,55291,2,0,P|410:142|410:220,2,156.750004783631
492,14,55901,1,0,0:0:0:0:
492,14,55988,6,0,P|510:64|508:119,1,104.500003189087
312,207,56337,2,0,P|311:155|328:106,1,104.500003189087
512,242,56686,1,0,0:0:0:0:
470,241,56773,1,0,0:0:0:0:
428,240,56860,1,0,0:0:0:0:
386,239,56947,1,0,0:0:0:0:
372,282,57035,1,0,0:0:0:0:
330,282,57122,1,0,0:0:0:0:
288,283,57209,1,0,0:0:0:0:
246,284,57296,1,0,0:0:0:0:
204,285,57384,5,0,0:0:0:0:
328,105,57558,1,0,0:0:0:0:
312,325,57733,1,0,0:0:0:0:
204,79,57907,1,0,0:0:0:0:
203,377,58081,1,0,0:0:0:0:
385,210,58256,1,0,0:0:0:0:
332,207,58343,1,0,0:0:0:0:
280,205,58430,1,0,0:0:0:0:
100,290,58605,1,0,0:0:0:0:
152,287,58692,1,0,0:0:0:0:
204,285,58779,6,0,P|203:204|194:68,1,209.000006378174
131,13,59215,1,0,0:0:0:0:
131,13,59302,2,0,P|93:10|68:14,1,52.2500015945435
289,90,59477,2,0,P|391:81|471:16,1,209.000006378174
506,131,59913,1,0,0:0:0:0:
506,131,60000,2,0,P|509:169|505:194,1,52.2500015945435
410,253,60175,6,0,L|296:255,1,104.500003189087
289,90,60436,2,0,L|347:185,1,104.500003189087
209,275,60698,2,0,L|240:214,1,52.2500015945435
335,5,60872,1,0,0:0:0:0:
335,5,61221,1,0,0:0:0:0:
209,275,61395,1,0,0:0:0:0:
3,113,61570,6,0,B|72:67|72:67|195:90,1,209.000006378174
287,65,62006,1,0,0:0:0:0:
287,65,62093,2,0,P|290:103|286:128,1,52.2500015945435
209,275,62268,2,0,P|201:216|213:162,1,104.500003189087
371,239,62529,2,0,P|378:297|367:352,1,104.500003189087
288,246,62791,2,0,P|285:208|289:183,1,52.2500015945435
475,232,62965,6,0,P|386:227|425:148,1,209.000006378174
508,340,63488,1,0,0:0:0:0:
460,360,63575,1,0,0:0:0:0:
408,357,63662,1,0,0:0:0:0:
362,333,63749,1,0,0:0:0:0:
320,301,63837,1,0,0:0:0:0:
272,281,63924,1,0,0:0:0:0:
220,283,64011,1,0,0:0:0:0:
175,307,64098,1,0,0:0:0:0:
142,348,64186,1,0,0:0:0:0:
90,358,64273,1,0,0:0:0:0:
38,341,64361,6,0,P|21:239|26:135,1,209.000006378174
256,64,64884,1,0,0:0:0:0:
256,64,64971,1,0,0:0:0:0:
256,64,65058,2,0,L|414:56,2,156.750004783631
256,192,65756,2,0,L|98:184,2,156.750004783631
256,320,66454,2,0,L|414:328,2,156.750004783631
186,269,67064,1,0,0:0:0:0:
186,269,67151,6,0,P|168:318|183:368,1,104.500003189087
329,238,67500,2,0,P|343:189|326:141,1,104.500003189087
53,149,67849,1,0,0:0:0:0:
79,147,67936,1,0,0:0:0:0:
105,146,68023,1,0,0:0:0:0:
131,144,68110,1,0,0:0:0:0:
162,183,68198,1,0,0:0:0:0:
188,185,68285,1,0,0:0:0:0:
214,186,68372,1,0,0:0:0:0:
240,188,68459,1,0,0:0:0:0:
266,189,68547,6,0,L|264:75,1,104.500003189087
260,4,68808,1,0,0:0:0:0:
260,4,68895,1,0,0:0:0:0:
368,220,69070,1,0,0:0:0:0:
367,167,69157,1,0,0:0:0:0:
366,115,69244,1,0,0:0:0:0:
365,63,69331,1,0,0:0:0:0:
400,32,69419,1,0,0:0:0:0:
400,84,69506,1,0,0:0:0:0:
401,136,69593,1,0,0:0:0:0:
402,188,69680,1,0,0:0:0:0:
403,240,69767,1,0,0:0:0:0:
404,292,69855,1,0,0:0:0:0:
405,344,69942,6,0,B|337:376|331:305|259:338,1,152
122,261,70465,1,0,0:0:0:0:
122,261,70552,1,0,0:0:0:0:
122,261,70640,2,0,P|171:308|117:357,1,152
20,230,71163,1,0,0:0:0:0:
20,230,71250,1,0,0:0:0:0:
20,229,71337,2,0,P|20:172|25:115,2,114
162,140,72035,2,0,P|161:83|156:26,2,114
348,208,72733,6,0,L|486:200,1,114
246,212,73256,1,0,0:0:0:0:
315,314,73430,2,0,L|177:306,1,114
417,318,73953,1,0,0:0:0:0:
136,229,74128,6,0,P|101:319|123:375,1,152
246,212,74651,2,0,L|236:98,1,114
231,60,75000,1,0,0:0:0:0:
264,43,75087,1,0,0:0:0:0:
302,48,75174,1,0,0:0:0:0:
335,66,75262,1,0,0:0:0:0:
369,82,75349,1,0,0:0:0:0:
406,78,75436,1,0,0:0:0:0:
438,58,75523,6,0,L|442:107,3,38
512,140,75872,2,0,L|508:189,3,38
403,201,76221,2,0,L|412:314,1,114
418,354,76570,1,0,0:0:0:0:
303,275,76744,1,0,0:0:0:0:
303,275,76831,1,0,0:0:0:0:
303,275,76919,6,0,P|241:263|185:271,2,114
403,201,77616,1,0,0:0:0:0:
440,200,77703,1,0,0:0:0:0:
467,175,77790,1,0,0:0:0:0:
471,138,77877,1,0,0:0:0:0:
450,108,77964,1,0,0:0:0:0:
414,99,78052,1,0,0:0:0:0:
377,106,78140,1,0,0:0:0:0:
342,121,78227,1,0,0:0:0:0:
305,115,78314,6,0,L|308:77,2,38
215,187,78576,2,0,L|218:225,2,38
138,102,78837,2,0,L|141:64,1,38
39,170,79012,6,0,P|11:174|-6:170,2,38
114,254,79273,2,0,P|141:249|159:254,2,38
17,316,79535,2,0,P|12:343|17:361,1,38
125,374,79709,6,0,L|186:369,1,38
262,313,79884,1,0,0:0:0:0:
262,313,79971,1,0,0:0:0:0:
262,313,80058,2,0,L|323:308,1,38
413,330,80233,2,0,L|408:269,1,38
430,179,80407,2,0,L|369:184,1,38
282,199,80581,2,0,L|279:162,1,38
261,51,80756,2,0,L|299:48,1,38
409,30,80930,2,0,L|412:67,1,38
