osu file format v14

[General]
AudioFilename: audio.mp3
AudioLeadIn: 0
PreviewTime: 51325
Countdown: 0
SampleSet: Soft
StackLeniency: 0.7
Mode: 3
LetterboxInBreaks: 0
SpecialStyle: 0
WidescreenStoryboard: 0

[Editor]
DistanceSpacing: 1.2
BeatDivisor: 4
GridSize: 4
TimelineZoom: 2.4

[Metadata]
Title:Fast Track to Browntown
TitleUnicode:Fast Track to Browntown
Artist:dB soundworks
ArtistUnicode:dB soundworks
Creator:Level 51
Version:Insane
Source:Super Meat Boy
Tags:danny daniel baranowsky
BeatmapID:1132157
BeatmapSetID:534488

[Difficulty]
HPDrainRate:8.5
CircleSize:4
OverallDifficulty:8.2
ApproachRate:5
SliderMultiplier:1.4
SliderTickRate:1

[Events]
//Background and Video events
0,0,"smb_extreme.png",0,0
//Break Periods
//Storyboard Layer 0 (Background)
//Storyboard Layer 1 (Fail)
//Storyboard Layer 2 (Pass)
//Storyboard Layer 3 (Foreground)
//Storyboard Sound Samples

[TimingPoints]
912,225.563909774436,4,2,1,30,1,0
15348,-100,4,2,1,30,0,1
29784,-100,4,2,1,30,0,0
51438,-100,4,2,1,30,0,1
58599,-100,4,2,1,30,0,0
58656,-100,4,2,1,30,0,1
65818,-100,4,2,1,30,0,0
65874,-100,4,2,1,30,0,1
65930,-100,4,2,1,30,0,0

[HitObjects]
320,192,912,5,0,0:0:0:0:
448,192,912,1,0,0:0:0:0:
448,192,1024,1,0,0:0:0:0:
192,192,1137,1,0,0:0:0:0:
64,192,1137,1,0,0:0:0:0:
64,192,1250,1,0,0:0:0:0:
448,192,1363,1,0,0:0:0:0:
320,192,1363,1,0,0:0:0:0:
320,192,1475,1,0,0:0:0:0:
320,192,1588,1,0,0:0:0:0:
320,192,1701,1,0,0:0:0:0:
448,192,1814,1,0,0:0:0:0:
192,192,1814,1,0,0:0:0:0:
448,192,1927,1,0,0:0:0:0:
320,192,2039,1,0,0:0:0:0:
64,192,2039,1,0,0:0:0:0:
64,192,2152,1,0,0:0:0:0:
320,192,2265,1,0,0:0:0:0:
192,192,2265,1,0,0:0:0:0:
320,192,2378,1,0,0:0:0:0:
320,192,2490,1,0,0:0:0:0:
320,192,2603,1,0,0:0:0:0:
448,192,2716,1,0,0:0:0:0:
192,192,2716,1,0,0:0:0:0:
448,192,2829,1,0,0:0:0:0:
320,192,2942,1,0,0:0:0:0:
64,192,2942,1,0,0:0:0:0:
64,192,3054,1,0,0:0:0:0:
448,192,3167,1,0,0:0:0:0:
192,192,3167,1,0,0:0:0:0:
192,192,3280,1,0,0:0:0:0:
192,192,3393,1,0,0:0:0:0:
192,192,3505,1,0,0:0:0:0:
448,192,3618,1,0,0:0:0:0:
320,192,3618,1,0,0:0:0:0:
448,192,3731,1,0,0:0:0:0:
192,192,3844,1,0,0:0:0:0:
64,192,3844,1,0,0:0:0:0:
192,192,3957,1,0,0:0:0:0:
448,192,4069,1,0,0:0:0:0:
64,192,4069,1,0,0:0:0:0:
64,192,4182,1,0,0:0:0:0:
64,192,4295,1,0,0:0:0:0:
64,192,4408,1,0,0:0:0:0:
320,192,4521,5,0,0:0:0:0:
448,192,4521,1,0,0:0:0:0:
448,192,4633,1,0,0:0:0:0:
64,192,4746,1,0,0:0:0:0:
192,192,4746,1,0,0:0:0:0:
64,192,4859,1,0,0:0:0:0:
320,192,4972,1,0,0:0:0:0:
448,192,4972,1,0,0:0:0:0:
320,192,5084,1,0,0:0:0:0:
320,192,5197,1,0,0:0:0:0:
320,192,5310,1,0,0:0:0:0:
192,192,5423,1,0,0:0:0:0:
448,192,5423,1,0,0:0:0:0:
448,192,5536,1,0,0:0:0:0:
64,192,5648,1,0,0:0:0:0:
320,192,5648,1,0,0:0:0:0:
64,192,5761,1,0,0:0:0:0:
192,192,5874,1,0,0:0:0:0:
320,192,5874,1,0,0:0:0:0:
320,192,5987,1,0,0:0:0:0:
320,192,6099,1,0,0:0:0:0:
320,192,6212,1,0,0:0:0:0:
192,192,6325,1,0,0:0:0:0:
448,192,6325,1,0,0:0:0:0:
448,192,6438,1,0,0:0:0:0:
64,192,6551,1,0,0:0:0:0:
320,192,6551,1,0,0:0:0:0:
64,192,6663,1,0,0:0:0:0:
192,192,6776,1,0,0:0:0:0:
448,192,6776,1,0,0:0:0:0:
192,192,6889,1,0,0:0:0:0:
192,192,7002,1,0,0:0:0:0:
192,192,7115,1,0,0:0:0:0:
320,192,7227,1,0,0:0:0:0:
448,192,7227,1,0,0:0:0:0:
448,192,7340,1,0,0:0:0:0:
64,192,7453,1,0,0:0:0:0:
192,192,7453,1,0,0:0:0:0:
192,192,7566,1,0,0:0:0:0:
64,192,7678,1,0,0:0:0:0:
448,192,7678,1,0,0:0:0:0:
64,192,7791,1,0,0:0:0:0:
64,192,7904,1,0,0:0:0:0:
64,192,8017,1,0,0:0:0:0:
448,192,8130,1,0,0:0:0:0:
320,192,8130,1,0,0:0:0:0:
192,192,8130,1,0,0:0:0:0:
448,192,8242,1,0,0:0:0:0:
64,192,8242,1,0,0:0:0:0:
192,192,8355,1,0,0:0:0:0:
320,192,8355,1,0,0:0:0:0:
192,192,8468,1,0,0:0:0:0:
320,192,8468,1,0,0:0:0:0:
448,192,8581,1,0,0:0:0:0:
64,192,8581,1,0,0:0:0:0:
448,192,8693,1,0,0:0:0:0:
192,192,8806,1,0,0:0:0:0:
64,192,8806,1,0,0:0:0:0:
448,192,9032,1,0,0:0:0:0:
64,192,9032,1,0,0:0:0:0:
320,192,9032,1,0,0:0:0:0:
192,192,9145,1,0,0:0:0:0:
448,192,9145,1,0,0:0:0:0:
64,192,9257,1,0,0:0:0:0:
320,192,9257,1,0,0:0:0:0:
64,192,9370,1,0,0:0:0:0:
320,192,9370,1,0,0:0:0:0:
448,192,9483,1,0,0:0:0:0:
192,192,9483,1,0,0:0:0:0:
320,192,9596,1,0,0:0:0:0:
64,192,9596,1,0,0:0:0:0:
320,192,9708,1,0,0:0:0:0:
64,192,9708,1,0,0:0:0:0:
320,192,9821,1,0,0:0:0:0:
64,192,9821,1,0,0:0:0:0:
448,192,9934,1,0,0:0:0:0:
192,192,9934,1,0,0:0:0:0:
64,192,9934,1,0,0:0:0:0:
448,192,10047,1,0,0:0:0:0:
320,192,10047,1,0,0:0:0:0:
192,192,10160,1,0,0:0:0:0:
64,192,10160,1,0,0:0:0:0:
192,192,10272,1,0,0:0:0:0:
64,192,10272,1,0,0:0:0:0:
448,192,10385,1,0,0:0:0:0:
320,192,10385,1,0,0:0:0:0:
320,192,10498,1,0,0:0:0:0:
448,192,10611,1,0,0:0:0:0:
64,192,10611,1,0,0:0:0:0:
448,192,10836,1,0,0:0:0:0:
320,192,10836,1,0,0:0:0:0:
64,192,10836,1,0,0:0:0:0:
192,192,10949,1,0,0:0:0:0:
448,192,10949,1,0,0:0:0:0:
320,192,11062,1,0,0:0:0:0:
64,192,11062,1,0,0:0:0:0:
320,192,11175,1,0,0:0:0:0:
64,192,11175,1,0,0:0:0:0:
448,192,11287,1,0,0:0:0:0:
192,192,11287,1,0,0:0:0:0:
320,192,11400,1,0,0:0:0:0:
448,192,11400,1,0,0:0:0:0:
192,192,11513,1,0,0:0:0:0:
64,192,11513,1,0,0:0:0:0:
448,192,11569,1,0,0:0:0:0:
320,192,11569,1,0,0:0:0:0:
192,192,11626,1,0,0:0:0:0:
64,192,11626,1,0,0:0:0:0:
320,192,11682,1,0,0:0:0:0:
448,192,11682,1,0,0:0:0:0:
192,192,11739,1,0,0:0:0:0:
64,192,11739,1,0,0:0:0:0:
448,192,11851,1,0,0:0:0:0:
320,192,11851,1,0,0:0:0:0:
192,192,11964,1,0,0:0:0:0:
64,192,11964,1,0,0:0:0:0:
192,192,12077,1,0,0:0:0:0:
64,192,12077,1,0,0:0:0:0:
320,192,12190,1,0,0:0:0:0:
448,192,12190,1,0,0:0:0:0:
320,192,12302,1,0,0:0:0:0:
192,192,12415,1,0,0:0:0:0:
64,192,12415,1,0,0:0:0:0:
448,192,12641,1,0,0:0:0:0:
320,192,12641,1,0,0:0:0:0:
64,192,12641,1,0,0:0:0:0:
192,192,12754,1,0,0:0:0:0:
64,192,12754,1,0,0:0:0:0:
448,192,12866,1,0,0:0:0:0:
320,192,12866,1,0,0:0:0:0:
448,192,12979,1,0,0:0:0:0:
320,192,12979,1,0,0:0:0:0:
192,192,13092,1,0,0:0:0:0:
64,192,13092,1,0,0:0:0:0:
448,192,13205,1,0,0:0:0:0:
64,192,13205,1,0,0:0:0:0:
448,192,13318,1,0,0:0:0:0:
64,192,13318,1,0,0:0:0:0:
448,192,13430,1,0,0:0:0:0:
64,192,13430,1,0,0:0:0:0:
320,192,13543,1,0,0:0:0:0:
192,192,13543,1,0,0:0:0:0:
64,192,13543,1,0,0:0:0:0:
448,192,13656,1,0,0:0:0:0:
192,192,13656,1,0,0:0:0:0:
320,192,13769,1,0,0:0:0:0:
64,192,13769,1,0,0:0:0:0:
320,192,13881,1,0,0:0:0:0:
64,192,13881,1,0,0:0:0:0:
448,192,13994,1,0,0:0:0:0:
192,192,13994,1,0,0:0:0:0:
448,192,14107,1,0,0:0:0:0:
320,192,14220,1,0,0:0:0:0:
64,192,14220,1,0,0:0:0:0:
448,192,14445,1,0,0:0:0:0:
192,192,14445,1,0,0:0:0:0:
64,192,14445,1,0,0:0:0:0:
448,192,14558,1,0,0:0:0:0:
320,192,14558,1,0,0:0:0:0:
320,192,14671,1,0,0:0:0:0:
64,192,14671,1,0,0:0:0:0:
192,192,14784,1,0,0:0:0:0:
64,192,14784,1,0,0:0:0:0:
448,192,14896,1,0,0:0:0:0:
320,192,14896,1,0,0:0:0:0:
192,192,15009,1,0,0:0:0:0:
64,192,15009,1,0,0:0:0:0:
320,192,15122,1,0,0:0:0:0:
448,192,15122,1,0,0:0:0:0:
192,192,15178,1,0,0:0:0:0:
64,192,15178,1,0,0:0:0:0:
448,192,15235,1,0,0:0:0:0:
320,192,15235,1,0,0:0:0:0:
64,192,15291,1,0,0:0:0:0:
192,192,15291,1,0,0:0:0:0:
448,192,15348,1,0,0:0:0:0:
320,192,15348,1,0,0:0:0:0:
448,192,15460,1,0,0:0:0:0:
320,192,15460,1,0,0:0:0:0:
448,192,15573,1,0,0:0:0:0:
320,192,15573,1,0,0:0:0:0:
192,192,15799,1,0,0:0:0:0:
64,192,15799,1,0,0:0:0:0:
192,192,15911,1,0,0:0:0:0:
64,192,15911,1,0,0:0:0:0:
192,192,16024,1,0,0:0:0:0:
64,192,16024,1,0,0:0:0:0:
320,192,16137,1,0,0:0:0:0:
192,192,16193,1,0,0:0:0:0:
64,192,16250,1,0,0:0:0:0:
448,192,16250,1,0,0:0:0:0:
320,192,16475,1,0,0:0:0:0:
192,192,16475,1,0,0:0:0:0:
320,192,16588,1,0,0:0:0:0:
64,192,16588,1,0,0:0:0:0:
448,192,16701,1,0,0:0:0:0:
64,192,16701,1,0,0:0:0:0:
448,192,16814,1,0,0:0:0:0:
192,192,16814,1,0,0:0:0:0:
192,192,16927,1,0,0:0:0:0:
320,192,16927,1,0,0:0:0:0:
320,192,17039,1,0,0:0:0:0:
64,192,17039,1,0,0:0:0:0:
448,192,17152,1,0,0:0:0:0:
192,192,17152,1,0,0:0:0:0:
448,192,17265,1,0,0:0:0:0:
192,192,17265,1,0,0:0:0:0:
448,192,17378,1,0,0:0:0:0:
192,192,17378,1,0,0:0:0:0:
320,192,17603,1,0,0:0:0:0:
64,192,17603,1,0,0:0:0:0:
320,192,17716,1,0,0:0:0:0:
64,192,17716,1,0,0:0:0:0:
320,192,17829,1,0,0:0:0:0:
64,192,17829,1,0,0:0:0:0:
192,192,17942,1,0,0:0:0:0:
320,192,17998,1,0,0:0:0:0:
64,192,18054,1,0,0:0:0:0:
448,192,18054,1,0,0:0:0:0:
448,192,18167,1,0,0:0:0:0:
64,192,18167,1,0,0:0:0:0:
448,192,18280,1,0,0:0:0:0:
64,192,18280,1,0,0:0:0:0:
320,192,18505,1,0,0:0:0:0:
448,192,18505,1,0,0:0:0:0:
448,192,18618,1,0,0:0:0:0:
320,192,18618,1,0,0:0:0:0:
192,192,18731,1,0,0:0:0:0:
64,192,18731,1,0,0:0:0:0:
448,192,18787,1,0,0:0:0:0:
320,192,18787,1,0,0:0:0:0:
64,192,18844,1,0,0:0:0:0:
192,192,18844,1,0,0:0:0:0:
448,192,18900,1,0,0:0:0:0:
320,192,18900,1,0,0:0:0:0:
192,192,18957,1,0,0:0:0:0:
64,192,18957,1,0,0:0:0:0:
320,192,19069,1,0,0:0:0:0:
448,192,19182,1,0,0:0:0:0:
320,192,19239,1,0,0:0:0:0:
192,192,19295,1,0,0:0:0:0:
64,192,19351,1,0,0:0:0:0:
448,192,19408,1,0,0:0:0:0:
320,192,19464,1,0,0:0:0:0:
192,192,19521,1,0,0:0:0:0:
64,192,19577,1,0,0:0:0:0:
320,192,19633,1,0,0:0:0:0:
448,192,19690,1,0,0:0:0:0:
192,192,19746,1,0,0:0:0:0:
320,192,19802,1,0,0:0:0:0:
64,192,19859,1,0,0:0:0:0:
192,192,19915,1,0,0:0:0:0:
320,192,19972,1,0,0:0:0:0:
448,192,20028,1,0,0:0:0:0:
64,192,20084,1,0,0:0:0:0:
192,192,20141,1,0,0:0:0:0:
320,192,20197,1,0,0:0:0:0:
448,192,20254,1,0,0:0:0:0:
192,192,20310,1,0,0:0:0:0:
64,192,20366,1,0,0:0:0:0:
320,192,20423,1,0,0:0:0:0:
192,192,20479,1,0,0:0:0:0:
448,192,20536,1,0,0:0:0:0:
320,192,20592,1,0,0:0:0:0:
192,192,20648,1,0,0:0:0:0:
64,192,20705,1,0,0:0:0:0:
448,192,20761,1,0,0:0:0:0:
320,192,20761,1,0,0:0:0:0:
448,192,20987,1,0,0:0:0:0:
64,192,20987,1,0,0:0:0:0:
320,192,21099,1,0,0:0:0:0:
64,192,21099,1,0,0:0:0:0:
320,192,21212,1,0,0:0:0:0:
192,192,21212,1,0,0:0:0:0:
448,192,21325,1,0,0:0:0:0:
192,192,21325,1,0,0:0:0:0:
448,192,21438,1,0,0:0:0:0:
320,192,21438,1,0,0:0:0:0:
320,192,21551,1,0,0:0:0:0:
64,192,21551,1,0,0:0:0:0:
192,192,21663,1,0,0:0:0:0:
64,192,21663,1,0,0:0:0:0:
448,192,21776,1,0,0:0:0:0:
192,192,21776,1,0,0:0:0:0:
64,192,21889,1,0,0:0:0:0:
448,192,21889,1,0,0:0:0:0:
320,192,22002,1,0,0:0:0:0:
64,192,22002,1,0,0:0:0:0:
320,192,22115,1,0,0:0:0:0:
192,192,22115,1,0,0:0:0:0:
448,192,22227,1,0,0:0:0:0:
192,192,22227,1,0,0:0:0:0:
64,192,22340,1,0,0:0:0:0:
448,192,22340,1,0,0:0:0:0:
192,192,22453,1,0,0:0:0:0:
64,192,22453,1,0,0:0:0:0:
320,192,22566,1,0,0:0:0:0:
192,192,22566,1,0,0:0:0:0:
64,192,22678,1,0,0:0:0:0:
448,192,22678,1,0,0:0:0:0:
320,192,22735,1,0,0:0:0:0:
192,192,22791,1,0,0:0:0:0:
448,192,22904,1,0,0:0:0:0:
320,192,22904,1,0,0:0:0:0:
448,192,23017,1,0,0:0:0:0:
64,192,23017,1,0,0:0:0:0:
192,192,23073,1,0,0:0:0:0:
320,192,23130,1,0,0:0:0:0:
448,192,23242,1,0,0:0:0:0:
320,192,23299,1,0,0:0:0:0:
192,192,23355,1,0,0:0:0:0:
64,192,23411,1,0,0:0:0:0:
320,192,23468,1,0,0:0:0:0:
448,192,23468,1,0,0:0:0:0:
448,192,23581,1,0,0:0:0:0:
192,192,23581,1,0,0:0:0:0:
192,192,23693,1,0,0:0:0:0:
64,192,23693,1,0,0:0:0:0:
320,192,23806,1,0,0:0:0:0:
64,192,23806,1,0,0:0:0:0:
320,192,23919,1,0,0:0:0:0:
192,192,23919,1,0,0:0:0:0:
448,192,24032,1,0,0:0:0:0:
192,192,24032,1,0,0:0:0:0:
448,192,24145,1,0,0:0:0:0:
320,192,24145,1,0,0:0:0:0:
320,192,24257,1,0,0:0:0:0:
64,192,24257,1,0,0:0:0:0:
192,192,24370,1,0,0:0:0:0:
64,192,24370,1,0,0:0:0:0:
320,192,24483,1,0,0:0:0:0:
64,192,24596,1,0,0:0:0:0:
448,192,24596,1,0,0:0:0:0:
192,192,24708,1,0,0:0:0:0:
448,192,24821,1,0,0:0:0:0:
320,192,24821,1,0,0:0:0:0:
192,192,24934,1,0,0:0:0:0:
64,192,25047,1,0,0:0:0:0:
448,192,25047,1,0,0:0:0:0:
320,192,25160,1,0,0:0:0:0:
448,192,25272,128,0,25498:0:0:0:0:
192,192,25272,1,0,0:0:0:0:
64,192,25272,1,0,0:0:0:0:
192,192,25498,1,0,0:0:0:0:
320,192,25498,1,0,0:0:0:0:
64,192,25611,1,0,0:0:0:0:
320,192,25724,1,0,0:0:0:0:
448,192,25724,1,0,0:0:0:0:
192,192,25836,1,0,0:0:0:0:
448,192,25949,1,0,0:0:0:0:
64,192,25949,1,0,0:0:0:0:
320,192,26062,1,0,0:0:0:0:
64,192,26175,1,0,0:0:0:0:
192,192,26175,1,0,0:0:0:0:
320,192,26287,1,0,0:0:0:0:
448,192,26287,1,0,0:0:0:0:
64,192,26400,1,0,0:0:0:0:
192,192,26400,1,0,0:0:0:0:
320,192,26513,1,0,0:0:0:0:
448,192,26513,1,0,0:0:0:0:
64,192,26626,1,0,0:0:0:0:
320,192,26626,1,0,0:0:0:0:
192,192,26739,1,0,0:0:0:0:
448,192,26739,1,0,0:0:0:0:
64,192,26851,1,0,0:0:0:0:
320,192,26851,1,0,0:0:0:0:
192,192,26964,1,0,0:0:0:0:
448,192,26964,1,0,0:0:0:0:
320,192,27077,1,0,0:0:0:0:
448,192,27077,1,0,0:0:0:0:
64,192,27190,1,0,0:0:0:0:
192,192,27190,1,0,0:0:0:0:
320,192,27302,1,0,0:0:0:0:
448,192,27302,1,0,0:0:0:0:
64,192,27415,1,0,0:0:0:0:
192,192,27415,1,0,0:0:0:0:
192,192,27528,1,0,0:0:0:0:
448,192,27528,1,0,0:0:0:0:
64,192,27641,1,0,0:0:0:0:
320,192,27641,1,0,0:0:0:0:
192,192,27754,1,0,0:0:0:0:
448,192,27754,1,0,0:0:0:0:
64,192,27866,1,0,0:0:0:0:
320,192,27866,1,0,0:0:0:0:
448,192,27979,1,0,0:0:0:0:
320,192,28036,1,0,0:0:0:0:
192,192,28092,1,0,0:0:0:0:
64,192,28148,1,0,0:0:0:0:
320,192,28205,1,0,0:0:0:0:
192,192,28261,1,0,0:0:0:0:
448,192,28318,1,0,0:0:0:0:
320,192,28374,1,0,0:0:0:0:
64,192,28430,1,0,0:0:0:0:
192,192,28487,1,0,0:0:0:0:
320,192,28543,1,0,0:0:0:0:
448,192,28599,1,0,0:0:0:0:
192,192,28656,1,0,0:0:0:0:
320,192,28712,1,0,0:0:0:0:
64,192,28769,1,0,0:0:0:0:
192,192,28825,1,0,0:0:0:0:
448,192,28881,1,0,0:0:0:0:
320,192,28938,1,0,0:0:0:0:
192,192,28994,1,0,0:0:0:0:
448,192,29051,1,0,0:0:0:0:
64,192,29107,1,0,0:0:0:0:
192,192,29163,1,0,0:0:0:0:
320,192,29220,1,0,0:0:0:0:
64,192,29276,1,0,0:0:0:0:
448,192,29333,1,0,0:0:0:0:
320,192,29389,1,0,0:0:0:0:
192,192,29445,1,0,0:0:0:0:
448,192,29502,1,0,0:0:0:0:
64,192,29558,1,0,0:0:0:0:
192,192,29615,1,0,0:0:0:0:
320,192,29671,1,0,0:0:0:0:
64,192,29727,1,0,0:0:0:0:
448,192,29784,1,0,0:0:0:0:
192,192,29784,1,0,0:0:0:0:
192,192,30009,1,0,0:0:0:0:
64,192,30009,1,0,0:0:0:0:
64,192,30122,1,0,0:0:0:0:
192,192,30122,1,0,0:0:0:0:
320,192,30235,1,0,0:0:0:0:
448,192,30235,1,0,0:0:0:0:
320,192,30348,1,0,0:0:0:0:
448,192,30348,1,0,0:0:0:0:
192,192,30460,1,0,0:0:0:0:
64,192,30460,1,0,0:0:0:0:
192,192,30573,1,0,0:0:0:0:
64,192,30573,1,0,0:0:0:0:
192,192,30686,1,0,0:0:0:0:
64,192,30686,1,0,0:0:0:0:
448,192,30911,1,0,0:0:0:0:
320,192,30911,1,0,0:0:0:0:
448,192,31024,1,0,0:0:0:0:
320,192,31024,1,0,0:0:0:0:
64,192,31137,1,0,0:0:0:0:
192,192,31137,1,0,0:0:0:0:
64,192,31250,1,0,0:0:0:0:
192,192,31250,1,0,0:0:0:0:
448,192,31363,1,0,0:0:0:0:
320,192,31363,1,0,0:0:0:0:
448,192,31588,1,0,0:0:0:0:
320,192,31588,1,0,0:0:0:0:
64,192,31701,1,0,0:0:0:0:
448,192,31814,1,0,0:0:0:0:
320,192,31814,1,0,0:0:0:0:
448,192,32039,1,0,0:0:0:0:
320,192,32039,1,0,0:0:0:0:
448,192,32152,1,0,0:0:0:0:
320,192,32152,1,0,0:0:0:0:
448,192,32265,1,0,0:0:0:0:
320,192,32265,1,0,0:0:0:0:
448,192,32378,1,0,0:0:0:0:
320,192,32378,1,0,0:0:0:0:
448,192,32490,1,0,0:0:0:0:
320,192,32490,1,0,0:0:0:0:
192,192,32716,1,0,0:0:0:0:
64,192,32716,1,0,0:0:0:0:
448,192,32829,1,0,0:0:0:0:
320,192,32829,1,0,0:0:0:0:
192,192,32942,1,0,0:0:0:0:
64,192,32942,1,0,0:0:0:0:
448,192,33054,1,0,0:0:0:0:
320,192,33054,1,0,0:0:0:0:
192,192,33167,1,0,0:0:0:0:
64,192,33167,1,0,0:0:0:0:
64,192,33393,1,0,0:0:0:0:
192,192,33393,1,0,0:0:0:0:
320,192,33618,1,0,0:0:0:0:
448,192,33618,1,0,0:0:0:0:
448,192,33731,1,0,0:0:0:0:
320,192,33731,1,0,0:0:0:0:
64,192,33844,1,0,0:0:0:0:
192,192,33844,1,0,0:0:0:0:
64,192,33957,1,0,0:0:0:0:
192,192,33957,1,0,0:0:0:0:
320,192,34069,1,0,0:0:0:0:
448,192,34069,1,0,0:0:0:0:
320,192,34182,1,0,0:0:0:0:
448,192,34182,1,0,0:0:0:0:
320,192,34295,1,0,0:0:0:0:
448,192,34295,1,0,0:0:0:0:
192,192,34521,1,0,0:0:0:0:
64,192,34521,1,0,0:0:0:0:
64,192,34633,1,0,0:0:0:0:
192,192,34633,1,0,0:0:0:0:
320,192,34746,1,0,0:0:0:0:
448,192,34746,1,0,0:0:0:0:
320,192,34859,1,0,0:0:0:0:
448,192,34859,1,0,0:0:0:0:
64,192,34972,1,0,0:0:0:0:
192,192,34972,1,0,0:0:0:0:
192,192,35197,1,0,0:0:0:0:
64,192,35197,1,0,0:0:0:0:
448,192,35310,1,0,0:0:0:0:
192,192,35423,1,0,0:0:0:0:
64,192,35423,1,0,0:0:0:0:
192,192,35648,1,0,0:0:0:0:
64,192,35648,1,0,0:0:0:0:
320,192,35761,1,0,0:0:0:0:
448,192,35761,1,0,0:0:0:0:
192,192,35874,1,0,0:0:0:0:
64,192,35874,1,0,0:0:0:0:
320,192,35987,1,0,0:0:0:0:
448,192,35987,1,0,0:0:0:0:
192,192,36099,1,0,0:0:0:0:
64,192,36099,1,0,0:0:0:0:
448,192,36212,1,0,0:0:0:0:
320,192,36212,1,0,0:0:0:0:
192,192,36269,1,0,0:0:0:0:
64,192,36269,1,0,0:0:0:0:
448,192,36325,1,0,0:0:0:0:
320,192,36325,1,0,0:0:0:0:
192,192,36438,1,0,0:0:0:0:
64,192,36438,1,0,0:0:0:0:
448,192,36551,1,0,0:0:0:0:
320,192,36551,1,0,0:0:0:0:
192,192,36663,1,0,0:0:0:0:
64,192,36663,1,0,0:0:0:0:
448,192,36776,1,0,0:0:0:0:
320,192,36804,1,0,0:0:0:0:
192,192,36833,1,0,0:0:0:0:
64,192,36861,1,0,0:0:0:0:
448,192,36889,1,0,0:0:0:0:
320,192,36917,1,0,0:0:0:0:
192,192,36945,1,0,0:0:0:0:
64,192,36974,1,0,0:0:0:0:
320,192,37002,1,0,0:0:0:0:
448,192,37002,1,0,0:0:0:0:
64,192,37115,1,0,0:0:0:0:
448,192,37227,1,0,0:0:0:0:
192,192,37227,1,0,0:0:0:0:
448,192,37453,1,0,0:0:0:0:
320,192,37453,1,0,0:0:0:0:
64,192,37453,1,0,0:0:0:0:
448,192,37678,1,0,0:0:0:0:
192,192,37678,1,0,0:0:0:0:
64,192,37678,1,0,0:0:0:0:
320,192,37904,1,0,0:0:0:0:
320,192,38017,1,0,0:0:0:0:
448,192,38130,1,0,0:0:0:0:
192,192,38130,1,0,0:0:0:0:
64,192,38130,1,0,0:0:0:0:
448,192,38242,1,0,0:0:0:0:
192,192,38355,1,0,0:0:0:0:
192,192,38468,1,0,0:0:0:0:
448,192,38581,1,0,0:0:0:0:
320,192,38581,1,0,0:0:0:0:
64,192,38581,1,0,0:0:0:0:
448,192,38806,1,0,0:0:0:0:
448,192,38919,1,0,0:0:0:0:
320,192,39032,1,0,0:0:0:0:
192,192,39032,1,0,0:0:0:0:
64,192,39032,1,0,0:0:0:0:
64,192,39257,1,0,0:0:0:0:
64,192,39370,1,0,0:0:0:0:
448,192,39483,1,0,0:0:0:0:
320,192,39483,1,0,0:0:0:0:
192,192,39483,1,0,0:0:0:0:
192,192,39708,1,0,0:0:0:0:
192,192,39821,1,0,0:0:0:0:
448,192,39934,1,0,0:0:0:0:
320,192,39934,1,0,0:0:0:0:
64,192,39934,1,0,0:0:0:0:
320,192,40047,1,0,0:0:0:0:
64,192,40160,1,0,0:0:0:0:
64,192,40272,1,0,0:0:0:0:
448,192,40385,1,0,0:0:0:0:
320,192,40385,1,0,0:0:0:0:
192,192,40385,1,0,0:0:0:0:
320,192,40611,1,0,0:0:0:0:
320,192,40724,1,0,0:0:0:0:
448,192,40836,1,0,0:0:0:0:
192,192,40836,1,0,0:0:0:0:
64,192,40836,1,0,0:0:0:0:
448,192,41062,1,0,0:0:0:0:
448,192,41175,1,0,0:0:0:0:
320,192,41287,1,0,0:0:0:0:
192,192,41287,1,0,0:0:0:0:
64,192,41287,1,0,0:0:0:0:
192,192,41513,1,0,0:0:0:0:
192,192,41626,1,0,0:0:0:0:
448,192,41739,1,0,0:0:0:0:
320,192,41739,1,0,0:0:0:0:
64,192,41739,1,0,0:0:0:0:
448,192,41964,1,0,0:0:0:0:
448,192,42077,1,0,0:0:0:0:
64,192,42190,1,0,0:0:0:0:
192,192,42190,1,0,0:0:0:0:
320,192,42190,1,0,0:0:0:0:
320,192,42415,1,0,0:0:0:0:
320,192,42528,1,0,0:0:0:0:
448,192,42641,1,0,0:0:0:0:
192,192,42641,1,0,0:0:0:0:
64,192,42641,1,0,0:0:0:0:
192,192,42866,1,0,0:0:0:0:
192,192,42979,1,0,0:0:0:0:
448,192,43092,1,0,0:0:0:0:
320,192,43092,1,0,0:0:0:0:
64,192,43092,1,0,0:0:0:0:
64,192,43318,1,0,0:0:0:0:
64,192,43430,1,0,0:0:0:0:
448,192,43543,1,0,0:0:0:0:
320,192,43543,1,0,0:0:0:0:
192,192,43543,1,0,0:0:0:0:
192,192,43656,1,0,0:0:0:0:
320,192,43769,1,0,0:0:0:0:
320,192,43881,1,0,0:0:0:0:
448,192,43994,1,0,0:0:0:0:
192,192,43994,1,0,0:0:0:0:
64,192,43994,1,0,0:0:0:0:
320,192,44107,1,0,0:0:0:0:
192,192,44163,1,0,0:0:0:0:
448,192,44220,1,0,0:0:0:0:
64,192,44220,1,0,0:0:0:0:
320,192,44220,1,0,0:0:0:0:
448,192,44333,1,0,0:0:0:0:
64,192,44445,1,0,0:0:0:0:
320,192,44445,1,0,0:0:0:0:
192,192,44445,1,0,0:0:0:0:
320,192,44671,1,0,0:0:0:0:
320,192,44784,1,0,0:0:0:0:
64,192,44896,1,0,0:0:0:0:
192,192,44896,1,0,0:0:0:0:
448,192,44896,1,0,0:0:0:0:
192,192,45122,1,0,0:0:0:0:
192,192,45235,1,0,0:0:0:0:
64,192,45348,1,0,0:0:0:0:
320,192,45348,1,0,0:0:0:0:
448,192,45348,1,0,0:0:0:0:
320,192,45573,1,0,0:0:0:0:
320,192,45686,1,0,0:0:0:0:
64,192,45799,1,0,0:0:0:0:
192,192,45799,1,0,0:0:0:0:
448,192,45799,1,0,0:0:0:0:
320,192,45911,1,0,0:0:0:0:
192,192,45968,1,0,0:0:0:0:
448,192,46024,1,0,0:0:0:0:
64,192,46024,1,0,0:0:0:0:
192,192,46137,1,0,0:0:0:0:
320,192,46193,1,0,0:0:0:0:
64,192,46250,1,0,0:0:0:0:
448,192,46250,1,0,0:0:0:0:
192,192,46363,1,0,0:0:0:0:
64,192,46419,1,0,0:0:0:0:
320,192,46475,1,0,0:0:0:0:
448,192,46475,1,0,0:0:0:0:
192,192,46588,1,0,0:0:0:0:
448,192,46645,1,0,0:0:0:0:
320,192,46701,1,0,0:0:0:0:
64,192,46701,1,0,0:0:0:0:
448,192,46814,1,0,0:0:0:0:
320,192,46870,1,0,0:0:0:0:
192,192,46927,1,0,0:0:0:0:
64,192,46927,1,0,0:0:0:0:
320,192,47039,1,0,0:0:0:0:
448,192,47039,1,0,0:0:0:0:
64,192,47152,1,0,0:0:0:0:
192,192,47152,1,0,0:0:0:0:
320,192,47265,1,0,0:0:0:0:
192,192,47378,1,0,0:0:0:0:
448,192,47378,1,0,0:0:0:0:
64,192,47490,1,0,0:0:0:0:
320,192,47490,1,0,0:0:0:0:
192,192,47603,1,0,0:0:0:0:
448,192,47603,1,0,0:0:0:0:
64,192,47716,1,0,0:0:0:0:
448,192,47829,1,0,0:0:0:0:
320,192,47885,1,0,0:0:0:0:
192,192,47942,1,0,0:0:0:0:
64,192,47998,1,0,0:0:0:0:
448,192,48054,1,0,0:0:0:0:
320,192,48111,1,0,0:0:0:0:
192,192,48167,1,0,0:0:0:0:
448,192,48224,1,0,0:0:0:0:
64,192,48280,1,0,0:0:0:0:
192,192,48336,1,0,0:0:0:0:
320,192,48393,1,0,0:0:0:0:
448,192,48449,1,0,0:0:0:0:
64,192,48505,1,0,0:0:0:0:
192,192,48562,1,0,0:0:0:0:
320,192,48618,1,0,0:0:0:0:
64,192,48675,1,0,0:0:0:0:
448,192,48731,1,0,0:0:0:0:
320,192,48787,1,0,0:0:0:0:
192,192,48844,1,0,0:0:0:0:
64,192,48900,1,0,0:0:0:0:
320,192,48957,1,0,0:0:0:0:
192,192,49013,1,0,0:0:0:0:
448,192,49069,1,0,0:0:0:0:
320,192,49126,1,0,0:0:0:0:
64,192,49182,1,0,0:0:0:0:
192,192,49239,1,0,0:0:0:0:
320,192,49295,1,0,0:0:0:0:
448,192,49351,1,0,0:0:0:0:
192,192,49408,1,0,0:0:0:0:
320,192,49464,1,0,0:0:0:0:
64,192,49521,1,0,0:0:0:0:
192,192,49577,1,0,0:0:0:0:
448,192,49633,1,0,0:0:0:0:
320,192,49690,1,0,0:0:0:0:
192,192,49746,1,0,0:0:0:0:
448,192,49802,1,0,0:0:0:0:
64,192,49859,1,0,0:0:0:0:
192,192,49915,1,0,0:0:0:0:
320,192,49972,1,0,0:0:0:0:
64,192,50028,1,0,0:0:0:0:
448,192,50084,1,0,0:0:0:0:
320,192,50141,1,0,0:0:0:0:
192,192,50197,1,0,0:0:0:0:
448,192,50254,1,0,0:0:0:0:
64,192,50310,1,0,0:0:0:0:
192,192,50366,1,0,0:0:0:0:
320,192,50423,1,0,0:0:0:0:
64,192,50479,1,0,0:0:0:0:
448,192,50536,1,0,0:0:0:0:
320,192,50592,1,0,0:0:0:0:
192,192,50648,1,0,0:0:0:0:
64,192,50705,1,0,0:0:0:0:
320,192,50761,1,0,0:0:0:0:
192,192,50818,1,0,0:0:0:0:
448,192,50874,1,0,0:0:0:0:
320,192,50930,1,0,0:0:0:0:
64,192,50987,1,0,0:0:0:0:
192,192,51043,1,0,0:0:0:0:
320,192,51099,1,0,0:0:0:0:
448,192,51156,1,0,0:0:0:0:
192,192,51212,1,0,0:0:0:0:
320,192,51269,1,0,0:0:0:0:
64,192,51325,1,0,0:0:0:0:
192,192,51381,1,0,0:0:0:0:
320,192,51438,1,0,0:0:0:0:
448,192,51438,1,0,0:0:0:0:
64,192,51551,1,0,0:0:0:0:
192,192,51551,1,0,0:0:0:0:
320,192,51663,1,0,0:0:0:0:
448,192,51663,1,0,0:0:0:0:
320,192,51776,1,0,0:0:0:0:
448,192,51776,1,0,0:0:0:0:
192,192,51889,1,0,0:0:0:0:
64,192,51889,1,0,0:0:0:0:
448,192,52002,1,0,0:0:0:0:
320,192,52002,1,0,0:0:0:0:
192,192,52115,1,0,0:0:0:0:
64,192,52115,1,0,0:0:0:0:
448,192,52227,1,0,0:0:0:0:
192,192,52227,1,0,0:0:0:0:
448,192,52340,1,0,0:0:0:0:
320,192,52340,1,0,0:0:0:0:
320,192,52453,1,0,0:0:0:0:
64,192,52453,1,0,0:0:0:0:
192,192,52566,1,0,0:0:0:0:
64,192,52566,1,0,0:0:0:0:
320,192,52678,1,0,0:0:0:0:
448,192,52678,1,0,0:0:0:0:
192,192,52791,1,0,0:0:0:0:
64,192,52791,1,0,0:0:0:0:
320,192,52848,1,0,0:0:0:0:
448,192,52848,1,0,0:0:0:0:
192,192,52904,1,0,0:0:0:0:
64,192,52904,1,0,0:0:0:0:
448,192,53017,1,0,0:0:0:0:
320,192,53017,1,0,0:0:0:0:
64,192,53130,1,0,0:0:0:0:
320,192,53130,1,0,0:0:0:0:
192,192,53242,1,0,0:0:0:0:
64,192,53242,1,0,0:0:0:0:
448,192,53355,1,0,0:0:0:0:
320,192,53355,1,0,0:0:0:0:
192,192,53468,1,0,0:0:0:0:
64,192,53468,1,0,0:0:0:0:
320,192,53581,1,0,0:0:0:0:
192,192,53581,1,0,0:0:0:0:
320,192,53693,1,0,0:0:0:0:
448,192,53693,1,0,0:0:0:0:
448,192,53806,1,0,0:0:0:0:
320,192,53806,1,0,0:0:0:0:
192,192,53919,1,0,0:0:0:0:
64,192,53919,1,0,0:0:0:0:
448,192,54032,1,0,0:0:0:0:
320,192,54032,1,0,0:0:0:0:
64,192,54145,1,0,0:0:0:0:
192,192,54145,1,0,0:0:0:0:
64,192,54257,1,0,0:0:0:0:
192,192,54257,1,0,0:0:0:0:
448,192,54370,1,0,0:0:0:0:
320,192,54370,1,0,0:0:0:0:
320,192,54483,1,0,0:0:0:0:
64,192,54483,1,0,0:0:0:0:
64,192,54596,1,0,0:0:0:0:
192,192,54652,1,0,0:0:0:0:
320,192,54708,1,0,0:0:0:0:
448,192,54765,1,0,0:0:0:0:
192,192,54821,1,0,0:0:0:0:
64,192,54878,1,0,0:0:0:0:
320,192,54934,1,0,0:0:0:0:
192,192,54990,1,0,0:0:0:0:
448,192,55047,1,0,0:0:0:0:
64,192,55047,1,0,0:0:0:0:
448,192,55160,1,0,0:0:0:0:
320,192,55160,1,0,0:0:0:0:
192,192,55272,1,0,0:0:0:0:
64,192,55272,1,0,0:0:0:0:
448,192,55385,1,0,0:0:0:0:
192,192,55385,1,0,0:0:0:0:
448,192,55498,1,0,0:0:0:0:
320,192,55498,1,0,0:0:0:0:
192,192,55611,1,0,0:0:0:0:
64,192,55611,1,0,0:0:0:0:
320,192,55724,1,0,0:0:0:0:
192,192,55724,1,0,0:0:0:0:
448,192,55836,1,0,0:0:0:0:
64,192,55836,1,0,0:0:0:0:
448,192,55949,1,0,0:0:0:0:
192,192,55949,1,0,0:0:0:0:
320,192,56062,1,0,0:0:0:0:
64,192,56062,1,0,0:0:0:0:
192,192,56175,1,0,0:0:0:0:
64,192,56175,1,0,0:0:0:0:
448,192,56287,1,0,0:0:0:0:
320,192,56287,1,0,0:0:0:0:
448,192,56400,1,0,0:0:0:0:
64,192,56400,1,0,0:0:0:0:
320,192,56513,1,0,0:0:0:0:
64,192,56513,1,0,0:0:0:0:
448,192,56626,1,0,0:0:0:0:
192,192,56626,1,0,0:0:0:0:
320,192,56739,1,0,0:0:0:0:
64,192,56739,1,0,0:0:0:0:
448,192,56851,1,0,0:0:0:0:
192,192,56851,1,0,0:0:0:0:
448,192,56964,1,0,0:0:0:0:
320,192,56964,1,0,0:0:0:0:
192,192,57077,1,0,0:0:0:0:
64,192,57077,1,0,0:0:0:0:
192,192,57190,1,0,0:0:0:0:
64,192,57190,1,0,0:0:0:0:
448,192,57302,1,0,0:0:0:0:
320,192,57302,1,0,0:0:0:0:
448,192,57415,1,0,0:0:0:0:
320,192,57415,1,0,0:0:0:0:
192,192,57528,1,0,0:0:0:0:
64,192,57528,1,0,0:0:0:0:
448,192,57641,1,0,0:0:0:0:
64,192,57641,1,0,0:0:0:0:
448,192,57754,1,0,0:0:0:0:
192,192,57754,1,0,0:0:0:0:
192,192,57866,1,0,0:0:0:0:
64,192,57866,1,0,0:0:0:0:
320,192,57979,1,0,0:0:0:0:
64,192,57979,1,0,0:0:0:0:
448,192,58092,1,0,0:0:0:0:
192,192,58092,1,0,0:0:0:0:
448,192,58205,1,0,0:0:0:0:
64,192,58205,1,0,0:0:0:0:
320,192,58318,1,0,0:0:0:0:
192,192,58318,1,0,0:0:0:0:
448,192,58430,1,0,0:0:0:0:
192,192,58430,1,0,0:0:0:0:
448,192,58543,1,0,0:0:0:0:
320,192,58543,1,0,0:0:0:0:
320,192,58656,1,0,0:0:0:0:
192,192,58656,1,0,0:0:0:0:
64,192,58656,1,0,0:0:0:0:
64,192,58769,1,0,0:0:0:0:
192,192,58769,1,0,0:0:0:0:
448,192,58881,1,0,0:0:0:0:
320,192,58881,1,0,0:0:0:0:
320,192,58994,1,0,0:0:0:0:
448,192,58994,1,0,0:0:0:0:
192,192,59107,1,0,0:0:0:0:
64,192,59107,1,0,0:0:0:0:
192,192,59220,1,0,0:0:0:0:
64,192,59220,1,0,0:0:0:0:
448,192,59333,1,0,0:0:0:0:
320,192,59333,1,0,0:0:0:0:
448,192,59445,1,0,0:0:0:0:
320,192,59445,1,0,0:0:0:0:
192,192,59558,1,0,0:0:0:0:
64,192,59558,1,0,0:0:0:0:
192,192,59671,1,0,0:0:0:0:
64,192,59671,1,0,0:0:0:0:
448,192,59784,1,0,0:0:0:0:
320,192,59784,1,0,0:0:0:0:
320,192,59896,1,0,0:0:0:0:
448,192,59896,1,0,0:0:0:0:
192,192,60009,1,0,0:0:0:0:
64,192,60009,1,0,0:0:0:0:
192,192,60122,1,0,0:0:0:0:
64,192,60122,1,0,0:0:0:0:
448,192,60235,1,0,0:0:0:0:
320,192,60235,1,0,0:0:0:0:
320,192,60348,1,0,0:0:0:0:
448,192,60348,1,0,0:0:0:0:
64,192,60460,1,0,0:0:0:0:
192,192,60460,1,0,0:0:0:0:
320,192,60573,1,0,0:0:0:0:
64,192,60686,1,0,0:0:0:0:
448,192,60686,1,0,0:0:0:0:
192,192,60799,1,0,0:0:0:0:
448,192,60911,1,0,0:0:0:0:
320,192,60911,1,0,0:0:0:0:
192,192,61024,1,0,0:0:0:0:
448,192,61137,1,0,0:0:0:0:
64,192,61137,1,0,0:0:0:0:
320,192,61250,1,0,0:0:0:0:
192,192,61363,1,0,0:0:0:0:
64,192,61363,1,0,0:0:0:0:
448,192,61475,1,0,0:0:0:0:
320,192,61588,1,0,0:0:0:0:
192,192,61588,1,0,0:0:0:0:
64,192,61701,1,0,0:0:0:0:
448,192,61814,1,0,0:0:0:0:
320,192,61814,1,0,0:0:0:0:
192,192,61927,1,0,0:0:0:0:
448,192,62039,1,0,0:0:0:0:
64,192,62039,1,0,0:0:0:0:
192,192,62152,1,0,0:0:0:0:
320,192,62265,1,0,0:0:0:0:
448,192,62265,1,0,0:0:0:0:
320,192,62378,1,0,0:0:0:0:
448,192,62378,1,0,0:0:0:0:
64,192,62490,1,0,0:0:0:0:
192,192,62490,1,0,0:0:0:0:
64,192,62603,1,0,0:0:0:0:
192,192,62603,1,0,0:0:0:0:
448,192,62716,1,0,0:0:0:0:
320,192,62716,1,0,0:0:0:0:
448,192,62829,1,0,0:0:0:0:
320,192,62829,1,0,0:0:0:0:
192,192,62942,1,0,0:0:0:0:
64,192,62942,1,0,0:0:0:0:
192,192,63054,1,0,0:0:0:0:
64,192,63054,1,0,0:0:0:0:
448,192,63167,1,0,0:0:0:0:
320,192,63167,1,0,0:0:0:0:
448,192,63280,1,0,0:0:0:0:
320,192,63280,1,0,0:0:0:0:
192,192,63393,1,0,0:0:0:0:
64,192,63393,1,0,0:0:0:0:
192,192,63505,1,0,0:0:0:0:
64,192,63505,1,0,0:0:0:0:
448,192,63618,1,0,0:0:0:0:
320,192,63618,1,0,0:0:0:0:
448,192,63731,1,0,0:0:0:0:
320,192,63731,1,0,0:0:0:0:
192,192,63844,1,0,0:0:0:0:
64,192,63844,1,0,0:0:0:0:
320,192,63900,1,0,0:0:0:0:
448,192,63957,1,0,0:0:0:0:
192,192,64013,1,0,0:0:0:0:
320,192,64069,1,0,0:0:0:0:
64,192,64126,1,0,0:0:0:0:
192,192,64182,1,0,0:0:0:0:
320,192,64239,1,0,0:0:0:0:
64,192,64295,1,0,0:0:0:0:
448,192,64351,1,0,0:0:0:0:
320,192,64408,1,0,0:0:0:0:
192,192,64464,1,0,0:0:0:0:
448,192,64521,1,0,0:0:0:0:
64,192,64577,1,0,0:0:0:0:
192,192,64633,1,0,0:0:0:0:
320,192,64690,1,0,0:0:0:0:
64,192,64746,1,0,0:0:0:0:
448,192,64802,1,0,0:0:0:0:
320,192,64859,1,0,0:0:0:0:
192,192,64915,1,0,0:0:0:0:
448,192,64972,1,0,0:0:0:0:
320,192,64972,1,0,0:0:0:0:
64,192,64972,1,0,0:0:0:0:
448,192,65084,1,0,0:0:0:0:
320,192,65084,1,0,0:0:0:0:
192,192,65197,1,0,0:0:0:0:
64,192,65197,1,0,0:0:0:0:
192,192,65310,1,0,0:0:0:0:
64,192,65310,1,0,0:0:0:0:
448,192,65423,1,0,0:0:0:0:
320,192,65423,1,0,0:0:0:0:
448,192,65536,1,0,0:0:0:0:
320,192,65536,1,0,0:0:0:0:
448,192,65648,1,0,0:0:0:0:
192,192,65648,1,0,0:0:0:0:
64,192,65648,1,0,0:0:0:0:
448,192,65761,1,0,0:0:0:0:
192,192,65761,1,0,0:0:0:0:
64,192,65761,1,0,0:0:0:0:
320,192,65874,1,0,0:0:0:0:
448,192,65874,1,0,0:0:0:0:
64,192,65874,1,0,0:0:0:0:
192,192,65874,1,0,0:0:0:0:
