osu file format v14

[General]
AudioFilename: audio.mp3
AudioLeadIn: 0
PreviewTime: 51325
Countdown: 0
SampleSet: Soft
StackLeniency: 0.7
Mode: 3
LetterboxInBreaks: 0
SpecialStyle: 0
WidescreenStoryboard: 1

[Editor]
DistanceSpacing: 1.2
BeatDivisor: 4
GridSize: 4
TimelineZoom: 1.2

[Metadata]
Title:Fast Track to Browntown
TitleUnicode:Fast Track to Browntown
Artist:dB soundworks
ArtistUnicode:dB soundworks
Creator:Level 51
Version:Easy
Source:Super Meat Boy
Tags:danny daniel baranowsky
BeatmapID:1132154
BeatmapSetID:534488

[Difficulty]
HPDrainRate:6.5
CircleSize:4
OverallDifficulty:6
ApproachRate:5
SliderMultiplier:1.4
SliderTickRate:1

[Events]
//Background and Video events
0,0,"smb_extreme.png",0,0
//Break Periods
//Storyboard Layer 0 (Background)
//Storyboard Layer 1 (Fail)
//Storyboard Layer 2 (Pass)
//Storyboard Layer 3 (Foreground)
//Storyboard Sound Samples

[TimingPoints]
912,225.563909774436,4,2,1,30,1,0
15348,-100,4,2,1,30,0,1
29784,-100,4,2,1,30,0,0
51438,-100,4,2,1,30,0,1
58599,-100,4,2,1,30,0,0
58656,-100,4,2,1,30,0,1
65818,-100,4,2,1,30,0,0
65874,-100,4,2,1,30,0,1
65930,-100,4,2,1,30,0,0

[HitObjects]
448,192,912,5,0,0:0:0:0:
192,192,1137,1,0,0:0:0:0:
320,192,1363,1,0,0:0:0:0:
320,192,1588,1,0,0:0:0:0:
64,192,1814,1,0,0:0:0:0:
320,192,2039,1,0,0:0:0:0:
192,192,2265,1,0,0:0:0:0:
192,192,2490,1,0,0:0:0:0:
320,192,2716,1,0,0:0:0:0:
64,192,2942,1,0,0:0:0:0:
448,192,3167,1,0,0:0:0:0:
448,192,3393,1,0,0:0:0:0:
192,192,3618,1,0,0:0:0:0:
448,192,3844,1,0,0:0:0:0:
64,192,4069,1,0,0:0:0:0:
64,192,4295,1,0,0:0:0:0:
320,192,4521,1,0,0:0:0:0:
192,192,4746,1,0,0:0:0:0:
448,192,4972,1,0,0:0:0:0:
448,192,5197,1,0,0:0:0:0:
192,192,5423,1,0,0:0:0:0:
320,192,5648,1,0,0:0:0:0:
64,192,5874,1,0,0:0:0:0:
64,192,6099,1,0,0:0:0:0:
448,192,6325,1,0,0:0:0:0:
192,192,6551,1,0,0:0:0:0:
320,192,6776,1,0,0:0:0:0:
320,192,7002,1,0,0:0:0:0:
64,192,7227,1,0,0:0:0:0:
320,192,7453,1,0,0:0:0:0:
192,192,7678,1,0,0:0:0:0:
192,192,7904,1,0,0:0:0:0:
320,192,8130,1,0,0:0:0:0:
448,192,8130,1,0,0:0:0:0:
192,192,8355,1,0,0:0:0:0:
64,192,8468,1,0,0:0:0:0:
192,192,9032,1,0,0:0:0:0:
448,192,9257,1,0,0:0:0:0:
320,192,9370,1,0,0:0:0:0:
64,192,9708,1,0,0:0:0:0:
448,192,9934,1,0,0:0:0:0:
192,192,10160,1,0,0:0:0:0:
64,192,10272,1,0,0:0:0:0:
192,192,10836,1,0,0:0:0:0:
448,192,11062,1,0,0:0:0:0:
320,192,11175,1,0,0:0:0:0:
64,192,11739,1,0,0:0:0:0:
320,192,11964,1,0,0:0:0:0:
448,192,12077,1,0,0:0:0:0:
320,192,12641,1,0,0:0:0:0:
64,192,12866,1,0,0:0:0:0:
192,192,12979,1,0,0:0:0:0:
448,192,13318,1,0,0:0:0:0:
64,192,13543,1,0,0:0:0:0:
320,192,13769,1,0,0:0:0:0:
448,192,13881,1,0,0:0:0:0:
448,192,14445,1,0,0:0:0:0:
64,192,14671,1,0,0:0:0:0:
192,192,14784,1,0,0:0:0:0:
320,192,14896,1,0,0:0:0:0:
64,192,15122,1,0,0:0:0:0:
320,192,15348,1,0,0:0:0:0:
320,192,15573,1,0,0:0:0:0:
192,192,15799,1,0,0:0:0:0:
192,192,16024,1,0,0:0:0:0:
448,192,16250,1,0,0:0:0:0:
320,192,16475,1,0,0:0:0:0:
192,192,16701,1,0,0:0:0:0:
64,192,16927,1,0,0:0:0:0:
320,192,17152,1,0,0:0:0:0:
320,192,17378,1,0,0:0:0:0:
64,192,17603,1,0,0:0:0:0:
64,192,17829,1,0,0:0:0:0:
192,192,18054,1,0,0:0:0:0:
192,192,18280,1,0,0:0:0:0:
448,192,18505,1,0,0:0:0:0:
448,192,18731,1,0,0:0:0:0:
320,192,18957,1,0,0:0:0:0:
192,192,19069,1,0,0:0:0:0:
64,192,19182,128,0,19690:0:0:0:0:
320,192,19690,128,0,20761:0:0:0:0:
448,192,20761,1,0,0:0:0:0:
64,192,20987,1,0,0:0:0:0:
448,192,21212,1,0,0:0:0:0:
64,192,21438,1,0,0:0:0:0:
448,192,21663,1,0,0:0:0:0:
320,192,21889,1,0,0:0:0:0:
192,192,22115,1,0,0:0:0:0:
64,192,22340,1,0,0:0:0:0:
320,192,22566,1,0,0:0:0:0:
320,192,22904,1,0,0:0:0:0:
192,192,23242,1,0,0:0:0:0:
448,192,23468,1,0,0:0:0:0:
320,192,23693,1,0,0:0:0:0:
192,192,23919,1,0,0:0:0:0:
64,192,24145,1,0,0:0:0:0:
192,192,24370,1,0,0:0:0:0:
320,192,24596,1,0,0:0:0:0:
64,192,24821,1,0,0:0:0:0:
448,192,25047,1,0,0:0:0:0:
320,192,25272,1,0,0:0:0:0:
192,192,25498,1,0,0:0:0:0:
448,192,25724,1,0,0:0:0:0:
64,192,25949,1,0,0:0:0:0:
192,192,26175,1,0,0:0:0:0:
320,192,26400,1,0,0:0:0:0:
448,192,26626,1,0,0:0:0:0:
64,192,26851,1,0,0:0:0:0:
192,192,27077,1,0,0:0:0:0:
320,192,27302,1,0,0:0:0:0:
448,192,27528,1,0,0:0:0:0:
64,192,27754,1,0,0:0:0:0:
448,192,27979,128,0,28881:0:0:0:0:
64,192,28881,128,0,29784:0:0:0:0:
448,192,29784,1,0,0:0:0:0:
320,192,29784,1,0,0:0:0:0:
64,192,30235,1,0,0:0:0:0:
192,192,30235,1,0,0:0:0:0:
320,192,30686,1,0,0:0:0:0:
448,192,30686,1,0,0:0:0:0:
320,192,31137,1,0,0:0:0:0:
64,192,31137,1,0,0:0:0:0:
448,192,31588,1,0,0:0:0:0:
192,192,31588,1,0,0:0:0:0:
64,192,32039,1,0,0:0:0:0:
448,192,32039,1,0,0:0:0:0:
320,192,32490,1,0,0:0:0:0:
192,192,32490,1,0,0:0:0:0:
320,192,32942,1,0,0:0:0:0:
64,192,32942,1,0,0:0:0:0:
448,192,33393,1,0,0:0:0:0:
192,192,33393,1,0,0:0:0:0:
448,192,33844,1,0,0:0:0:0:
320,192,33844,1,0,0:0:0:0:
192,192,34295,1,0,0:0:0:0:
64,192,34295,1,0,0:0:0:0:
320,192,34746,1,0,0:0:0:0:
64,192,34746,1,0,0:0:0:0:
448,192,35197,1,0,0:0:0:0:
192,192,35197,1,0,0:0:0:0:
448,192,35648,1,0,0:0:0:0:
320,192,35648,1,0,0:0:0:0:
192,192,36099,1,0,0:0:0:0:
64,192,36099,1,0,0:0:0:0:
448,192,36325,1,0,0:0:0:0:
192,192,36551,1,0,0:0:0:0:
320,192,36776,1,0,0:0:0:0:
192,192,37002,128,0,38355:0:0:0:0:
64,192,38355,128,0,38806:0:0:0:0:
320,192,38806,128,0,39708:0:0:0:0:
192,192,39708,128,0,40160:0:0:0:0:
320,192,40160,128,0,40385:0:0:0:0:
448,192,40385,128,0,40611:0:0:0:0:
192,192,40611,128,0,41964:0:0:0:0:
64,192,41964,128,0,42415:0:0:0:0:
192,192,42415,128,0,43318:0:0:0:0:
320,192,43318,128,0,43769:0:0:0:0:
448,192,43769,128,0,44220:0:0:0:0:
192,192,44220,128,0,45122:0:0:0:0:
320,192,45122,128,0,46024:0:0:0:0:
64,192,46024,1,0,0:0:0:0:
192,192,46250,1,0,0:0:0:0:
320,192,46475,1,0,0:0:0:0:
448,192,46701,1,0,0:0:0:0:
64,192,46927,1,0,0:0:0:0:
448,192,47152,1,0,0:0:0:0:
320,192,47378,1,0,0:0:0:0:
192,192,47603,1,0,0:0:0:0:
320,192,47829,128,0,48731:0:0:0:0:
64,192,48731,128,0,49633:0:0:0:0:
192,192,49633,128,0,50536:0:0:0:0:
320,192,50536,128,0,50987:0:0:0:0:
448,192,50987,128,0,51438:0:0:0:0:
192,192,51438,1,0,0:0:0:0:
64,192,51438,1,0,0:0:0:0:
320,192,51663,1,0,0:0:0:0:
448,192,51889,1,0,0:0:0:0:
64,192,52115,1,0,0:0:0:0:
320,192,52340,1,0,0:0:0:0:
192,192,52566,1,0,0:0:0:0:
448,192,52791,1,0,0:0:0:0:
320,192,53017,1,0,0:0:0:0:
192,192,53242,1,0,0:0:0:0:
64,192,53468,1,0,0:0:0:0:
320,192,53693,1,0,0:0:0:0:
448,192,53919,1,0,0:0:0:0:
192,192,54145,1,0,0:0:0:0:
64,192,54370,1,0,0:0:0:0:
192,192,54596,1,0,0:0:0:0:
320,192,54821,1,0,0:0:0:0:
448,192,55047,1,0,0:0:0:0:
320,192,55272,1,0,0:0:0:0:
192,192,55498,1,0,0:0:0:0:
64,192,55724,1,0,0:0:0:0:
320,192,55949,1,0,0:0:0:0:
192,192,56175,1,0,0:0:0:0:
448,192,56400,1,0,0:0:0:0:
320,192,56626,1,0,0:0:0:0:
64,192,56851,1,0,0:0:0:0:
192,192,57077,1,0,0:0:0:0:
320,192,57302,1,0,0:0:0:0:
448,192,57528,1,0,0:0:0:0:
192,192,57754,1,0,0:0:0:0:
320,192,57979,1,0,0:0:0:0:
64,192,58205,1,0,0:0:0:0:
448,192,58430,1,0,0:0:0:0:
192,192,58656,1,0,0:0:0:0:
320,192,58881,1,0,0:0:0:0:
192,192,59107,1,0,0:0:0:0:
320,192,59333,1,0,0:0:0:0:
64,192,59558,1,0,0:0:0:0:
448,192,59784,1,0,0:0:0:0:
64,192,60009,1,0,0:0:0:0:
448,192,60235,1,0,0:0:0:0:
320,192,60460,1,0,0:0:0:0:
64,192,60686,1,0,0:0:0:0:
320,192,60911,1,0,0:0:0:0:
64,192,61137,1,0,0:0:0:0:
448,192,61363,1,0,0:0:0:0:
192,192,61588,1,0,0:0:0:0:
448,192,61814,1,0,0:0:0:0:
192,192,62039,1,0,0:0:0:0:
448,192,62265,1,0,0:0:0:0:
448,192,62490,1,0,0:0:0:0:
64,192,62716,1,0,0:0:0:0:
64,192,62942,1,0,0:0:0:0:
320,192,63167,1,0,0:0:0:0:
320,192,63393,1,0,0:0:0:0:
192,192,63618,1,0,0:0:0:0:
192,192,63844,1,0,0:0:0:0:
448,192,64069,1,0,0:0:0:0:
320,192,64295,1,0,0:0:0:0:
192,192,64521,1,0,0:0:0:0:
64,192,64746,1,0,0:0:0:0:
448,192,64972,1,0,0:0:0:0:
320,192,65197,1,0,0:0:0:0:
192,192,65423,1,0,0:0:0:0:
64,192,65648,1,0,0:0:0:0:
320,192,65874,1,0,0:0:0:0:
448,192,65874,1,0,0:0:0:0:
