osu file format v14

[General]
AudioFilename: audio.mp3
AudioLeadIn: 0
PreviewTime: 3496
Countdown: 0
SampleSet: Soft
StackLeniency: 0.7
Mode: 0
LetterboxInBreaks: 0
WidescreenStoryboard: 1

[Editor]
DistanceSpacing: 1
BeatDivisor: 4
GridSize: 16
TimelineZoom: 1

[Metadata]
Title:Shinseki Yomotsu Hirasaka Ifuyasaka Densetsu
TitleUnicode:神蹟黄泉比良坂伊賦夜坂伝説
Artist:cygnus
ArtistUnicode:cygnus
Creator:Mirash
Version:Normal
Source:
Tags:matrix pandahero cry for the infinity electronic gothic trance instrumental
BeatmapID:4029216
BeatmapSetID:1947301

[Difficulty]
HPDrainRate:4
CircleSize:3.5
OverallDifficulty:5
ApproachRate:5
SliderMultiplier:1.2
SliderTickRate:0.5

[Events]
//Background and Video events
0,0,"ceiling-2834408.jpg",0,0
//Break Periods
//Storyboard Layer 0 (Background)
//Storyboard Layer 1 (Fail)
//Storyboard Layer 2 (Pass)
//Storyboard Layer 3 (Foreground)
//Storyboard Layer 4 (Overlay)
//Storyboard Sound Samples

[TimingPoints]
3731,468.75,4,2,1,40,1,0
4199,-100,4,2,1,30,0,0
11231,-100,4,2,1,35,0,0
18731,-100,4,2,1,45,0,0
25762,-100,4,2,1,50,0,0
26231,-100,4,2,1,65,0,0
33731,-100,4,2,1,70,0,0
41231,-100,4,2,1,60,0,0
48731,-100,4,2,1,70,0,0
62676,-100,4,2,1,90,0,0
63731,-100,4,2,1,80,0,0
74981,-100,4,2,1,70,0,0
78965,-100,4,2,1,35,0,0
86231,-200,4,2,1,25,0,0
89981,-200,4,2,1,20,0,0
91856,-200,4,2,1,15,0,0
93731,-200,4,2,1,40,0,0
95606,-200,4,2,1,10,0,0

[Colours]
Combo1 : 9,153,208
Combo2 : 197,192,39
Combo3 : 78,154,158

[HitObjects]
117,95,3731,6,0,P|162:98|250:98,1,120,4|0,1:0|0:0,0:0:0:0:
337,33,4668,1,2,0:0:0:0:
337,33,4902,1,0,0:0:0:0:
461,170,5605,1,0,0:0:0:0:
461,170,5840,2,0,P|462:194|463:247,1,60,0|2,0:0|0:0,0:0:0:0:
365,299,6543,1,2,0:0:0:0:
365,299,6777,2,0,P|293:295|235:291,1,120,0|0,0:0|0:0,0:0:0:0:
199,252,7481,6,0,P|151:251|132:250,2,60,2|0|0,0:0|0:0|0:0,0:0:0:0:
278,161,8418,1,2,0:0:0:0:
278,161,8652,1,0,0:0:0:0:
166,116,9121,1,0,0:0:0:0:
166,116,9356,2,0,P|168:74|167:47,1,60,2|0,0:0|0:0,0:0:0:0:
129,10,9824,1,0,0:0:0:0:
129,10,10059,1,0,0:0:0:0:
76,39,10293,2,0,P|39:42|9:41,1,60,2|0,0:0|0:0,0:0:0:0:
109,195,11231,6,0,P|115:257|126:328,1,120,4|0,0:0|0:0,0:0:0:0:
168,354,11934,1,0,0:0:0:0:
217,320,12168,2,0,P|209:280|202:255,1,60,0|2,0:0|0:0,0:0:0:0:
369,189,13106,1,2,0:0:0:0:
417,153,13340,1,0,0:0:0:0:
392,98,13574,2,0,P|343:97|259:93,1,120,0|2,0:0|0:0,0:0:0:0:
220,62,14277,1,0,0:0:0:0:
121,130,14746,5,0,0:0:0:0:
61,118,14981,2,0,P|46:172|37:196,1,60,2|0,0:0|0:0,0:0:0:0:
20,230,15449,2,0,P|41:289|64:355,1,120,0|0,0:0|0:0,0:0:0:0:
111,374,16152,1,2,0:0:0:0:
214,313,16621,1,0,0:0:0:0:
267,338,16856,2,0,P|297:334|327:328,1,60,2|0,0:0|0:0,0:0:0:0:
366,283,17324,1,0,0:0:0:0:
366,283,17559,1,0,0:0:0:0:
399,233,17793,2,0,P|428:238|458:242,1,60,2|0,0:0|0:0,0:0:0:0:
355,93,18731,6,0,P|310:98|223:105,1,120,6|8,0:0|1:1,0:0:0:0:
184,71,19434,1,0,1:0:0:0:
137,108,19668,2,0,P|141:157|140:182,2,60,0|0|8,0:0|1:0|1:0,0:0:0:0:
19,83,20606,2,0,P|17:32|15:13,2,60,0|0|8,3:0|0:0|1:0,0:0:0:0:
1,140,21309,1,0,1:0:0:0:
42,182,21543,2,0,P|28:230|23:244,1,60,0|0,0:0|1:0,0:0:0:0:
0,294,22012,1,8,1:0:0:0:
41,337,22246,1,8,1:0:0:0:
98,318,22481,5,4,1:0:0:0:
172,224,22949,1,8,1:0:0:0:
271,309,23418,1,0,0:0:0:0:
271,309,23652,1,0,1:0:0:0:
271,309,23887,1,8,1:0:0:0:
366,236,24356,2,0,P|366:187|364:158,1,60,4|0,3:2|0:0,0:0:0:0:
319,137,24824,1,8,1:0:0:0:
319,137,25059,1,0,1:0:0:0:
354,88,25293,2,0,P|354:39|356:10,1,60,0|0,0:0|1:0,0:0:0:0:
409,2,25762,1,12,1:0:0:0:
495,84,26231,6,0,P|491:128|491:211,1,120,6|8,1:0|1:0,0:0:0:0:
439,235,26934,1,0,1:0:0:0:
379,242,27168,2,0,P|379:182|374:122,1,120,0|8,0:0|1:0,0:0:0:0:
272,186,28106,1,8,1:3:0:0:
230,143,28340,1,0,0:0:0:0:
175,168,28574,1,8,1:0:0:0:
129,128,28809,1,0,1:0:0:0:
69,129,29043,2,0,P|35:144|10:154,2,60,0|0|8,0:0|1:0|1:0,0:0:0:0:
117,18,29981,6,0,P|170:31|245:35,1,120,14|8,1:3|1:0,0:0:0:0:
274,80,30684,2,0,P|327:93|402:97,1,120,14|0,1:3|1:0,0:0:0:0:
447,73,31387,1,8,1:0:0:0:
473,126,31621,1,4,3:0:0:0:
428,165,31856,2,0,P|420:207|417:234,1,60,8|0,1:3|0:0,0:0:0:0:
256,192,32324,12,8,33731,1:0:0:0:
254,39,34668,5,8,1:0:0:0:
254,39,34902,1,8,1:0:0:0:
131,171,35606,2,0,P|138:221|147:305,1,120,4|8,0:1|0:3,0:0:0:0:
253,353,36543,1,8,1:0:0:0:
253,353,36777,1,8,1:0:0:0:
404,255,37481,6,0,P|410:195|418:135,1,120,6|4,1:0|0:0,0:0:0:0:
359,147,38184,2,0,P|365:87|373:27,2,120,4|8|2,1:2|1:0|0:0,0:0:0:0:
307,177,39356,1,2,0:0:0:0:
207,110,39824,1,8,1:0:0:0:
120,193,40293,1,8,1:0:0:0:
120,193,40527,1,8,1:0:0:0:
60,204,40762,2,0,B|19:186|19:186|47:100,1,120,0|4,3:0|1:0,0:0:0:0:
161,98,41699,5,4,0:0:0:0:
251,19,42168,1,8,1:0:0:0:
251,19,42402,1,8,1:0:0:0:
251,19,42637,1,0,3:0:0:0:
340,98,43106,2,0,P|337:146|341:229,1,120,4|8,0:1|1:0,0:0:0:0:
280,210,43809,1,8,0:3:0:0:
239,253,44043,2,0,P|242:301|238:384,1,120,8|0,1:0|3:0,0:0:0:0:
140,303,44981,6,0,P|137:243|140:183,1,120,4|0,1:0|0:0,0:0:0:0:
80,172,45684,2,0,P|77:112|80:52,1,120,4|8,0:2|1:0,0:0:0:0:
131,20,46387,1,0,3:0:0:0:
131,20,46621,1,0,3:0:0:0:
183,49,46856,2,0,P|220:40|250:35,1,60,4|2,1:2|0:0,0:0:0:0:
295,63,47324,1,8,1:0:0:0:
402,9,47793,2,0,B|439:15|439:15|388:105|388:105|429:119,1,180,12|12,1:0|3:0,0:0:0:0:
464,164,48731,6,0,P|446:203|442:226,1,60,4|2,1:0|3:0,0:0:0:0:
386,238,49199,1,0,0:0:0:0:
433,348,49668,1,8,1:0:0:0:
433,348,49902,1,8,1:0:0:0:
314,366,50371,1,6,3:0:0:0:
267,328,50606,2,0,P|219:328|135:320,1,120,8|8,3:3|1:0,0:0:0:0:
34,362,51543,1,8,1:0:0:0:
34,362,51777,1,8,1:0:0:0:
34,362,52012,2,0,P|17:311|13:289,1,60,4|12,3:0|3:0,0:0:0:0:
61,266,52481,6,0,P|71:220|78:142,1,120,14|0,1:0|0:0,0:0:0:0:
137,153,53184,2,0,P|147:107|154:29,1,120,2|8,1:1|1:0,0:0:0:0:
104,0,53887,1,6,3:0:0:0:
245,0,54356,1,8,3:0:0:0:
245,0,54590,1,8,3:0:0:0:
245,0,54824,2,0,P|289:8|370:24,1,120,8|8,1:0|1:0,0:0:0:0:
378,80,55527,1,8,1:0:0:0:
437,69,55762,2,0,P|454:111|458:136,1,60,12|12,3:0|3:0,0:0:0:0:
420,172,56231,6,0,P|397:226|385:294,1,120,4|8,1:0|1:0,0:0:0:0:
299,370,57168,1,8,1:0:0:0:
249,335,57402,1,0,1:0:0:0:
196,363,57637,2,0,P|119:351|52:346,1,120,12|8,1:0|1:3,0:0:0:0:
11,246,58574,1,8,1:0:0:0:
102,168,59043,1,8,1:0:0:0:
128,114,59277,1,0,1:0:0:0:
82,74,59512,1,8,1:0:0:0:
37,114,59746,1,8,1:0:0:0:
50,172,59981,6,0,P|117:169|182:167,1,120,6|8,1:0|1:0,0:0:0:0:
229,173,60684,2,0,P|296:176|361:178,1,120,2|4,1:1|3:0,0:0:0:0:
408,185,61387,1,8,1:0:0:0:
495,102,61856,1,12,3:0:0:0:
438,82,62090,1,8,1:0:0:0:
439,22,62324,2,0,P|357:28|307:31,1,120,8|12,1:0|1:0,0:0:0:0:
271,66,63027,1,12,1:0:0:0:
216,40,63262,1,4,1:2:0:0:
165,72,63496,1,8,1:0:0:0:
106,58,63731,5,12,1:0:0:0:
31,151,64199,2,0,P|34:209|39:278,1,120,8|0,1:0|1:0,0:0:0:0:
85,307,64902,1,0,1:0:0:0:
43,350,65137,1,8,1:0:0:0:
162,364,65606,2,0,P|213:341|242:327,1,60,14|0,3:0|3:0,0:0:0:0:
228,280,66074,2,0,P|286:285|359:290,1,120,10|0,1:0|1:0,0:0:0:0:
401,262,66777,1,0,1:0:0:0:
450,296,67012,1,10,1:0:0:0:
358,375,67481,6,0,P|300:380|227:385,1,120,6|8,1:0|1:0,0:0:0:0:
205,334,68184,2,0,P|147:339|74:344,1,120,2|0,3:1|1:0,0:0:0:0:
27,360,68887,1,8,1:0:0:0:
12,240,69356,2,0,P|20:192|21:154,1,60,14|2,3:0|3:0,0:0:0:0:
66,141,69824,1,8,1:0:0:0:
30,26,70293,1,10,1:0:0:0:
88,37,70527,1,0,1:0:0:0:
139,5,70762,1,10,1:0:0:0:
198,13,70996,1,14,3:0:0:0:
249,43,71231,6,0,P|320:60|376:63,1,120,4|8,1:0|1:0,0:0:0:0:
448,150,72168,2,0,P|432:201|427:225,1,60,2|2,1:0|3:0,0:0:0:0:
421,266,72637,2,0,P|387:254|354:246,1,60,8|8,1:0|1:3,0:0:0:0:
304,260,73106,1,4,1:0:0:0:
193,306,73574,1,12,1:0:0:0:
108,220,74043,5,4,1:0:0:0:
125,162,74277,1,4,1:2:0:0:
185,163,74512,1,8,1:0:0:0:
243,177,74746,1,12,3:0:0:0:
265,121,74981,2,0,P|260:76|255:-6,1,120,6|8,1:0|1:0,0:0:0:0:
197,18,75684,1,2,1:0:0:0:
137,17,75918,2,0,P|75:14|59:13,2,60,12|12|8,3:0|3:0|1:0,0:0:0:0:
315,64,76856,6,0,B|361:85|361:85|426:39|426:39|470:68,1,180,4|12,1:0|3:0,0:0:0:0:
474,125,77793,6,0,B|428:146|428:146|363:100|363:100|319:129,1,180,0|10,1:0|3:0,0:0:0:0:
308,186,78731,5,4,0:1:0:0:
309,305,79199,1,0,0:0:0:0:
192,312,79668,1,2,0:0:0:0:
192,312,79902,2,0,P|195:261|196:125,1,180,0|0,0:0|0:0,0:0:0:0:
139,113,80840,2,0,P|142:75|145:50,1,60,2|0,0:0|0:0,0:0:0:0:
253,2,81543,1,0,0:0:0:0:
253,2,81777,2,0,P|256:31|251:139,1,120,2|2,0:0|0:0,0:0:0:0:
291,168,82481,6,0,P|288:212|290:243,2,60,0|2|0,0:0|0:0|0:0,0:0:0:0:
409,146,83418,1,0,0:0:0:0:
409,146,83652,1,2,0:0:0:0:
343,45,84121,1,0,0:0:0:0:
343,45,84356,2,0,P|392:34|412:31,2,60,0|2|0,0:0|0:0|0:0,0:0:0:0:
318,162,85293,2,0,P|269:151|249:148,1,60,2|2,0:0|0:0,0:0:0:0:
143,123,85996,5,2,0:0:0:0:
143,123,86231,2,0,P|145:185|138:370,3,240,4|4|4|4,0:0|0:0|0:0|0:0,0:0:0:0:
256,192,92090,12,0,95606,3:0:0:0:
