osu file format v14

[General]
AudioFilename: audio.mp3
AudioLeadIn: 0
PreviewTime: 3496
Countdown: 0
SampleSet: Soft
StackLeniency: 0.7
Mode: 0
LetterboxInBreaks: 0
WidescreenStoryboard: 1

[Editor]
DistanceSpacing: 0.9
BeatDivisor: 4
GridSize: 16
TimelineZoom: 1

[Metadata]
Title:Shinseki Yomotsu Hirasaka Ifuyasaka Densetsu
TitleUnicode:神蹟黄泉比良坂伊賦夜坂伝説
Artist:cygnus
ArtistUnicode:cygnus
Creator:Mirash
Version:Hard
Source:
Tags:matrix pandahero cry for the infinity electronic gothic trance instrumental
BeatmapID:4029215
BeatmapSetID:1947301

[Difficulty]
HPDrainRate:5
CircleSize:4
OverallDifficulty:6
ApproachRate:7
SliderMultiplier:1.4
SliderTickRate:0.5

[Events]
//Background and Video events
0,0,"ceiling-2834408.jpg",0,0
//Break Periods
//Storyboard Layer 0 (Background)
//Storyboard Layer 1 (Fail)
//Storyboard Layer 2 (Pass)
//Storyboard Layer 3 (Foreground)
//Storyboard Layer 4 (Overlay)
//Storyboard Sound Samples

[TimingPoints]
3731,468.75,4,2,1,40,1,0
3731,-133.333333333333,4,2,1,40,0,0
4199,-133.333333333333,4,2,1,30,0,0
11231,-133.333333333333,4,2,1,35,0,0
18731,-133.333333333333,4,2,1,45,0,0
25762,-133.333333333333,4,2,1,50,0,0
26231,-100,4,2,1,65,0,0
33731,-100,4,2,1,70,0,0
37012,-133.333333333333,4,2,1,70,0,0
37481,-100,4,2,1,70,0,0
41231,-100,4,2,1,60,0,0
48731,-100,4,2,1,70,0,0
62676,-100,4,2,1,90,0,0
63731,-100,4,2,1,80,0,0
74981,-100,4,2,1,70,0,0
78965,-100,4,2,1,35,0,0
79902,-133.333333333333,4,2,1,35,0,0
86231,-133.333333333333,4,2,1,25,0,0
89981,-133.333333333333,4,2,1,20,0,0
91856,-133.333333333333,4,2,1,15,0,0
93731,-133.333333333333,4,2,1,40,0,0

[Colours]
Combo1 : 9,153,208
Combo2 : 197,192,39
Combo3 : 78,154,158

[HitObjects]
409,92,3731,6,0,P|410:155|411:214,1,105.000004005432,4|0,1:0|0:0,0:0:0:0:
363,290,4668,1,2,0:0:0:0:
363,290,4902,2,0,P|317:285|195:278,1,157.500006008148,0|0,0:0|0:0,0:0:0:0:
140,315,5840,1,0,0:0:0:0:
108,243,6074,1,2,0:0:0:0:
211,137,6543,1,2,0:0:0:0:
211,137,6777,2,0,P|209:84|211:12,1,105.000004005432,0|0,0:0|0:0,0:0:0:0:
133,78,7481,6,0,P|97:77|66:75,1,52.5000020027161,2|0,0:0|0:0,0:0:0:0:
11,42,7949,2,0,P|8:97|16:158,1,105.000004005432,0|2,0:0|0:0,0:0:0:0:
16,222,8652,1,0,0:0:0:0:
137,354,9121,1,0,0:0:0:0:
197,310,9356,2,0,P|252:316|271:318,1,52.5000020027161,2|0,0:0|0:0,0:0:0:0:
325,297,9824,1,0,0:0:0:0:
325,297,10059,1,0,0:0:0:0:
371,362,10293,1,2,0:0:0:0:
371,362,10527,2,0,P|420:359|482:358,1,105.000004005432,0|0,0:0|0:0,0:0:0:0:
509,265,11231,5,4,0:0:0:0:
396,193,11699,1,0,0:0:0:0:
497,105,12168,1,0,0:0:0:0:
497,105,12402,2,0,P|495:71|491:-7,1,105.000004005432,2|0,0:0|0:0,0:0:0:0:
423,37,13106,6,0,P|378:32|357:29,1,52.5000020027161,2|0,0:0|0:0,0:0:0:0:
305,64,13574,1,0,0:0:0:0:
133,14,14043,1,2,0:0:0:0:
79,69,14277,2,0,P|52:66|26:63,1,52.5000020027161,0|0,0:0|0:0,0:0:0:0:
39,137,14746,1,0,0:0:0:0:
111,187,14981,6,0,P|149:182|171:179,1,52.5000020027161,2|0,0:0|0:0,0:0:0:0:
220,127,15449,2,0,P|265:135|326:140,1,105.000004005432,0|0,0:0|0:0,0:0:0:0:
329,217,16152,2,0,P|276:221|224:229,1,105.000004005432,2|0,0:0|0:0,0:0:0:0:
164,271,16856,1,2,0:0:0:0:
221,329,17090,1,0,0:0:0:0:
221,329,17324,1,0,0:0:0:0:
272,274,17559,1,0,0:0:0:0:
219,216,17793,2,0,P|215:180|209:155,1,52.5000020027161,2|0,0:0|0:0,0:0:0:0:
225,91,18262,2,0,P|229:55|235:30,1,52.5000020027161,0|0,0:0|0:0,0:0:0:0:
135,83,18731,5,6,0:0:0:0:
58,64,18965,1,0,0:0:0:0:
25,135,19199,1,8,1:1:0:0:
25,135,19434,1,0,1:0:0:0:
61,203,19668,2,0,P|71:237|77:263,1,52.5000020027161,0|0,0:0|1:0,0:0:0:0:
51,327,20137,1,8,1:0:0:0:
226,261,20606,5,0,3:0:0:0:
228,185,20840,1,0,0:0:0:0:
304,181,21074,2,0,P|346:190|375:196,1,52.5000020027161,8|0,1:0|1:0,0:0:0:0:
424,160,21543,1,0,0:0:0:0:
441,86,21777,2,0,P|415:80|389:75,1,52.5000020027161,0|8,1:0|1:0,0:0:0:0:
295,12,22246,1,8,1:0:0:0:
217,128,22481,6,0,P|256:127|283:127,1,52.5000020027161,4|0,1:0|1:0,0:0:0:0:
331,174,22949,2,0,P|323:205|314:282,1,105.000004005432,8|0,1:0|0:0,0:0:0:0:
256,324,23652,1,0,1:0:0:0:
195,279,23887,1,8,1:0:0:0:
222,210,24121,1,0,0:0:0:0:
121,255,24356,6,0,P|79:242|57:238,1,52.5000020027161,4|0,3:2|0:0,0:0:0:0:
27,179,24824,1,8,1:0:0:0:
0,250,25059,1,0,1:0:0:0:
105,172,25293,2,0,P|95:132|90:105,1,52.5000020027161,0|0,0:0|1:0,0:0:0:0:
19,50,25762,1,12,1:0:0:0:
77,4,25996,1,0,1:0:0:0:
181,58,26231,6,0,P|242:52|328:49,1,140,6|8,1:0|1:0,0:0:0:0:
396,13,26934,1,0,1:0:0:0:
408,95,27168,1,0,0:0:0:0:
335,136,27402,1,0,1:0:0:0:
335,136,27520,1,0,0:0:0:0:
335,136,27637,2,0,P|341:200|345:227,1,70,8|4,1:0|3:0,0:0:0:0:
408,256,28106,5,8,1:3:0:0:
377,333,28340,1,0,0:0:0:0:
316,275,28574,1,8,1:0:0:0:
292,355,28809,1,0,1:0:0:0:
208,357,29043,5,0,0:0:0:0:
184,277,29278,1,0,1:0:0:0:
123,335,29512,1,8,1:0:0:0:
92,258,29746,1,8,1:0:0:0:
202,199,29981,6,0,P|200:146|202:122,1,70,14|0,1:3|0:0,0:0:0:0:
232,56,30449,1,8,1:0:0:0:
341,106,30684,6,0,P|342:140|340:175,1,70,14|0,1:3|0:0,0:0:0:0:
286,227,31152,1,0,1:0:0:0:
324,297,31387,1,8,1:0:0:0:
377,242,31621,1,4,3:0:0:0:
462,274,31856,5,8,1:3:0:0:
462,274,32090,1,0,0:0:0:0:
512,222,32324,1,8,1:0:0:0:
512,222,32559,1,0,1:0:0:0:
256,192,32793,12,0,33731,1:0:0:0:
257,78,34668,5,8,1:0:0:0:
257,78,34902,1,8,1:0:0:0:
256,267,35606,5,4,0:1:0:0:
257,78,36074,1,8,0:3:0:0:
256,267,36543,1,8,1:0:0:0:
256,267,36777,1,8,1:0:0:0:
193,222,37012,2,0,P|201:188|201:163,1,52.5000020027161,2|2,0:0|3:3,0:0:0:0:
260,118,37481,6,0,P|304:122|343:123,1,70,6|0,1:0|0:0,0:0:0:0:
182,294,38184,2,0,P|138:290|99:289,1,70,4|8,1:2|1:0,0:0:0:0:
54,238,38652,1,8,1:0:0:0:
8,298,38887,1,4,0:0:0:0:
8,298,39121,1,2,0:0:0:0:
14,211,39356,6,0,P|14:168|9:129,1,70,2|2,0:0|0:3,0:0:0:0:
69,90,39824,2,0,P|69:47|64:8,1,70,8|8,1:0|0:3,0:0:0:0:
154,67,40293,1,8,1:0:0:0:
130,140,40527,1,8,1:0:0:0:
184,195,40762,5,0,3:0:0:0:
208,190,40879,1,0,3:0:0:0:
232,186,40996,1,0,3:0:0:0:
256,182,41113,1,0,3:0:0:0:
280,179,41231,2,0,P|326:186|362:190,1,70,4|0,1:0|0:0,0:0:0:0:
263,258,41699,2,0,P|309:265|345:269,1,70,4|0,0:0|0:0,0:0:0:0:
381,333,42168,1,8,1:0:0:0:
369,354,42285,1,0,3:0:0:0:
358,376,42402,2,0,P|323:371|288:366,1,70,8|0,1:0|3:0,0:0:0:0:
208,382,42871,5,0,3:0:0:0:
208,382,42988,1,0,3:0:0:0:
208,382,43106,2,0,P|173:377|138:372,1,70,4|0,0:1|1:0,0:0:0:0:
97,303,43574,1,8,1:0:0:0:
36,349,43809,1,8,0:3:0:0:
26,272,44043,1,8,1:0:0:0:
32,248,44160,1,0,3:0:0:0:
38,224,44277,1,8,1:0:0:0:
44,200,44395,1,0,3:0:0:0:
51,176,44512,1,0,3:0:0:0:
19,103,44746,1,0,3:0:0:0:
101,18,44981,6,0,P|136:25|175:32,1,70,4|0,1:0|0:0,0:0:0:0:
209,94,45449,1,0,0:0:0:0:
302,26,45684,6,0,P|337:33|376:40,1,70,4|8,0:2|1:0,0:0:0:0:
390,53,46035,1,0,3:0:0:0:
409,67,46152,1,8,1:0:0:0:
490,37,46387,1,0,3:0:0:0:
502,129,46621,1,0,3:0:0:0:
502,129,46738,1,0,3:0:0:0:
502,129,46856,2,0,P|495:164|488:203,1,70,4|2,1:2|0:0,0:0:0:0:
411,239,47324,1,8,1:0:0:0:
470,308,47559,1,0,1:0:0:0:
394,357,47793,1,12,1:0:0:0:
371,347,47910,1,0,3:0:0:0:
351,339,48027,1,8,1:0:0:0:
331,331,48145,1,0,3:0:0:0:
311,323,48262,2,0,L|269:329,3,35,12|2|12|2,3:0|3:0|3:0|3:0,0:0:0:0:
254,315,48731,6,0,P|250:238|248:218,1,70,4|2,1:0|3:0,0:0:0:0:
191,186,49199,1,0,0:0:0:0:
251,127,49434,1,2,3:0:0:0:
222,48,49668,1,8,1:0:0:0:
222,48,49785,1,0,0:0:0:0:
222,48,49902,1,8,1:0:0:0:
138,55,50137,6,0,P|91:50|59:44,2,70,12|6|8,3:0|3:0|3:3,0:0:0:0:
222,48,50840,1,8,3:0:0:0:
305,55,51074,2,0,P|352:50|384:44,2,70,8|2|8,1:0|3:0|1:0,0:0:0:0:
222,48,51777,1,8,1:0:0:0:
219,132,52012,1,4,3:0:0:0:
223,152,52129,1,0,3:0:0:0:
227,172,52246,1,12,3:0:0:0:
231,192,52363,1,0,3:0:0:0:
235,212,52481,1,14,1:0:0:0:
205,290,52715,5,0,0:0:0:0:
254,357,52949,1,0,0:0:0:0:
333,328,53184,2,0,P|382:321|414:317,2,70,2|8|8,1:1|1:0|1:0,0:0:0:0:
254,357,53887,1,6,3:0:0:0:
170,361,54121,1,4,3:0:0:0:
86,350,54356,6,0,P|39:352|-9:350,1,70,8|8,3:0|3:0,0:0:0:0:
52,269,54824,2,0,P|99:271|147:269,1,70,8|4,1:0|3:0,0:0:0:0:
179,209,55293,1,8,1:0:0:0:
249,254,55527,1,8,1:0:0:0:
316,203,55762,1,12,3:0:0:0:
392,237,55996,1,12,3:0:0:0:
492,191,56231,6,0,P|487:147|485:103,1,70,4|0,1:0|1:0,0:0:0:0:
381,48,56699,2,0,P|378:82|374:117,1,70,8|0,1:0|3:0,0:0:0:0:
296,149,57168,1,8,1:0:0:0:
340,218,57402,1,0,1:0:0:0:
248,301,57637,6,0,P|243:257|241:213,1,70,12|12,1:0|3:0,0:0:0:0:
154,142,58106,1,8,1:3:0:0:
122,219,58340,1,0,1:0:0:0:
40,197,58574,2,0,P|37:231|33:266,1,70,8|12,1:0|3:0,0:0:0:0:
137,382,59043,2,0,P|132:347|130:312,1,70,8|0,1:0|1:0,0:0:0:0:
210,284,59512,1,8,1:0:0:0:
193,201,59746,1,8,1:0:0:0:
101,131,59981,6,0,P|109:78|111:54,1,70,6|0,1:0|1:0,0:0:0:0:
179,13,60449,1,8,1:0:0:0:
333,46,60684,6,0,P|325:99|323:123,1,70,2|8,1:1|1:0,0:0:0:0:
255,164,61152,1,4,3:0:0:0:
316,235,61387,1,8,1:0:0:0:
316,235,61504,1,0,3:0:0:0:
316,235,61621,1,4,3:0:0:0:
384,185,61856,5,12,3:0:0:0:
455,228,62090,1,8,1:0:0:0:
478,147,62324,2,0,P|477:104|474:60,1,70,8|0,1:0|0:0,0:0:0:0:
436,60,62676,1,12,1:0:0:0:
408,28,62793,6,0,P|406:62|405:97,1,70,12|12,1:0|1:0,0:0:0:0:
286,162,63262,1,4,1:2:0:0:
291,189,63379,1,0,0:0:0:0:
297,216,63496,1,8,1:0:0:0:
302,243,63613,1,8,1:0:0:0:
307,270,63731,1,12,1:0:0:0:
228,315,63965,5,0,3:0:0:0:
189,232,64199,1,8,1:0:0:0:
262,178,64434,1,0,0:0:0:0:
307,270,64668,2,0,P|348:261|381:251,1,70,0|0,1:0|1:0,0:0:0:0:
460,358,65137,2,0,P|419:349|386:339,1,70,8|0,1:0|3:0,0:0:0:0:
201,327,65606,6,0,P|151:334|59:361,1,140,14|10,3:0|1:0,0:0:0:0:
65,358,66191,1,0,0:0:0:0:
65,358,66309,1,0,3:0:0:0:
5,289,66543,1,0,1:0:0:0:
67,222,66777,2,0,P|66:174|62:134,1,70,0|10,1:0|1:0,0:0:0:0:
83,62,67246,1,12,3:0:0:0:
189,3,67481,6,0,P|246:10|350:13,1,140,6|8,1:0|1:0,0:0:0:0:
367,129,68184,2,0,P|310:122|206:119,1,140,2|0,3:1|1:0,0:0:0:0:
156,176,68887,2,0,P|157:241|155:275,1,70,8|12,1:0|3:0,0:0:0:0:
208,320,69356,5,14,3:0:0:0:
264,248,69590,1,2,3:0:0:0:
156,176,69824,2,0,P|157:241|155:275,1,70,8|12,1:0|3:0,0:0:0:0:
87,353,70293,5,10,1:0:0:0:
30,244,70527,1,0,1:0:0:0:
156,245,70762,1,10,1:0:0:0:
87,353,70996,1,14,3:0:0:0:
30,244,71231,6,0,P|38:188|39:91,1,140,4|8,1:0|1:0,0:0:0:0:
20,15,71934,1,0,3:0:0:0:
20,15,72051,1,0,0:0:0:0:
20,15,72168,2,0,P|76:23|173:24,1,140,2|8,1:0|1:0,0:0:0:0:
223,89,72871,1,8,1:3:0:0:
290,27,73106,5,4,1:0:0:0:
349,95,73340,1,0,0:0:0:0:
253,169,73574,1,12,1:0:0:0:
337,202,73809,1,0,0:0:0:0:
319,291,74043,2,0,P|382:285|411:280,1,70,4|4,1:0|1:2,0:0:0:0:
427,259,74395,1,0,0:0:0:0:
463,286,74512,1,8,1:0:0:0:
433,371,74746,1,12,3:0:0:0:
308,363,74981,6,0,P|256:353|161:344,1,140,6|8,1:0|1:0,0:0:0:0:
90,299,75684,1,2,1:0:0:0:
90,299,75801,1,0,0:0:0:0:
90,299,75918,1,12,3:0:0:0:
147,228,76152,1,12,3:0:0:0:
78,167,76387,1,8,1:0:0:0:
86,133,76504,1,0,0:0:0:0:
94,99,76621,1,12,3:0:0:0:
100,64,76738,1,2,3:0:0:0:
111,30,76856,2,0,P|153:34|191:36,1,70,4|4,1:0|3:0,0:0:0:0:
253,122,77324,5,8,1:0:0:0:
335,46,77559,1,12,3:0:0:0:
256,42,77793,1,0,1:0:0:0:
329,128,78027,1,0,1:0:0:0:
405,82,78262,2,0,P|439:79|474:76,1,70,8|10,1:0|3:0,0:0:0:0:
511,1,78731,5,4,0:1:0:0:
441,171,79199,1,0,0:0:0:0:
314,100,79668,1,2,0:0:0:0:
314,100,79902,2,0,P|253:106|151:120,1,157.500006008148,0|0,0:0|0:0,0:0:0:0:
81,117,80840,5,2,0:0:0:0:
81,117,81074,2,0,P|85:166|90:226,1,105.000004005432,0|0,0:0|0:0,0:0:0:0:
57,293,81777,1,2,0:0:0:0:
228,328,82246,5,2,0:0:0:0:
228,328,82481,2,0,P|228:280|231:252,1,52.5000020027161,0|2,0:0|0:0,0:0:0:0:
275,214,82949,2,0,P|314:219|394:219,1,105.000004005432
432,145,83652,2,0,P|393:140|313:140,1,105.000004005432,2|0,0:0|0:0,0:0:0:0:
250,109,84356,5,0,0:0:0:0:
276,35,84590,1,2,0:0:0:0:
276,35,84824,1,0,0:0:0:0:
198,52,85059,1,2,0:0:0:0:
250,109,85293,1,2,0:0:0:0:
327,94,85527,1,0,0:0:0:0:
327,94,85762,2,0,P|372:88|395:82,1,52.5000020027161,0|2,0:0|0:0,0:0:0:0:
450,119,86231,5,4,0:0:0:0:
389,164,88106,5,4,0:0:0:0:
315,178,89981,5,4,0:0:0:0:
245,152,91856,5,4,0:0:0:0:
256,75,93731,6,0,L|258:55,32,13.125000500679,0|0|0|0|0|0|0|0|0|0|0|0|0|0|0|0|0|0|0|0|0|0|0|0|0|0|0|0|0|0|0|0|0,3:0|3:0|3:0|3:0|3:0|3:0|3:0|3:0|3:0|3:0|3:0|3:0|3:0|3:0|3:0|3:0|3:0|3:0|3:0|3:0|3:0|3:0|3:0|3:0|3:0|3:0|3:0|3:0|3:0|3:0|3:0|3:0|3:0,0:0:0:0:
