osu file format v14

[General]
AudioFilename: audio.mp3
AudioLeadIn: 0
PreviewTime: 3496
Countdown: 0
SampleSet: Soft
StackLeniency: 0.7
Mode: 0
LetterboxInBreaks: 0
WidescreenStoryboard: 1

[Editor]
DistanceSpacing: 0.9
BeatDivisor: 4
GridSize: 16
TimelineZoom: 1

[Metadata]
Title:Shinseki Yomotsu Hirasaka Ifuyasaka Densetsu
TitleUnicode:神蹟黄泉比良坂伊賦夜坂伝説
Artist:cygnus
ArtistUnicode:cygnus
Creator:Mirash
Version:Extra
Source:
Tags:matrix pandahero cry for the infinity electronic gothic trance instrumental
BeatmapID:4029214
BeatmapSetID:1947301

[Difficulty]
HPDrainRate:7
CircleSize:4.5
OverallDifficulty:8
ApproachRate:9
SliderMultiplier:1.8
SliderTickRate:1

[Events]
//Background and Video events
0,0,"ceiling-2834408.jpg",0,0
//Break Periods
//Storyboard Layer 0 (Background)
//Storyboard Layer 1 (Fail)
//Storyboard Layer 2 (Pass)
//Storyboard Layer 3 (Foreground)
//Storyboard Layer 4 (Overlay)
//Storyboard Sound Samples

[TimingPoints]
3731,468.75,4,2,1,40,1,0
4199,-100,4,2,1,30,0,0
11231,-133.333333333333,4,2,1,35,0,0
18731,-133.333333333333,4,2,1,45,0,0
25762,-133.333333333333,4,2,1,50,0,0
26231,-100,4,2,1,65,0,0
33731,-66.6666666666667,4,2,1,70,0,0
34199,-100,4,2,1,70,0,0
37481,-66.6666666666667,4,2,1,70,0,0
37949,-100,4,2,1,70,0,0
38184,-66.6666666666667,4,2,1,70,0,0
38652,-100,4,2,1,70,0,0
41231,-100,4,2,1,60,0,0
48731,-100,4,2,1,70,0,0
62676,-100,4,2,1,90,0,0
62793,-66.6666666666667,4,2,1,90,0,0
63731,-66.6666666666667,4,2,1,80,0,0
74981,-40,4,2,1,70,0,0
78965,-40,4,2,1,35,0,0
79668,-100,4,2,1,35,0,0
86231,-100,4,2,1,25,0,0
89981,-100,4,2,1,20,0,0
91856,-100,4,2,1,15,0,0
93731,-100,4,2,1,40,0,0

[Colours]
Combo1 : 9,153,208
Combo2 : 197,192,39
Combo3 : 78,154,158

[HitObjects]
255,189,216,5,0,1:0:0:0:
443,333,3731,5,4,1:0:0:0:
502,246,4199,1,0,0:0:0:0:
414,187,4668,1,2,0:0:0:0:
448,126,4902,1,0,0:0:0:0:
79,213,5606,1,0,0:0:0:0:
121,272,5840,1,0,0:0:0:0:
61,314,6074,1,2,0:0:0:0:
61,314,6543,1,2,0:0:0:0:
121,272,6777,1,0,0:0:0:0:
256,12,7246,5,0,0:0:0:0:
297,72,7481,1,2,0:0:0:0:
224,79,7715,1,0,0:0:0:0:
256,12,7949,1,0,0:0:0:0:
309,368,8418,1,2,0:0:0:0:
261,312,8652,1,0,0:0:0:0:
416,122,9121,5,0,0:0:0:0:
485,147,9356,1,2,0:0:0:0:
484,220,9590,1,0,0:0:0:0:
413,241,9824,1,0,0:0:0:0:
367,182,10059,1,0,0:0:0:0:
257,127,10293,1,2,0:0:0:0:
185,221,10527,1,0,0:0:0:0:
9,185,10996,5,0,0:0:0:0:
79,212,11231,2,0,P|77:150|79:60,2,135.000005149842,4|0|0,0:0|0:0|0:0,0:0:0:0:
60,282,12402,1,2,0:0:0:0:
356,48,13106,5,2,0:0:0:0:
421,82,13340,1,0,0:0:0:0:
389,149,13574,1,0,0:0:0:0:
143,93,14043,1,2,0:0:0:0:
154,19,14277,1,0,0:0:0:0:
292,306,14746,5,0,0:0:0:0:
319,375,14981,1,2,0:0:0:0:
245,365,15215,1,0,0:0:0:0:
292,306,15449,1,0,0:0:0:0:
416,79,15918,1,0,0:0:0:0:
355,36,16152,1,2,0:0:0:0:
118,210,16621,5,0,0:0:0:0:
146,278,16856,1,2,0:0:0:0:
72,267,17090,1,0,0:0:0:0:
191,218,17324,1,0,0:0:0:0:
171,345,17559,1,0,0:0:0:0:
146,278,17793,1,2,0:0:0:0:
118,210,18027,1,0,0:0:0:0:
421,99,18496,5,0,0:0:0:0:
412,25,18731,2,0,P|379:29|331:23,1,67.5000025749208,6|0,0:0|0:0,0:0:0:0:
202,7,19199,1,8,1:1:0:0:
137,27,19434,1,0,1:0:0:0:
23,76,19668,2,0,P|56:80|90:77,1,67.5000025749208,0|0,0:0|1:0,0:0:0:0:
308,150,20137,6,0,B|349:120|349:120|413:152,1,101.250003862381,8|0,1:0|0:0,0:0:0:0:
428,128,20606,2,0,L|410:207,1,67.5000025749208,0|0,3:0|0:0,0:0:0:0:
199,245,21074,1,8,1:0:0:0:
144,151,21309,1,0,1:0:0:0:
227,179,21543,2,0,L|245:258,1,67.5000025749208,0|0,0:0|1:0,0:0:0:0:
68,165,22012,1,8,1:0:0:0:
162,75,22246,1,8,1:0:0:0:
254,236,22481,6,0,L|236:315,1,67.5000025749208,4|0,1:0|1:0,0:0:0:0:
256,370,22949,2,0,L|232:206,1,135.000005149842,8|0,1:0|0:0,0:0:0:0:
188,179,23652,1,0,1:0:0:0:
234,120,23887,2,0,L|244:51,1,67.5000025749208,8|0,1:0|0:0,0:0:0:0:
386,182,24356,5,4,3:2:0:0:
450,218,24590,1,0,0:0:0:0:
503,166,24824,1,8,1:0:0:0:
332,137,25059,1,0,1:0:0:0:
400,310,25293,1,0,0:0:0:0:
411,206,25527,1,0,1:0:0:0:
189,187,25762,6,0,L|152:197,1,33.7500012874604,12|0,1:0|0:0,0:0:0:0:
82,178,25996,1,0,1:0:0:0:
48,193,26113,1,0,1:0:0:0:
14,209,26231,2,2,B|47:164|47:164|181:222,1,180,6|8,1:0|1:0,1:0:0:0:
217,295,26934,1,0,1:0:0:0:
304,248,27168,2,0,B|349:257|349:257|394:200,1,90,0|0,0:0|1:0,0:0:0:0:
370,191,27520,1,0,0:0:0:0:
398,177,27637,1,8,1:0:0:0:
402,103,27871,5,4,3:0:0:0:
399,71,27988,1,2,0:3:0:0:
430,72,28106,1,8,1:3:0:0:
468,133,28340,1,0,0:0:0:0:
334,102,28574,1,8,1:0:0:0:
420,0,28809,1,0,1:0:0:0:
486,37,29043,2,0,L|437:32,1,45
352,1,29277,1,0,1:0:0:0:
262,66,29512,1,8,1:0:0:0:
156,9,29746,1,8,1:0:0:0:
484,180,29981,6,0,L|495:285,1,90,14|0,1:3|0:0,0:0:0:0:
335,189,30449,1,8,1:0:0:0:
28,180,30684,6,0,L|17:285,1,90,14|0,1:3|0:0,0:0:0:0:
177,189,31152,1,0,1:0:0:0:
217,340,31387,6,0,L|209:282,1,45,8|0,1:0|0:0,0:0:0:0:
301,295,31621,2,0,L|295:340,1,45,4|2,3:0|0:3,0:0:0:0:
254,226,31856,5,8,1:3:0:0:
260,154,32090,1,0,0:0:0:0:
266,82,32324,1,8,1:0:0:0:
278,16,32559,1,0,1:0:0:0:
278,16,32676,1,0,3:0:0:0:
278,16,32793,1,0,1:0:0:0:
251,39,32910,1,0,3:0:0:0:
256,74,33027,1,0,1:0:0:0:
275,104,33145,1,0,3:0:0:0:
287,137,33262,1,8,1:0:0:0:
288,172,33379,1,2,3:0:0:0:
273,204,33496,1,12,3:0:0:0:
252,233,33613,1,2,3:0:0:0:
252,269,33731,6,0,B|287:247|287:247|422:356,1,202.500007724762,4|0,1:0|0:0,0:0:0:0:
412,348,34199,2,0,L|374:382,1,45,4|0,0:0|0:0,0:0:0:0:
307,373,34434,1,2,0:0:0:0:
150,193,34668,6,0,L|163:141,1,45,8|0,1:0|0:0,0:0:0:0:
351,149,34902,2,0,L|362:193,1,45,8|0,1:0|0:0,0:0:0:0:
255,154,35137,5,2,0:0:0:0:
263,28,35371,1,2,0:0:0:0:
229,218,35606,5,4,0:1:0:0:
221,92,35840,1,2,0:3:0:0:
275,299,36074,5,8,0:3:0:0:
283,173,36308,1,4,0:0:0:0:
224,381,36543,5,8,1:0:0:0:
235,241,36777,1,8,1:0:0:0:
371,257,37012,1,2,0:0:0:0:
356,384,37246,1,2,3:3:0:0:
129,212,37481,6,2,B|82:176|82:176|128:18,1,202.500007724762,6|0,1:0|0:0,0:1:0:0:
122,38,37949,2,0,L|186:64,1,45,4|0,0:0|0:0,0:0:0:0:
383,212,38184,6,2,B|430:176|430:176|384:18,1,202.500007724762,4|0,1:2|0:0,0:1:0:0:
389,38,38652,2,0,L|326:64,1,45,8|0,1:0|0:0,0:0:0:0:
275,57,38887,5,4,0:0:0:0:
303,123,39121,1,2,0:0:0:0:
254,176,39356,1,2,0:0:0:0:
182,167,39590,1,2,0:3:0:0:
156,99,39824,1,8,1:0:0:0:
202,43,40059,1,8,0:3:0:0:
257,91,40293,6,0,L|247:144,1,45,8|0,1:0|0:0,0:0:0:0:
272,239,40527,2,0,L|262:292,1,45,8|0,1:0|0:0,0:0:0:0:
36,184,40762,5,0,3:0:0:0:
51,178,40879,1,0,3:0:0:0:
24,170,40996,1,0,3:0:0:0:
35,198,41113,1,0,3:0:0:0:
36,184,41231,6,0,P|74:187|139:186,1,90,4|0,1:0|0:0,0:0:0:0:
194,165,41699,2,0,P|232:168|297:167,1,90,4|0,0:0|0:0,0:0:0:0:
505,264,42168,5,8,1:0:0:0:
475,251,42285,1,0,3:0:0:0:
444,261,42402,1,8,1:0:0:0:
416,248,42520,1,0,3:0:0:0:
386,258,42637,5,0,3:0:0:0:
359,233,42754,1,0,3:0:0:0:
342,265,42871,1,0,3:0:0:0:
320,236,42988,1,0,3:0:0:0:
297,264,43106,2,0,P|233:262|198:257,2,90,4|0|8,0:1|1:0|1:0,0:0:0:0:
326,328,43809,1,8,0:3:0:0:
7,264,44043,5,8,1:0:0:0:
37,251,44160,1,0,3:0:0:0:
68,261,44277,1,8,1:0:0:0:
96,248,44395,1,0,3:0:0:0:
126,258,44512,5,0,3:0:0:0:
153,233,44629,1,0,3:0:0:0:
170,265,44746,1,0,3:0:0:0:
192,236,44863,1,0,3:0:0:0:
215,264,44981,2,0,P|279:262|314:257,2,90,4|0|0,1:0|0:0|0:0,0:0:0:0:
186,328,45684,1,4,0:2:0:0:
258,188,45918,5,8,1:0:0:0:
244,154,46035,1,0,3:0:0:0:
264,124,46152,1,8,1:0:0:0:
246,92,46270,1,0,3:0:0:0:
272,53,46387,5,0,3:0:0:0:
252,7,46504,1,0,3:0:0:0:
202,6,46621,1,0,3:0:0:0:
170,43,46738,1,0,3:0:0:0:
124,62,46856,1,4,1:2:0:0:
54,43,47090,1,2,0:0:0:0:
121,131,47324,1,8,1:0:0:0:
388,62,47559,5,0,1:0:0:0:
458,43,47793,1,12,1:0:0:0:
451,91,47910,1,0,3:0:0:0:
447,140,48027,1,8,1:0:0:0:
442,189,48145,1,0,3:0:0:0:
413,229,48262,1,12,3:0:0:0:
407,278,48379,1,2,3:0:0:0:
403,327,48496,1,12,3:0:0:0:
400,376,48613,1,2,3:0:0:0:
400,376,48731,2,0,L|389:315,1,45,4|0,1:0|0:0,0:0:0:0:
234,260,48965,5,2,3:0:0:0:
278,281,49082,1,0,3:0:0:0:
324,298,49199,2,0,L|314:236,1,45
276,200,49434,1,2,3:0:0:0:
229,183,49551,1,0,3:0:0:0:
261,145,49668,1,8,1:0:0:0:
298,112,49785,1,0,0:0:0:0:
335,144,49902,2,0,L|345:206,1,45,8|0,1:0|0:0,0:0:0:0:
410,203,50137,1,12,3:0:0:0:
454,224,50254,1,0,3:0:0:0:
500,241,50371,1,6,3:0:0:0:
512,261,50488,1,0,3:0:0:0:
479,295,50606,6,0,L|495:235,1,45,8|0,3:3|0:0,0:0:0:0:
436,160,50840,5,8,3:0:0:0:
392,139,50957,1,0,3:0:0:0:
346,122,51074,2,0,L|356:184,1,45,8|0,1:0|0:0,0:0:0:0:
76,160,51309,1,2,3:0:0:0:
120,139,51426,1,0,3:0:0:0:
166,122,51543,2,0,L|156:184,1,45,8|0,1:0|0:0,0:0:0:0:
258,208,51777,2,0,L|259:278,1,45,8|0,1:0|0:0,0:0:0:0:
268,123,52012,5,4,3:0:0:0:
250,96,52129,1,0,3:0:0:0:
264,68,52246,1,12,3:0:0:0:
253,38,52363,1,0,3:0:0:0:
262,7,52481,2,0,L|214:0,1,45,14|0,1:0|0:0,0:0:0:0:
333,97,52715,5,0,0:0:0:0:
353,72,52832,1,0,3:0:0:0:
372,47,52949,2,0,L|324:40,1,45
479,26,53184,1,2,1:1:0:0:
459,51,53301,1,0,3:0:0:0:
440,76,53418,2,0,L|488:83,1,45,8|0,1:0|0:0,0:0:0:0:
316,185,53652,2,0,L|364:192,1,45,8|0,1:0|0:0,0:0:0:0:
124,137,53887,5,6,3:0:0:0:
83,165,54004,1,0,3:0:0:0:
75,213,54121,1,4,3:0:0:0:
99,255,54238,1,0,3:0:0:0:
146,271,54356,2,0,L|101:277,1,45,8|0,3:0|0:0,0:0:0:0:
255,204,54590,2,0,L|210:210,1,45,8|0,3:0|0:0,0:0:0:0:
422,246,54824,5,8,1:0:0:0:
400,269,54941,1,0,3:0:0:0:
379,292,55059,2,0,L|334:298,1,45,4|0,3:0|0:0,0:0:0:0:
203,203,55293,2,0,L|247:196,1,45,8|0,1:0|0:0,0:0:0:0:
103,190,55527,1,8,1:0:0:0:
65,222,55645,1,0,3:0:0:0:
85,266,55762,2,0,L|129:259,1,45,12|0,3:0|0:0,0:0:0:0:
346,161,55996,5,12,3:0:0:0:
380,113,56113,1,0,3:0:0:0:
340,69,56231,2,0,L|295:75,1,45,4|0,1:0|0:0,0:0:0:0:
178,51,56465,5,0,1:0:0:0:
121,12,56582,1,0,3:0:0:0:
73,61,56699,2,0,L|79:105,1,45,8|0,1:0|0:0,0:0:0:0:
216,264,56934,5,0,3:0:0:0:
282,310,57051,1,0,3:0:0:0:
334,250,57168,2,0,L|327:205,1,45,8|0,1:0|0:0,0:0:0:0:
195,125,57402,2,0,L|201:169,1,45,0|0,1:0|0:0,0:0:0:0:
454,243,57637,5,12,1:0:0:0:
486,178,57754,1,0,3:0:0:0:
448,116,57871,1,12,3:0:0:0:
376,122,57988,1,0,3:0:0:0:
337,183,58106,2,0,L|283:175,1,45,8|0,1:3|0:0,0:0:0:0:
159,252,58340,2,0,L|203:258,1,45,0|0,1:0|0:0,0:0:0:0:
160,118,58574,5,8,1:0:0:0:
147,47,58691,1,0,3:0:0:0:
78,22,58809,1,12,3:0:0:0:
30,76,58926,1,0,3:0:0:0:
54,143,59043,1,8,1:0:0:0:
103,195,59160,1,4,3:0:0:0:
92,266,59277,1,0,1:0:0:0:
35,308,59395,1,0,3:0:0:0:
14,376,59512,2,0,L|6:301,1,45,8|0,1:0|0:0,0:0:0:0:
169,289,59746,2,0,L|161:214,1,45,8|0,1:0|0:0,0:0:0:0:
265,58,59981,5,6,1:0:0:0:
328,92,60098,1,0,3:0:0:0:
256,99,60215,2,0,L|268:164,1,45,0|0,1:0|0:0,0:0:0:0:
227,202,60449,1,8,1:0:0:0:
293,228,60566,1,0,3:0:0:0:
235,272,60684,1,2,1:1:0:0:
301,299,60801,1,0,3:0:0:0:
255,384,60918,2,0,L|246:339,1,45,8|0,1:0|0:0,0:0:0:0:
154,187,61152,5,4,3:0:0:0:
187,122,61270,1,0,3:0:0:0:
256,102,61387,1,8,1:0:0:0:
314,144,61504,1,0,3:0:0:0:
322,215,61621,1,4,3:0:0:0:
322,215,61738,1,0,3:0:0:0:
254,239,61856,2,0,L|241:181,1,45,12|0,3:0|0:0,0:0:0:0:
391,123,62090,2,0,L|381:166,1,45,8|0,1:0|0:0,0:0:0:0:
190,86,62324,5,8,1:0:0:0:
166,17,62441,1,0,0:0:0:0:
94,5,62559,1,0,0:0:0:0:
7,73,62676,5,12,1:0:0:0:
88,130,62793,2,0,B|97:161|97:161|69:205,1,67.5000025749208,12|0,1:0|0:0,0:0:0:0:
433,190,63027,2,0,B|415:161|415:161|424:130,1,67.5000025749208,12|0,1:0|0:0,0:0:0:0:
247,257,63262,6,0,L|259:342,1,67.5000025749208,4|0,1:2|0:0,0:0:0:0:
246,180,63496,5,8,1:0:0:0:
257,107,63613,5,8,1:0:0:0:
270,12,63731,5,12,1:0:0:0:
111,147,63965,1,0,3:0:0:0:
111,147,64082,1,0,3:0:0:0:
111,147,64199,1,8,1:0:0:0:
396,201,64433,1,0,0:0:0:0:
257,124,64668,1,0,1:0:0:0:
257,124,64785,1,0,0:0:0:0:
257,124,64902,1,0,1:0:0:0:
242,372,65137,5,8,1:0:0:0:
401,237,65371,1,0,3:0:0:0:
116,183,65605,1,14,3:0:0:0:
255,260,65840,1,0,3:0:0:0:
255,260,65957,1,0,3:0:0:0:
255,260,66074,1,10,1:0:0:0:
242,12,66309,5,0,3:0:0:0:
401,147,66543,1,0,1:0:0:0:
401,147,66660,1,0,0:0:0:0:
401,147,66777,1,0,1:0:0:0:
116,201,67011,1,10,1:0:0:0:
255,124,67246,1,12,3:0:0:0:
255,124,67363,1,2,3:0:0:0:
255,124,67480,1,6,1:0:0:0:
270,372,67715,5,0,3:0:0:0:
111,237,67949,1,8,1:0:0:0:
396,183,68183,1,2,3:1:0:0:
257,260,68418,1,0,1:0:0:0:
257,260,68535,1,0,0:0:0:0:
257,260,68652,1,0,1:0:0:0:
270,12,68887,5,8,1:0:0:0:
111,147,69121,1,12,3:0:0:0:
111,147,69238,1,2,3:0:0:0:
111,147,69355,1,14,3:0:0:0:
396,201,69589,1,2,3:0:0:0:
257,124,69824,1,8,1:0:0:0:
257,124,69941,1,2,3:0:0:0:
257,124,70058,1,12,3:0:0:0:
242,372,70293,5,10,1:0:0:0:
401,237,70527,1,0,1:0:0:0:
116,183,70761,1,10,1:0:0:0:
255,260,70996,5,14,3:0:0:0:
255,260,71113,1,2,3:0:0:0:
255,260,71230,1,4,1:0:0:0:
356,103,71465,1,0,3:0:0:0:
199,2,71699,1,8,1:0:0:0:
98,159,71934,1,0,3:0:0:0:
346,233,72168,5,2,1:0:0:0:
306,50,72403,1,2,3:0:0:0:
123,90,72637,1,8,1:0:0:0:
163,272,72872,1,8,1:3:0:0:
374,163,73106,6,0,L|528:197,1,135.000005149842,4|0,1:0|0:0,0:0:0:0:
138,163,73574,2,0,L|-16:197,1,135.000005149842,12|0,1:0|0:0,0:0:0:0:
255,378,74043,6,0,P|260:317|261:285,1,67.5000025749208,4|0,1:0|0:0,0:0:0:0:
255,6,74277,2,0,P|260:67|261:99,1,67.5000025749208,4|0,1:2|0:0,0:0:0:0:
238,189,74512,1,8,1:0:0:0:
273,195,74629,1,0,1:0:0:0:
257,175,74746,1,12,3:0:0:0:
254,209,74863,1,0,1:0:0:0:
258,250,74981,6,0,L|263:17,1,225,6|0,1:0|0:0,0:0:0:0:
258,250,75332,5,0,1:0:0:0:
233,248,75449,2,0,L|121:236,1,112.5,8|0,1:0|0:0,0:0:0:0:
279,248,75684,6,0,L|391:236,1,112.5,2|0,1:0|0:0,0:0:0:0:
254,272,75918,6,0,L|249:384,1,112.5,12|0,3:0|0:0,0:0:0:0:
98,221,76152,6,0,L|71:102,1,112.5,12|0,3:0|0:0,0:0:0:0:
414,221,76387,6,0,L|441:102,1,112.5,8|0,1:0|0:0,0:0:0:0:
261,5,76621,6,0,L|256:133,1,112.5,12|2,3:0|3:0,0:0:0:0:
248,369,76856,5,4,1:0:0:0:
202,320,76973,1,0,0:0:0:0:
237,256,77090,1,4,3:0:0:0:
307,273,77207,1,0,1:0:0:0:
312,342,77324,1,8,1:0:0:0:
242,380,77441,5,4,3:0:0:0:
181,328,77559,1,12,3:0:0:0:
209,242,77676,1,2,3:0:0:0:
297,234,77793,1,0,1:0:0:0:
346,315,77910,1,0,3:0:0:0:
289,379,78027,1,0,1:0:0:0:
181,346,78145,1,0,3:0:0:0:
180,243,78262,5,8,1:0:0:0:
268,194,78379,5,0,1:0:0:0:
350,266,78496,5,10,3:0:0:0:
332,367,78613,5,8,1:3:0:0:
262,288,78731,5,4,0:1:0:0:
433,66,79199,5,0,0:0:0:0:
99,155,79668,5,2,0:0:0:0:
34,123,79902,1,0,0:0:0:0:
389,361,80606,5,0,0:0:0:0:
444,315,80840,1,2,0:0:0:0:
377,288,81074,1,0,0:0:0:0:
272,19,81543,5,0,0:0:0:0:
247,86,81777,1,2,0:0:0:0:
63,356,82246,5,2,0:0:0:0:
120,311,82481,1,0,0:0:0:0:
52,287,82715,1,2,0:0:0:0:
129,381,82949,1,0,0:0:0:0:
434,162,83418,5,0,0:0:0:0:
501,187,83652,1,2,0:0:0:0:
64,155,84121,5,0,0:0:0:0:
7,199,84356,1,0,0:0:0:0:
64,155,84590,1,2,0:0:0:0:
73,226,84824,1,0,0:0:0:0:
7,199,85059,1,2,0:0:0:0:
132,182,85293,1,2,0:0:0:0:
196,213,85527,1,0,0:0:0:0:
490,73,85996,5,2,0:0:0:0:
504,2,86231,1,4,0:0:0:0:
8,2,88106,5,4,0:0:0:0:
257,194,88721,1,4,3:0:0:0:
8,382,89981,5,4,0:0:0:0:
257,194,91328,1,0,3:0:0:0:
504,382,91856,5,4,0:0:0:0:
257,201,93731,6,0,L|254:164,32,22.5,0|0|0|0|0|0|0|0|0|0|0|0|0|0|0|0|0|0|0|0|0|0|0|0|0|0|0|0|0|0|0|0|0,3:0|3:0|3:0|3:0|3:0|3:0|3:0|3:0|3:0|3:0|3:0|3:0|3:0|3:0|3:0|3:0|3:0|3:0|3:0|3:0|3:0|3:0|3:0|3:0|3:0|3:0|3:0|3:0|3:0|3:0|3:0|3:0|3:0,3:0:0:0:
