osu file format v14

[General]
AudioFilename: audio.mp3
AudioLeadIn: 0
PreviewTime: 3496
Countdown: 0
SampleSet: Soft
StackLeniency: 0.7
Mode: 0
LetterboxInBreaks: 0
WidescreenStoryboard: 1

[Editor]
DistanceSpacing: 0.6
BeatDivisor: 4
GridSize: 16
TimelineZoom: 1

[Metadata]
Title:Shinseki Yomotsu Hirasaka Ifuyasaka Densetsu
TitleUnicode:神蹟黄泉比良坂伊賦夜坂伝説
Artist:cygnus
ArtistUnicode:cygnus
Creator:Mirash
Version:Easy
Source:
Tags:matrix pandahero cry for the infinity electronic gothic trance instrumental
BeatmapID:4029213
BeatmapSetID:1947301

[Difficulty]
HPDrainRate:3
CircleSize:3
OverallDifficulty:3
ApproachRate:3
SliderMultiplier:1
SliderTickRate:0.5

[Events]
//Background and Video events
0,0,"ceiling-2834408.jpg",0,0
//Break Periods
//Storyboard Layer 0 (Background)
//Storyboard Layer 1 (Fail)
//Storyboard Layer 2 (Pass)
//Storyboard Layer 3 (Foreground)
//Storyboard Layer 4 (Overlay)
//Storyboard Sound Samples

[TimingPoints]
3731,468.75,4,2,1,40,1,0
4199,-100,4,2,1,30,0,0
11231,-100,4,2,1,35,0,0
18731,-100,4,2,1,45,0,0
25762,-100,4,2,1,50,0,0
26231,-100,4,2,1,65,0,0
33731,-100,4,2,1,70,0,0
41231,-100,4,2,1,60,0,0
48731,-100,4,2,1,70,0,0
62676,-100,4,2,1,90,0,0
63731,-100,4,2,1,80,0,0
74981,-100,4,2,1,70,0,0
78965,-100,4,2,1,35,0,0
86231,-200,4,2,1,25,0,0
89981,-200,4,2,1,20,0,0
91856,-200,4,2,1,15,0,0
93731,-200,4,2,1,40,0,0
95606,-200,4,2,1,10,0,0

[Colours]
Combo1 : 9,153,208
Combo2 : 197,192,39
Combo3 : 78,154,158

[HitObjects]
96,97,3731,5,4,1:0:0:0:
153,178,4199,1,0,0:0:0:0:
222,105,4668,2,0,P|249:111|273:113,1,50,2|0,0:0|0:0,0:0:0:0:
349,241,5606,2,0,P|401:223|426:216,2,50,0|0|2,0:0|0:0|0:0,0:0:0:0:
282,315,6543,2,0,P|237:303|198:296,1,50,2|0,0:0|0:0,0:0:0:0:
151,245,7246,1,0,0:0:0:0:
151,245,7481,2,0,P|99:256|41:267,2,100,2|0|2,0:0|0:0|0:0,0:0:0:0:
248,130,9121,1,0,0:0:0:0:
248,130,9356,2,0,P|326:138|388:140,2,100,2|0|2,0:0|0:0|0:0,0:0:0:0:
73,32,11231,6,0,P|134:33|288:26,1,200,4|0,0:0|0:0,0:0:0:0:
349,91,12637,1,0,0:0:0:0:
384,184,13106,2,0,P|323:183|169:190,1,200,2|2,0:0|0:0,0:0:0:0:
89,156,14512,1,0,0:0:0:0:
43,245,14981,2,0,P|55:283|58:312,2,50,2|0|0,0:0|0:0|0:0,0:0:0:0:
9,150,15918,1,0,0:0:0:0:
9,150,16152,2,0,P|20:98|30:-3,1,150,2|2,0:0|0:0,0:0:0:0:
199,108,17793,2,0,P|251:99|315:89,1,100,2|0,0:0|0:0,0:0:0:0:
386,45,18731,6,0,P|381:121|382:165,1,100,6|8,0:0|1:1,0:0:0:0:
288,181,19668,2,0,P|293:257|292:301,1,100,0|8,0:0|1:0,0:0:0:0:
361,353,20606,2,0,P|395:349|421:344,2,50,0|0|8,3:0|0:0|1:0,0:0:0:0:
261,364,21543,1,0,0:0:0:0:
186,297,22012,2,0,P|151:303|130:307,1,50,8|8,1:0|1:0,0:0:0:0:
86,300,22481,1,4,1:0:0:0:
29,217,22949,1,8,1:0:0:0:
95,141,23418,1,0,0:0:0:0:
181,191,23887,2,0,P|241:197|284:199,2,100,8|4|8,1:0|3:2|1:0,0:0:0:0:
95,141,25293,1,0,0:0:0:0:
101,41,25762,1,12,1:0:0:0:
197,15,26231,6,0,P|260:28|324:43,1,100,6|8,1:0|1:0,0:0:0:0:
332,128,27168,2,0,P|380:117|429:107,2,100,0|8|8,0:0|1:0|1:3,0:0:0:0:
261,199,28574,1,8,1:0:0:0:
327,273,29043,1,0,0:0:0:0:
419,233,29512,2,0,P|473:247|489:250,2,50,8|8|14,1:0|1:0|1:3,0:0:0:0:
330,354,30684,1,14,1:3:0:0:
199,279,31387,1,8,1:0:0:0:
101,254,31856,2,0,P|63:257|24:267,2,50,8|0|8,1:3|0:0|1:0,0:0:0:0:
156,171,32793,1,0,1:0:0:0:
242,221,33262,1,8,1:0:0:0:
341,208,33731,6,0,P|344:133|350:67,1,100,4|4,1:0|0:0,0:0:0:0:
290,24,34668,2,0,P|246:25|211:26,1,50,8|8,1:0|1:0,0:0:0:0:
90,13,35606,1,4,0:1:0:0:
29,92,36074,1,8,0:3:0:0:
96,165,36543,2,0,P|89:212|84:239,1,50,8|8,1:0|1:0,0:0:0:0:
41,357,37481,1,6,1:0:0:0:
190,362,38184,2,0,P|184:309|178:289,2,50,4|8|8,1:2|1:0|1:0,0:0:0:0:
338,383,39356,1,2,0:0:0:0:
432,350,39824,1,8,1:0:0:0:
397,256,40293,2,0,P|401:210|404:188,1,50,8|8,1:0|1:0,0:0:0:0:
257,162,41231,5,4,1:0:0:0:
269,62,41699,1,4,0:0:0:0:
169,73,42168,2,0,P|90:74|67:74,2,100,8|0|4,1:0|3:0|0:1,0:0:0:0:
269,62,43574,1,8,1:0:0:0:
257,162,44043,2,0,P|336:163|359:163,2,100,8|0|4,1:0|3:0|1:0,0:0:0:0:
245,261,45449,1,0,0:0:0:0:
147,240,45918,2,0,P|68:241|45:241,2,100,8|0|4,1:0|3:0|1:2,0:0:0:0:
245,261,47324,1,8,1:0:0:0:
326,319,47793,2,0,P|405:320|428:320,2,100,12|12|4,1:0|3:0|1:0,0:0:0:0:
239,369,49199,5,0,0:0:0:0:
150,322,49668,2,0,P|157:276|158:254,2,50,8|8|12,1:0|1:0|3:0,0:0:0:0:
59,364,50606,1,8,3:3:0:0:
8,277,51074,1,8,1:0:0:0:
80,208,51543,2,0,P|79:147|75:83,1,100,8|4,1:0|3:0,0:0:0:0:
148,37,52481,1,14,1:0:0:0:
216,109,52949,1,0,0:0:0:0:
295,48,53418,2,0,P|315:55|351:61,1,50,8|8,1:0|1:0,0:0:0:0:
461,152,54356,1,8,3:0:0:0:
405,235,54824,1,8,1:0:0:0:
481,299,55293,2,0,P|486:336|484:360,2,50,8|8|12,1:0|1:0|3:0,0:0:0:0:
381,314,56231,6,0,P|299:305|238:298,1,100,4|8,1:0|1:0,0:0:0:0:
204,239,57168,2,0,P|172:242|133:247,2,50,8|0|12,1:0|1:0|1:0,0:0:0:0:
261,156,58106,2,0,P|310:161|360:166,1,100,8|8,1:3|1:0,0:0:0:0:
444,113,59043,2,0,P|495:117|512:120,2,50,8|0|8,1:0|1:0|1:0,0:0:0:0:
379,35,59981,2,0,P|329:40|279:45,1,100,6|8,1:0|1:0,0:0:0:0:
195,99,60918,2,0,P|115:97|70:90,1,100,8|8,1:0|1:0,0:0:0:0:
15,155,61856,1,12,3:0:0:0:
82,228,62324,1,8,1:0:0:0:
175,192,62793,2,0,L|235:204,1,50,12|12,1:0|1:0,0:0:0:0:
261,235,63262,1,4,1:2:0:0:
348,282,63731,6,0,P|354:207|355:71,1,200,12|0,1:0|1:0,0:0:0:0:
261,117,65137,1,8,1:0:0:0:
180,56,65606,2,0,P|117:62|77:62,1,100,14|10,3:0|1:0,0:0:0:0:
8,131,66543,2,0,P|19:163|27:196,2,50,0|0|10,1:0|1:0|1:0,0:0:0:0:
80,62,67481,2,0,P|130:61|180:56,1,100,6|8,1:0|1:0,0:0:0:0:
266,6,68418,2,0,P|306:12|343:18,2,50,0|0|8,1:0|1:0|1:0,0:0:0:0:
264,106,69356,2,0,P|271:169|279:227,1,100,14|8,3:0|1:0,0:0:0:0:
236,297,70293,1,10,1:0:0:0:
324,342,70762,1,10,1:0:0:0:
395,272,71231,6,0,P|398:199|400:39,1,200,4|2,1:0|1:0,0:0:0:0:
364,37,72402,2,0,P|323:44|273:44,1,50,2|8,3:0|1:0,0:0:0:0:
260,129,73106,1,4,1:0:0:0:
164,99,73574,1,12,1:0:0:0:
70,135,74043,2,0,P|36:131|11:127,2,50,4|4|8,1:0|1:2|1:0,0:0:0:0:
111,226,74981,1,6,1:0:0:0:
190,285,75449,1,8,1:0:0:0:
289,292,75918,1,12,3:0:0:0:
382,255,76387,1,8,1:0:0:0:
440,173,76856,1,4,1:0:0:0:
453,74,77324,1,8,1:0:0:0:
375,11,77793,2,0,P|342:4|308:3,2,50,0|0|8,1:0|1:0|1:0,0:0:0:0:
453,74,78731,5,4,0:1:0:0:
330,231,79668,2,0,P|317:266|308:296,1,50,2|0,0:0|0:0,0:0:0:0:
177,343,80606,2,0,P|129:333|109:331,2,50,0|2|0,0:0|0:0|0:0,0:0:0:0:
272,372,81543,2,0,P|306:366|334:363,1,50,0|2,0:0|0:0,0:0:0:0:
435,266,82481,2,0,P|491:274|506:280,2,50,0|2|0,0:0|0:0|0:0,0:0:0:0:
355,204,83418,2,0,P|320:206|294:210,1,50,0|2,0:0|0:0,0:0:0:0:
170,140,84356,2,0,P|128:139|98:139,2,50,0|2|0,0:0|0:0|0:0,0:0:0:0:
233,62,85293,2,0,P|269:64|303:68,1,50,2|0,0:0|0:0,0:0:0:0:
256,192,86231,12,4,89981,0:0:0:0:
256,192,91856,12,4,95606,3:0:0:0:
