osu file format v14

[General]
AudioFilename: audio.mp3
AudioLeadIn: 0
PreviewTime: 124481
Countdown: 0
SampleSet: Soft
StackLeniency: 0.7
Mode: 0
LetterboxInBreaks: 0
WidescreenStoryboard: 1

[Editor]
Bookmarks: 1481,13481,24918,37481,49481,52481,64481,100481,124481,136481,148481
DistanceSpacing: 1
BeatDivisor: 2
GridSize: 16
TimelineZoom: 3.199999

[Metadata]
Title:Psycho Gene
TitleUnicode:Psycho Gene
Artist:cygnus
ArtistUnicode:cygnus
Creator:Matrix
Version:Wispy's Normal
Source:
Tags:electronic gothic dramatic instrumental cry for the infinity niva heaven punisher wispy
BeatmapID:3955067
BeatmapSetID:1884657

[Difficulty]
HPDrainRate:3
CircleSize:3
OverallDifficulty:4.5
ApproachRate:5.5
SliderMultiplier:0.9
SliderTickRate:1

[Events]
//Background and Video events
0,0,"Psycho Gene.jpg",0,0
//Break Periods
2,52681,63356
//Storyboard Layer 0 (Background)
//Storyboard Layer 1 (Fail)
//Storyboard Layer 2 (Pass)
//Storyboard Layer 3 (Foreground)
//Storyboard Layer 4 (Overlay)
//Storyboard Sound Samples

[TimingPoints]
1481,375,4,2,1,45,1,0
13481,-100,4,2,1,71,0,0
24918,-100,4,2,1,71,0,0
37481,-90.9090909090909,4,2,1,75,0,1
49481,-100,4,2,4,66,0,0
49574,-100,4,2,1,66,0,0
52106,-100,4,2,1,5,0,0
52481,-100,4,2,3,60,0,0
52856,-111.111111111111,4,2,1,60,0,0
64481,-111.111111111111,4,2,1,45,0,0
88481,-100,4,2,1,70,0,0
100481,-100,4,2,1,70,0,0
124481,-90.9090909090909,4,2,1,90,0,1
124668,-90.9090909090909,4,2,1,75,0,1
136481,-83.3333333333333,4,2,1,90,0,1
136574,-83.3333333333333,4,2,1,75,0,1
148481,-100,4,2,2,75,0,0

[Colours]
Combo1 : 161,161,161
Combo2 : 130,220,242
Combo3 : 168,192,251
Combo4 : 133,138,245

[HitObjects]
195,88,1481,6,0,L|215:195,1,90,0|2,0:0|0:0,0:0:0:0:
184,262,2231,2,0,L|286:298,1,90,0|2,0:0|0:0,0:0:0:0:
329,358,2981,2,0,L|411:287,1,90,0|2,0:0|0:0,0:0:0:0:
486,280,3731,1,2,0:0:0:0:
453,196,4106,2,0,L|459:138,2,45,2|2|0,0:0|0:0|0:0,0:0:0:0:
380,248,4856,5,2,0:0:0:0:
314,309,5231,2,0,L|207:289,1,90,0|2,0:0|0:0,0:0:0:0:
140,320,5981,2,0,L|104:218,1,90,0|2,0:0|0:0,0:0:0:0:
41,176,6731,1,0,0:0:0:0:
86,98,7106,2,0,L|90:44,1,45,2|2,0:0|0:0,0:0:0:0:
128,29,7481,6,0,P|230:22|318:-6,3,180,4|2|2|2,0:0|0:0|0:0|0:0,0:0:0:0:
280,178,10481,6,0,P|382:185|470:213,3,180,2|2|2|2,0:0|0:0|0:0|0:0,0:0:0:0:
403,384,13481,5,4,0:0:0:0:
403,384,13668,1,0,0:0:0:0:
403,384,13856,1,8,0:0:0:0:
335,324,14231,2,0,B|323:224,1,90,0|8,0:0|0:0,0:0:0:0:
405,200,14981,1,0,0:0:0:0:
356,124,15356,1,8,0:0:0:0:
425,67,15731,2,0,L|433:13,1,45
399,10,16106,1,8,0:0:0:0:
399,10,16293,1,0,0:0:0:0:
399,10,16481,6,0,L|339:18,2,45,0|0|8,0:0|0:0|0:0,0:0:0:0:
473,60,17231,2,0,L|458:152,1,90,0|8,0:0|0:0,0:0:0:0:
379,191,17981,1,0,0:0:0:0:
327,117,18356,1,8,0:0:0:0:
272,45,18731,1,0,0:0:0:0:
197,88,19106,1,8,0:0:0:0:
197,88,19293,1,0,0:0:0:0:
197,88,19481,6,0,P|185:134|183:180,1,90,0|8,0:0|0:0,0:0:0:0:
147,259,20231,2,0,P|193:271|239:273,1,90,2|8,0:0|0:0,0:0:0:0:
318,309,20981,2,0,P|330:263|332:217,1,90,2|10,0:0|0:0,0:0:0:0:
368,138,21731,2,0,P|322:126|276:124,1,90,0|8,0:0|0:0,0:0:0:0:
243,150,22293,1,0,0:0:0:0:
243,150,22481,6,0,L|232:211,2,45,2|2|8,0:0|0:0|0:0,0:0:0:0:
188,78,23231,2,0,L|147:30,2,45,2|0|10,0:0|0:0|0:0,0:0:0:0:
127,144,23981,2,0,L|66:130,2,45,0|2|8,0:0|0:0|0:0,0:0:0:0:
143,232,24731,2,0,P|141:259|130:286,1,45,2|2,0:0|0:0,0:0:0:0:
118,321,25106,1,10,0:0:0:0:
118,321,25293,1,0,0:0:0:0:
118,321,25481,6,0,B|77:325|77:325|70:328|70:328|18:333,2,90,6|8|2,0:0|0:0|0:0,0:0:0:0:
189,375,26606,1,8,0:0:0:0:
234,297,26981,6,0,L|323:307,1,90,2|8,0:0|0:0,0:0:0:0:
420,326,27731,1,2,0:0:0:0:
420,326,27918,1,0,0:0:0:0:
420,326,28106,2,0,L|477:306,1,45,10|0,0:0|0:0,0:0:0:0:
482,270,28481,6,0,P|461:229|453:183,1,90,2|8,0:0|0:0,0:0:0:0:
380,133,29231,1,2,0:0:0:0:
431,59,29606,1,8,0:0:0:0:
357,7,29981,2,0,P|316:28|270:36,1,90,2|8,0:0|0:0,0:0:0:0:
202,92,30731,2,0,P|182:79|167:61,2,45,2|0|10,0:0|0:0|0:0,0:0:0:0:
218,133,31293,1,0,0:0:0:0:
218,133,31481,6,0,P|203:179|202:231,1,90,2|8,0:0|0:0,0:0:0:0:
164,302,32231,1,2,0:0:0:0:
86,256,32606,2,0,P|41:253|-1:238,1,90,8|2,0:0|0:0,0:0:0:0:
22,151,33356,1,8,0:0:0:0:
53,72,33731,1,2,0:0:0:0:
53,72,33918,1,0,0:0:0:0:
53,72,34106,2,0,L|73:15,1,45,10|0,0:0|0:0,0:0:0:0:
112,23,34481,6,0,L|210:15,2,90,2|8|2,0:0|0:0|0:0,0:0:0:0:
135,110,35606,1,8,0:0:0:0:
222,87,35981,2,0,L|239:-3,1,90,2|8,0:0|0:0,0:0:0:0:
327,15,36731,2,0,L|377:27,1,45,2|0,0:0|0:0,0:0:0:0:
422,45,37106,1,10,0:0:0:0:
422,45,37293,1,0,0:0:0:0:
422,45,37481,6,0,P|444:37|475:36,2,49.5000015106202,6|2|10,0:0|0:0|0:0,0:0:0:0:
341,102,38231,2,0,P|319:94|288:93,2,49.5000015106202,2|0|10,0:0|0:0|0:0,0:0:0:0:
379,142,38793,1,2,0:0:0:0:
379,142,38981,2,0,L|368:202,1,49.5000015106202,2|0,0:0|0:0,0:0:0:0:
359,239,39356,1,8,0:0:0:0:
457,251,39731,1,0,0:0:0:0:
439,354,40106,1,8,0:0:0:0:
439,354,40293,1,0,0:0:0:0:
439,354,40481,6,0,P|399:374|337:385,1,99.0000030212403,2|10,0:0|0:0,0:0:0:0:
314,352,41043,1,0,0:0:0:0:
314,352,41231,2,0,L|325:292,1,49.5000015106202,2|0,0:0|0:0,0:0:0:0:
333,264,41606,1,10,0:0:0:0:
249,210,41981,1,2,0:0:0:0:
174,274,42356,1,8,0:0:0:0:
219,374,42731,1,2,0:0:0:0:
219,374,42918,1,2,0:0:0:0:
219,374,43106,2,0,L|166:361,1,49.5000015106202,10|2,0:0|0:0,0:0:0:0:
128,335,43481,6,0,P|122:358|122:384,2,49.5000015106202,2|2|10,0:0|0:0|0:0,0:0:0:0:
48,276,44231,2,0,P|23:274|0:269,2,49.5000015106202,2|0|10,0:0|0:0|0:0,0:0:0:0:
79,237,44793,1,2,0:0:0:0:
79,237,44981,1,2,0:0:0:0:
6,169,45356,1,8,0:0:0:0:
19,70,45731,2,0,L|6:17,2,49.5000015106202,0|2|8,0:0|0:0|0:0,0:0:0:0:
68,93,46293,1,2,0:0:0:0:
68,93,46481,6,0,P|116:83|160:62,1,99.0000030212403,2|10,0:0|0:0,0:0:0:0:
240,120,47231,1,2,0:0:0:0:
294,37,47606,1,10,0:0:0:0:
385,74,47981,2,0,L|442:60,2,49.5000015106202,2|0|8,0:0|0:0|0:0,0:0:0:0:
411,174,48731,1,2,0:0:0:0:
411,174,48918,1,2,0:0:0:0:
462,192,49106,1,10,0:0:0:0:
462,192,49293,2,0,L|515:187,1,49.5000015106202,2|4,0:0|0:0,0:0:0:0:
1,197,52481,5,6,0:0:0:0:
168,209,64481,6,0,L|408:163,1,242.999992584229,6|0,0:0|0:0,0:0:0:0:
486,147,65981,1,0,0:0:0:0:
395,12,66731,1,0,0:0:0:0:
236,45,67481,2,0,P|268:137|287:297,1,242.999992584229,2|0,0:0|0:0,0:0:0:0:
237,345,68981,1,0,0:0:0:0:
46,83,70481,6,0,B|27:47|51:59|27:12|27:12|201:36,1,242.999992584229,2|0,0:0|0:0,0:0:0:0:
245,97,71981,1,0,0:0:0:0:
378,4,72731,1,0,0:0:0:0:
474,134,73481,2,0,B|371:227|371:227|377:292|444:306,1,242.999992584229,2|0,0:0|0:0,0:0:0:0:
511,323,74981,1,0,0:0:0:0:
355,366,75731,1,0,0:0:0:0:
324,206,76481,6,0,P|228:152|178:249,1,242.999992584229,2|0,0:0|0:0,0:0:0:0:
122,307,77981,2,0,B|86:320|63:360|63:360|54:316|20:293,1,161.999995056153
55,179,79293,1,2,0:0:0:0:
55,179,79481,1,2,0:0:0:0:
364,274,80981,2,0,B|407:293|407:293|412:297|412:297|416:294|416:294|463:283,2,107.999996704102
298,188,82481,6,0,L|323:15,1,161.999995056153,2|0,0:0|0:0,0:0:0:0:
160,5,83981,2,0,L|135:178,1,161.999995056153
92,233,85106,2,0,P|77:225|61:222,2,26.9999991760254,2|0|0,0:0|0:0|0:0,0:0:0:0:
112,250,85481,6,0,B|127:255|127:255|135:246|135:246|271:233,1,161.999995056153,2|0,0:0|0:0,0:0:0:0:
429,218,86981,1,2,0:0:0:0:
310,5,88106,2,0,L|262:23,1,40.4999987640381,2|0,0:0|0:0,0:0:0:0:
237,42,88481,5,4,0:0:0:0:
237,42,88668,1,0,0:0:0:0:
237,42,88856,1,2,0:0:0:0:
161,92,89231,2,0,B|133:129|133:129|144:193,1,90,0|2,0:0|0:0,0:0:0:0:
176,254,89981,2,0,B|166:275|166:275|146:282,1,45
112,312,90356,2,0,B|88:310|88:310|75:292,1,45,2|0,0:0|0:0,0:0:0:0:
40,263,90731,1,0,0:0:0:0:
23,184,91106,1,2,0:0:0:0:
23,184,91293,1,0,0:0:0:0:
23,184,91481,6,0,B|37:165|37:165|33:144,2,45,2|0|2,0:0|0:0|0:0,0:0:0:0:
25,274,92231,2,0,B|35:295|35:295|55:302,1,45
89,332,92606,2,0,B|113:330|113:330|126:312,1,45,2|0,0:0|0:0,0:0:0:0:
177,331,92981,1,0,0:0:0:0:
177,331,93168,1,0,0:0:0:0:
177,331,93356,1,2,0:0:0:0:
232,260,93731,2,0,B|229:236|229:236|245:220,2,45,0|0|2,0:0|0:0|0:0,0:0:0:0:
264,290,94293,1,0,0:0:0:0:
264,290,94481,6,0,B|308:285|308:285|311:282|311:282|357:278,1,90,0|2,0:0|0:0,0:0:0:0:
416,342,95231,2,0,B|453:314|453:314|517:325,1,90,0|2,0:0|0:0,0:0:0:0:
481,232,95981,2,0,B|460:222|460:222|453:202,1,45
423,168,96356,2,0,B|425:144|425:144|443:131,1,45,2|0,0:0|0:0,0:0:0:0:
472,96,96731,1,0,0:0:0:0:
411,29,97106,1,2,0:0:0:0:
411,29,97293,1,0,0:0:0:0:
411,29,97481,6,0,B|387:32|387:32|371:16,2,45,0|0|2,0:0|0:0|0:0,0:0:0:0:
385,115,98231,2,0,B|364:125|364:125|357:145,1,45
327,179,98606,2,0,B|329:203|329:203|347:216,1,45,2|0,0:0|0:0,0:0:0:0:
376,248,98981,1,0,0:0:0:0:
340,330,99356,1,2,0:0:0:0:
282,276,99731,1,0,0:0:0:0:
282,276,99918,1,0,0:0:0:0:
282,276,100106,2,0,P|264:294|233:313,1,45,2|0,0:0|0:0,0:0:0:0:
209,329,100481,6,0,L|112:308,1,90,6|8,0:0|0:0,0:0:0:0:
121,219,101231,2,0,L|218:240,1,90,2|8,0:0|0:0,0:0:0:0:
251,158,101981,1,2,0:0:0:0:
332,196,102356,1,8,0:0:0:0:
388,126,102731,2,0,L|441:138,1,45,2|0,0:0|0:0,0:0:0:0:
483,157,103106,1,8,0:0:0:0:
483,157,103293,1,8,0:0:0:0:
483,157,103481,6,0,L|495:250,1,90,2|8,0:0|0:0,0:0:0:0:
410,277,104231,1,2,0:0:0:0:
380,192,104606,1,8,0:0:0:0:
295,222,104981,2,0,L|199:208,2,90,2|8|2,0:0|0:0|0:0,0:0:0:0:
350,153,106106,1,8,0:0:0:0:
350,153,106293,1,8,0:0:0:0:
350,153,106481,6,0,L|343:53,1,90,0|10,0:0|0:0,0:0:0:0:
253,69,107231,2,0,L|259:158,1,90,0|10,0:0|0:0,0:0:0:0:
168,163,107981,2,0,L|162:74,2,90,0|10|0,0:0|0:0|0:0,0:0:0:0:
106,228,109106,1,10,0:0:0:0:
106,228,109293,1,10,0:0:0:0:
106,228,109481,6,0,L|6:221,1,90,0|10,0:0|0:0,0:0:0:0:
2,132,110231,2,0,L|58:48,1,90,0|10,0:0|0:0,0:0:0:0:
137,89,110981,1,0,0:0:0:0:
187,14,111356,1,10,0:0:0:0:
275,32,111731,1,0,0:0:0:0:
232,114,112106,1,10,0:0:0:0:
232,114,112293,1,10,0:0:0:0:
232,114,112481,6,0,L|135:135,1,90,6|8,0:0|0:0,0:0:0:0:
144,224,113231,2,0,L|241:203,1,90,2|8,0:0|0:0,0:0:0:0:
274,285,113981,1,2,0:0:0:0:
355,247,114356,1,8,0:0:0:0:
411,317,114731,2,0,L|464:305,1,45,2|0,0:0|0:0,0:0:0:0:
501,276,115106,1,8,0:0:0:0:
501,276,115293,1,8,0:0:0:0:
501,276,115481,6,0,L|513:183,1,90,2|8,0:0|0:0,0:0:0:0:
424,203,116231,1,2,0:0:0:0:
372,276,116606,1,8,0:0:0:0:
298,225,116981,2,0,L|202:239,2,90,2|8|2,0:0|0:0|0:0,0:0:0:0:
336,149,118106,1,8,0:0:0:0:
336,149,118293,1,8,0:0:0:0:
336,149,118481,6,0,P|307:74|311:51,1,90,0|10,0:0|0:0,0:0:0:0:
371,3,119231,2,0,P|450:15|468:30,1,90,0|10,0:0|0:0,0:0:0:0:
479,106,119981,2,0,P|428:168|406:176,2,90,0|10|0,0:0|0:0|0:0,0:0:0:0:
445,22,121106,1,10,0:0:0:0:
358,46,121481,6,0,B|344:43|333:31|333:31|258:38|258:38|255:45|255:45|188:37|188:37|184:44|184:44|90:53,1,270,0|10,0:0|0:0,0:0:0:0:
13,43,122981,2,0,L|4:-1,2,45,2|2|8,0:0|0:0|0:0,0:0:0:0:
43,127,123731,2,0,L|-1:136,2,45,2|2|8,0:0|0:0|0:0,0:0:0:0:
78,163,124293,1,10,0:0:0:0:
78,163,124481,6,0,P|60:206|56:275,1,99.0000030212403,6|8,0:0|0:0,0:0:0:0:
93,296,125043,1,0,0:0:0:0:
93,296,125231,1,2,0:0:0:0:
160,223,125606,2,0,L|221:237,1,49.5000015106202,8|0,0:0|0:0,0:0:0:0:
243,198,125981,2,0,P|225:155|221:86,1,99.0000030212403,2|8,0:0|0:0,0:0:0:0:
255,69,126543,1,0,0:0:0:0:
255,69,126731,1,2,0:0:0:0:
348,102,127106,1,14,0:0:0:0:
369,5,127481,6,0,L|306:-3,2,49.5000015106202,6|0|8,0:0|0:0|0:0,0:0:0:0:
422,4,128043,1,0,0:0:0:0:
422,4,128231,2,0,P|440:47|444:116,1,99.0000030212403,2|8,0:0|0:0,0:0:0:0:
498,182,128981,1,2,0:0:0:0:
416,237,129356,1,8,0:0:0:0:
475,329,129731,1,6,0:0:0:0:
475,329,129918,1,0,0:0:0:0:
475,329,130106,2,0,L|419:348,1,49.5000015106202,14|8,0:0|0:0,0:0:0:0:
384,368,130481,6,0,P|341:350|272:346,1,99.0000030212403,6|8,0:0|0:0,0:0:0:0:
249,371,131043,1,0,0:0:0:0:
249,371,131231,1,2,0:0:0:0:
195,287,131606,2,0,L|181:226,1,49.5000015106202,8|0,0:0|0:0,0:0:0:0:
215,200,131981,2,0,P|258:182|327:178,1,99.0000030212403,2|8,0:0|0:0,0:0:0:0:
354,208,132543,1,0,0:0:0:0:
354,208,132731,1,2,0:0:0:0:
397,119,133106,1,14,0:0:0:0:
316,61,133481,6,0,L|308:-2,2,49.5000015106202,6|0|8,0:0|0:0|0:0,0:0:0:0:
313,114,134043,1,0,0:0:0:0:
313,114,134231,2,0,P|270:96|201:92,1,99.0000030212403,2|8,0:0|0:0,0:0:0:0:
134,142,134981,1,2,0:0:0:0:
80,61,135356,1,8,0:0:0:0:
8,128,135731,1,6,0:0:0:0:
8,128,135918,1,0,0:0:0:0:
8,128,136106,1,14,0:0:0:0:
112,163,136481,6,0,P|143:174|181:170,2,53.9999983520508,6|0|8,0:0|0:0|0:0,0:0:0:0:
90,57,137231,2,0,P|101:26|97:-12,2,53.9999983520508,6|0|8,0:0|0:0|0:0,0:0:0:0:
143,83,137793,1,0,0:0:0:0:
143,83,137981,2,0,L|214:74,1,53.9999983520508,6|0,0:0|0:0,0:0:0:0:
249,67,138356,1,8,0:0:0:0:
342,8,138731,1,6,0:0:0:0:
342,8,138918,1,0,0:0:0:0:
342,8,139106,1,14,0:0:0:0:
405,95,139481,6,0,P|396:114|392:162,2,53.9999983520508,6|0|8,0:0|0:0|0:0,0:0:0:0:
449,64,140043,1,0,0:0:0:0:
449,64,140231,1,6,0:0:0:0:
511,151,140606,1,8,0:0:0:0:
426,217,140981,2,0,P|448:266|459:318,1,107.999996704102,6|8,0:0|0:0,0:0:0:0:
368,376,141731,1,6,0:0:0:0:
368,376,141918,1,0,0:0:0:0:
330,345,142106,1,14,0:0:0:0:
330,345,142293,1,8,0:0:0:0:
277,359,142481,6,0,L|215:382,2,53.9999983520508,6|0|8,0:0|0:0|0:0,0:0:0:0:
286,258,143231,1,6,0:0:0:0:
286,258,143418,1,0,0:0:0:0:
286,258,143606,2,0,L|298:193,1,53.9999983520508,8|0,0:0|0:0,0:0:0:0:
332,164,143981,2,0,P|359:163|385:155,2,53.9999983520508,6|0|8,0:0|0:0|0:0,0:0:0:0:
282,69,144731,1,6,0:0:0:0:
186,120,145106,1,14,0:0:0:0:
186,120,145293,1,8,0:0:0:0:
186,120,145481,6,0,P|196:144|201:195,2,53.9999983520508,6|0|8,0:0|0:0|0:0,0:0:0:0:
92,66,146231,2,0,P|102:42|107:-9,2,53.9999983520508,6|0|8,0:0|0:0|0:0,0:0:0:0:
50,98,146793,1,0,0:0:0:0:
50,98,146981,2,0,P|26:88|-25:83,2,53.9999983520508,6|0|12,0:0|0:0|0:0,0:0:0:0:
58,205,147731,1,6,0:0:0:0:
45,257,147918,1,2,0:0:0:0:
32,309,148106,1,14,0:0:0:0:
19,361,148293,6,0,L|79:382,1,53.9999983520508,10|4,0:0|0:0,0:0:0:0:
