osu file format v14

[General]
AudioFilename: audio.mp3
AudioLeadIn: 0
PreviewTime: 124481
Countdown: 0
SampleSet: Soft
StackLeniency: 0.7
Mode: 0
LetterboxInBreaks: 0
WidescreenStoryboard: 0

[Editor]
Bookmarks: 1481,13481,24918,37481,49481,52481,64481,100481,124481,136481,148481
DistanceSpacing: 1.3
BeatDivisor: 4
GridSize: 16
TimelineZoom: 2.599999

[Metadata]
Title:Psycho Gene
TitleUnicode:Psycho Gene
Artist:cygnus
ArtistUnicode:cygnus
Creator:Matrix
Version:"Paralysis"
Source:
Tags:electronic gothic dramatic instrumental cry for the infinity niva heaven punisher wispy
BeatmapID:3911945
BeatmapSetID:1884657

[Difficulty]
HPDrainRate:5
CircleSize:5
OverallDifficulty:8
ApproachRate:9
SliderMultiplier:1.6
SliderTickRate:1

[Events]
//Background and Video events
0,0,"Psycho Gene.jpg",0,0
//Break Periods
//Storyboard Layer 0 (Background)
//Storyboard Layer 1 (Fail)
//Storyboard Layer 2 (Pass)
//Storyboard Layer 3 (Foreground)
//Storyboard Layer 4 (Overlay)
//Storyboard Sound Samples

[TimingPoints]
1481,375,4,2,1,45,1,0
13481,-83.3333333333333,4,2,1,71,0,0
24918,-71.4285714285714,4,2,1,71,0,0
37481,-83.3333333333333,4,2,1,75,0,1
49481,-83.3333333333333,4,2,4,66,0,1
49574,-83.3333333333333,4,2,1,66,0,0
52106,-83.3333333333333,4,2,1,5,0,0
52481,-125,4,2,3,60,0,0
52856,-125,4,2,1,60,0,0
64481,-125,4,2,1,45,0,0
88481,-90.9090909090909,4,2,1,70,0,0
100481,-76.9230769230769,4,2,1,70,0,0
124481,-83.3333333333333,4,2,1,90,0,1
124668,-83.3333333333333,4,2,1,75,0,1
136481,-83.3333333333333,4,2,1,90,0,1
136574,-83.3333333333333,4,2,1,75,0,1
148481,-83.3333333333333,4,2,2,75,0,0

[Colours]
Combo1 : 161,161,161
Combo2 : 130,220,242
Combo3 : 168,192,251
Combo4 : 133,138,245

[HitObjects]
184,328,1481,5,0,0:0:0:0:
110,357,1856,1,2,0:0:0:0:
54,301,2231,1,0,0:0:0:0:
87,228,2606,1,2,0:0:0:0:
153,181,2981,1,0,0:0:0:0:
176,106,3356,1,2,0:0:0:0:
153,30,3731,1,2,0:0:0:0:
71,131,4106,5,2,0:0:0:0:
48,55,4293,1,2,0:0:0:0:
60,144,4481,2,0,L|143:137,1,80
220,48,4856,2,0,L|303:41,1,80,2|0,0:0|0:0,0:0:0:0:
319,55,5231,2,0,L|239:61,1,80
158,154,5606,2,0,L|78:160,1,80,2|0,0:0|0:0,0:0:0:0:
234,134,5981,5,0,0:0:0:0:
286,186,6356,1,2,0:0:0:0:
263,275,6731,1,0,0:0:0:0:
141,307,7106,5,2,0:0:0:0:
259,261,7293,1,2,0:0:0:0:
372,365,7481,5,4,0:0:0:0:
53,322,8231,1,2,0:0:0:0:
459,255,8981,2,0,B|417:250|417:250|390:270|390:270|309:264,1,120,2|0,0:0|0:0,0:0:0:0:
61,207,9731,2,0,B|103:211|103:211|130:192|130:192|211:198,1,120,2|0,0:0|0:0,0:0:0:0:
422,109,10481,1,2,0:0:0:0:
103,66,11231,1,2,0:0:0:0:
195,77,11981,6,0,L|205:186,1,80,2|0,0:0|0:0,0:0:0:0:
170,203,12262,1,0,0:0:0:0:
179,192,12356,2,0,L|290:208,1,80,2|0,0:0|0:0,0:0:0:0:
413,274,12731,2,0,L|302:258,1,80,2|0,0:0|0:0,0:0:0:0:
301,304,13012,1,0,0:0:0:0:
291,296,13106,2,0,L|301:405,1,80,2|0,0:0|0:0,0:0:0:0:
27,351,13481,5,4,0:0:0:0:
189,263,13668,2,0,L|185:387,1,95.9999970703126,0|8,0:0|0:0,0:0:0:0:
123,289,14043,2,0,L|180:303,1,47.9999985351563
189,263,14231,2,0,L|185:387,1,95.9999970703126
35,205,14606,1,8,0:0:0:0:
190,116,14793,2,0,L|143:104,1,47.9999985351563
129,77,14981,2,0,L|125:201,1,95.9999970703126
141,201,15356,2,0,L|144:105,1,95.9999970703126,8|0,0:0|0:0,0:0:0:0:
34,52,15731,1,0,0:0:0:0:
259,2,15918,2,0,L|256:83,1,47.9999985351563
255,97,16106,5,8,0:0:0:0:
382,32,16293,1,0,0:0:0:0:
495,118,16481,2,0,L|492:176,1,47.9999985351563
416,226,16668,2,0,L|413:273,1,47.9999985351563
399,118,16856,6,0,L|517:118,1,95.9999970703126,8|0,0:0|0:0,0:0:0:0:
389,134,17231,2,0,L|417:229,1,95.9999970703126
348,30,17606,2,0,L|376:125,1,95.9999970703126,8|0,0:0|0:0,0:0:0:0:
363,137,17981,2,0,L|267:137,1,95.9999970703126
160,126,18356,2,0,L|256:126,1,95.9999970703126,8|0,0:0|0:0,0:0:0:0:
206,21,18731,2,0,L|178:113,1,95.9999970703126
69,45,19106,1,8,0:0:0:0:
198,185,19293,1,0,0:0:0:0:
6,229,19481,5,0,0:0:0:0:
61,351,19668,1,2,0:0:0:0:
63,339,19762,1,0,0:0:0:0:
65,327,19856,1,8,0:0:0:0:
83,148,20043,1,0,0:0:0:0:
157,237,20230,5,2,0:0:0:0:
155,249,20324,1,0,0:0:0:0:
153,261,20418,1,0,0:0:0:0:
256,290,20606,1,8,0:0:0:0:
359,319,20793,1,0,0:0:0:0:
458,221,20981,5,2,0:0:0:0:
456,233,21075,1,0,0:0:0:0:
454,245,21169,1,0,0:0:0:0:
359,319,21356,1,10,0:0:0:0:
371,317,21450,1,0,0:0:0:0:
383,315,21544,1,0,0:0:0:0:
143,320,21731,5,0,0:0:0:0:
256,290,21918,1,2,0:0:0:0:
254,302,22012,1,0,0:0:0:0:
252,314,22106,1,8,0:0:0:0:
359,319,22293,1,0,0:0:0:0:
356,102,22481,6,0,B|372:134|372:134|367:205,1,95.9999970703126,2|2,0:0|0:0,0:0:0:0:
319,201,22762,1,0,0:0:0:0:
325,191,22856,2,0,L|214:185,1,95.9999970703126,8|0,0:0|0:0,0:0:0:0:
103,226,23231,5,2,0:0:0:0:
101,238,23325,1,0,0:0:0:0:
99,250,23419,1,0,0:0:0:0:
26,339,23606,1,10,0:0:0:0:
24,351,23700,1,0,0:0:0:0:
22,363,23794,1,0,0:0:0:0:
237,313,23981,5,0,0:0:0:0:
448,239,24168,1,2,0:0:0:0:
450,251,24262,1,0,0:0:0:0:
452,263,24356,1,8,0:0:0:0:
260,209,24543,1,0,0:0:0:0:
364,121,24731,6,0,L|363:169,1,47.9999985351563,2|0,0:0|0:0,0:0:0:0:
395,88,24918,2,0,B|353:92|353:92|335:86|335:86|272:90,2,111.999996582031,2|10|0,0:0|0:0|0:0,0:0:0:0:
181,145,25481,5,6,0:0:0:0:
210,179,25668,1,0,0:0:0:0:
179,178,25856,1,8,0:0:0:0:
212,145,26043,1,0,0:0:0:0:
119,234,26231,5,2,0:0:0:0:
271,83,26418,1,0,0:0:0:0:
262,238,26606,1,8,0:0:0:0:
129,83,26793,1,0,0:0:0:0:
64,157,26981,5,2,0:0:0:0:
327,158,27168,1,0,0:0:0:0:
204,35,27356,1,8,0:0:0:0:
185,285,27543,1,0,0:0:0:0:
28,77,27731,5,2,0:0:0:0:
155,163,27918,1,0,0:0:0:0:
185,285,28106,1,10,0:0:0:0:
164,376,28293,1,0,0:0:0:0:
453,84,28481,5,2,0:0:0:0:
366,124,28668,1,0,0:0:0:0:
453,84,28856,1,8,0:0:0:0:
511,156,29043,1,0,0:0:0:0:
432,184,29231,5,2,0:0:0:0:
333,229,29418,1,0,0:0:0:0:
432,184,29606,1,8,0:0:0:0:
497,265,29793,1,0,0:0:0:0:
411,275,29981,5,2,0:0:0:0:
292,329,30168,1,0,0:0:0:0:
411,275,30356,1,8,0:0:0:0:
489,372,30543,1,0,0:0:0:0:
432,184,30731,5,2,0:0:0:0:
373,347,30918,1,0,0:0:0:0:
231,384,31106,1,10,0:0:0:0:
132,361,31293,1,0,0:0:0:0:
48,96,31481,5,2,0:0:0:0:
288,16,31668,1,0,0:0:0:0:
144,120,31856,1,8,0:0:0:0:
142,108,31949,1,0,0:0:0:0:
140,96,32043,1,0,0:0:0:0:
480,208,32231,5,2,0:0:0:0:
240,128,32418,1,0,0:0:0:0:
384,232,32606,1,8,0:0:0:0:
386,220,32700,1,0,0:0:0:0:
388,208,32793,1,0,0:0:0:0:
48,312,32981,5,2,0:0:0:0:
288,232,33168,1,0,0:0:0:0:
144,336,33356,1,8,0:0:0:0:
142,324,33450,1,0,0:0:0:0:
140,312,33543,1,0,0:0:0:0:
202,149,33731,5,2,0:0:0:0:
328,56,33918,1,0,0:0:0:0:
304,149,34106,1,10,0:0:0:0:
178,56,34293,1,0,0:0:0:0:
22,178,34481,5,2,0:0:0:0:
171,178,34668,1,0,0:0:0:0:
31,315,34856,1,8,0:0:0:0:
31,166,35043,1,0,0:0:0:0:
251,236,35231,5,2,0:0:0:0:
102,236,35418,1,0,0:0:0:0:
258,77,35606,1,8,0:0:0:0:
258,226,35793,1,0,0:0:0:0:
473,151,35981,5,2,0:0:0:0:
323,151,36168,1,0,0:0:0:0:
482,307,36356,1,8,0:0:0:0:
482,158,36543,1,0,0:0:0:0:
184,328,36731,5,2,0:0:0:0:
310,235,36918,1,0,0:0:0:0:
334,328,37106,1,10,0:0:0:0:
208,235,37293,1,0,0:0:0:0:
7,44,37481,5,6,0:0:0:0:
37,21,37574,1,0,0:0:0:0:
75,15,37668,1,2,0:0:0:0:
111,26,37762,1,0,0:0:0:0:
138,52,37856,2,0,P|150:79|150:119,1,47.9999985351563,10|0,0:0|0:0,0:0:0:0:
137,132,38043,2,0,P|131:165|134:209,1,47.9999985351563
282,127,38231,5,2,0:0:0:0:
304,157,38324,1,0,0:0:0:0:
302,195,38418,1,0,0:0:0:0:
270,217,38512,1,0,0:0:0:0:
232,208,38606,2,0,P|216:190|209:154,1,47.9999985351563,10|0,0:0|0:0,0:0:0:0:
215,129,38793,2,0,P|219:109|214:46,1,47.9999985351563,2|0,0:0|0:0,0:0:0:0:
138,52,38981,5,2,0:0:0:0:
140,90,39074,1,0,0:0:0:0:
121,123,39168,1,0,0:0:0:0:
85,138,39262,1,0,0:0:0:0:
46,137,39356,2,0,P|34:178|37:212,1,47.9999985351563,8|0,0:0|0:0,0:0:0:0:
52,216,39543,2,0,P|56:257|50:295,1,47.9999985351563,2|0,0:0|0:0,0:0:0:0:
26,384,39731,6,0,L|41:316,1,47.9999985351563
102,358,39918,2,0,L|117:290,1,47.9999985351563,2|0,0:0|0:0,0:0:0:0:
122,196,40106,2,0,L|137:264,1,47.9999985351563,8|0,0:0|0:0,0:0:0:0:
198,222,40293,2,0,L|213:290,1,47.9999985351563,8|0,0:0|0:0,0:0:0:0:
282,331,40481,5,2,0:0:0:0:
284,293,40574,1,0,0:0:0:0:
307,262,40668,1,2,0:0:0:0:
343,250,40762,1,0,0:0:0:0:
380,259,40856,2,0,P|398:275|413:306,1,47.9999985351563,10|0,0:0|0:0,0:0:0:0:
423,331,41043,2,0,P|447:344|481:346,1,47.9999985351563
478,266,41231,5,2,0:0:0:0:
453,237,41324,1,0,0:0:0:0:
442,199,41418,1,0,0:0:0:0:
453,162,41512,1,0,0:0:0:0:
474,129,41606,2,0,P|485:108|488:58,1,47.9999985351563,10|0,0:0|0:0,0:0:0:0:
491,45,41793,2,0,P|476:15|462:1,1,47.9999985351563,2|0,0:0|0:0,0:0:0:0:
419,60,41981,5,2,0:0:0:0:
409,96,42074,1,0,0:0:0:0:
377,117,42168,1,0,0:0:0:0:
338,112,42262,1,0,0:0:0:0:
313,82,42356,2,0,P|314:54|334:20,1,47.9999985351563,8|0,0:0|0:0,0:0:0:0:
352,12,42543,2,0,P|383:15|410:27,1,47.9999985351563,2|0,0:0|0:0,0:0:0:0:
252,23,42731,6,0,L|193:40,1,47.9999985351563,2|0,0:0|0:0,0:0:0:0:
243,100,42918,2,0,L|184:117,1,47.9999985351563,2|0,0:0|0:0,0:0:0:0:
134,80,43106,2,0,L|75:97,1,47.9999985351563,10|0,0:0|0:0,0:0:0:0:
125,157,43293,2,0,L|66:174,1,47.9999985351563,10|0,0:0|0:0,0:0:0:0:
97,253,43481,5,2,0:0:0:0:
63,237,43574,1,0,0:0:0:0:
26,243,43668,1,2,0:0:0:0:
2,272,43762,1,0,0:0:0:0:
0,310,43856,2,0,P|9:337|26:362,1,47.9999985351563,10|0,0:0|0:0,0:0:0:0:
57,345,44043,2,0,P|81:359|110:368,1,47.9999985351563
185,348,44231,5,2,0:0:0:0:
215,325,44324,1,0,0:0:0:0:
230,289,44418,1,0,0:0:0:0:
224,250,44512,1,0,0:0:0:0:
198,221,44606,2,0,P|181:201|172:173,1,47.9999985351563,10|0,0:0|0:0,0:0:0:0:
202,155,44793,2,0,P|201:128|212:101,1,47.9999985351563,2|0,0:0|0:0,0:0:0:0:
273,139,44981,5,2,0:0:0:0:
280,101,45074,1,0,0:0:0:0:
267,64,45168,1,0,0:0:0:0:
235,41,45262,1,0,0:0:0:0:
196,41,45356,2,0,P|168:50|144:69,1,47.9999985351563,8|0,0:0|0:0,0:0:0:0:
139,96,45543,2,0,P|111:112|81:115,1,47.9999985351563,2|0,0:0|0:0,0:0:0:0:
5,170,45731,6,0,L|67:175,1,47.9999985351563
130,227,45918,2,0,L|68:232,1,47.9999985351563,2|0,0:0|0:0,0:0:0:0:
0,286,46106,2,0,L|62:291,1,47.9999985351563,8|0,0:0|0:0,0:0:0:0:
138,339,46293,2,0,L|76:344,1,47.9999985351563,10|0,0:0|0:0,0:0:0:0:
197,281,46481,5,2,0:0:0:0:
214,315,46574,1,0,0:0:0:0:
248,332,46668,1,2,0:0:0:0:
286,328,46762,1,0,0:0:0:0:
319,308,46856,2,0,P|346:304|384:305,1,47.9999985351563,10|0,0:0|0:0,0:0:0:0:
403,316,47043,2,0,P|427:328|454:332,1,47.9999985351563
446,256,47231,5,2,0:0:0:0:
409,243,47324,1,0,0:0:0:0:
390,209,47418,1,0,0:0:0:0:
400,171,47512,1,0,0:0:0:0:
434,153,47606,2,0,P|464:157|484:174,1,47.9999985351563,10|0,0:0|0:0,0:0:0:0:
497,200,47793,2,0,P|491:229|466:253,1,47.9999985351563,2|0,0:0|0:0,0:0:0:0:
332,239,47981,5,2,0:0:0:0:
316,204,48074,1,0,0:0:0:0:
284,181,48168,1,0,0:0:0:0:
245,175,48262,1,0,0:0:0:0:
208,185,48356,2,0,P|190:198|173:220,1,47.9999985351563,8|0,0:0|0:0,0:0:0:0:
167,256,48543,2,0,P|156:279|136:299,1,47.9999985351563,2|0,0:0|0:0,0:0:0:0:
64,300,48731,6,0,L|50:351,1,47.9999985351563,2|0,0:0|0:0,0:0:0:0:
92,187,48918,2,0,L|99:241,1,47.9999985351563,2|0,0:0|0:0,0:0:0:0:
56,80,49106,2,0,L|44:145,1,47.9999985351563,10|0,0:0|0:0,0:0:0:0:
119,0,49293,2,0,L|125:58,1,47.9999985351563,10|0,0:0|0:0,0:0:0:0:
43,6,49481,1,4,0:0:0:0:
256,192,49574,12,0,52106,0:0:0:0:
158,241,52481,5,6,0:0:0:0:
159,250,52856,1,0,0:0:0:0:
160,259,53231,1,0,0:0:0:0:
61,313,53606,1,0,0:0:0:0:
79,144,53981,1,2,0:0:0:0:
78,153,54356,1,0,0:0:0:0:
77,162,54731,1,0,0:0:0:0:
182,69,55106,1,0,0:0:0:0:
79,144,55293,1,0,0:0:0:0:
158,241,55481,5,2,0:0:0:0:
167,240,55856,1,0,0:0:0:0:
176,239,56231,1,0,0:0:0:0:
246,344,56606,1,0,0:0:0:0:
361,280,56981,1,2,0:0:0:0:
352,279,57356,1,0,0:0:0:0:
343,278,57731,1,0,0:0:0:0:
439,352,58106,1,2,0:0:0:0:
343,278,58293,1,0,0:0:0:0:
246,344,58481,5,2,0:0:0:0:
221,275,58668,1,0,0:0:0:0:
214,359,58856,2,0,B|160:376|160:376|94:335,1,128,2|0,0:0|0:0,0:0:0:0:
89,291,59606,6,0,L|84:376,1,64,2|0,0:0|0:0,0:0:0:0:
37,151,59981,1,2,0:0:0:0:
89,216,60168,1,0,0:0:0:0:
14,171,60356,2,0,B|68:147|68:147|134:169,1,128,2|0,0:0|0:0,0:0:0:0:
427,349,61106,6,0,L|423:285,1,64,2|0,0:0|0:0,0:0:0:0:
421,178,61481,1,2,0:0:0:0:
357,260,61668,1,0,0:0:0:0:
474,224,61856,2,0,B|433:190|433:190|355:207,1,128,2|0,0:0|0:0,0:0:0:0:
348,123,62606,6,0,L|343:206,1,64,2|0,0:0|0:0,0:0:0:0:
304,25,62981,1,2,0:0:0:0:
409,81,63168,1,0,0:0:0:0:
385,13,63356,2,0,B|356:64|356:64|275:82,1,128,2|0,0:0|0:0,0:0:0:0:
184,53,64106,1,2,0:0:0:0:
183,44,64294,1,2,0:0:0:0:
123,176,64481,5,6,0:0:0:0:
22,354,65981,1,0,0:0:0:0:
123,342,66731,1,0,0:0:0:0:
224,330,67481,1,2,0:0:0:0:
224,330,68981,1,0,0:0:0:0:
474,293,70481,5,2,0:0:0:0:
58,178,71981,1,0,0:0:0:0:
158,192,72731,1,0,0:0:0:0:
58,178,73481,1,2,0:0:0:0:
350,215,74981,5,0,0:0:0:0:
250,192,75731,1,0,0:0:0:0:
321,118,76481,1,2,0:0:0:0:
174,70,77981,5,0,0:0:0:0:
76,40,78731,1,0,0:0:0:0:
83,116,79293,5,2,0:0:0:0:
80,124,79356,5,0,0:0:0:0:
75,131,79418,5,0,0:0:0:0:
68,137,79481,5,2,0:0:0:0:
111,288,80981,5,0,0:0:0:0:
246,306,81481,5,0,0:0:0:0:
138,221,81981,5,0,0:0:0:0:
187,348,82481,5,2,0:0:0:0:
370,240,83981,5,0,0:0:0:0:
336,61,85106,5,2,0:0:0:0:
363,81,85231,5,0,0:0:0:0:
345,110,85356,5,0,0:0:0:0:
316,91,85481,5,2,0:0:0:0:
104,254,86981,5,2,0:0:0:0:
104,254,87074,1,0,0:0:0:0:
104,254,87168,2,0,L|109:308,1,32,2|0,0:0|0:0,0:0:0:0:
59,324,87356,2,0,L|97:317,1,32,2|0,0:0|0:0,0:0:0:0:
155,361,87543,1,2,0:0:0:0:
169,343,87637,1,2,0:0:0:0:
183,325,87731,1,0,0:0:0:0:
203,333,87824,1,0,0:0:0:0:
223,342,87918,2,0,L|261:335,1,32,2|0,0:0|0:0,0:0:0:0:
303,282,88106,6,0,L|331:277,2,16,2|0|0,0:0|0:0|0:0,0:0:0:0:
63,106,88481,6,0,L|49:222,1,88.000002685547,4|0,0:0|0:0,0:0:0:0:
146,65,88856,2,0,L|132:181,1,88.000002685547,2|0,0:0|0:0,0:0:0:0:
219,4,89231,2,0,B|235:33|235:33|322:56,1,88.000002685547
322,117,89606,2,0,L|439:92,1,88.000002685547,2|0,0:0|0:0,0:0:0:0:
481,258,89981,6,0,L|492:161,1,88.000002685547
404,284,90356,2,0,L|415:187,1,88.000002685547,2|0,0:0|0:0,0:0:0:0:
339,356,90731,2,0,B|323:327|323:327|236:304,1,88.000002685547
70,260,91106,1,2,0:0:0:0:
172,134,91293,1,0,0:0:0:0:
156,315,91481,1,2,0:0:0:0:
87,91,91668,5,0,0:0:0:0:
85,83,91762,1,0,0:0:0:0:
83,75,91856,1,2,0:0:0:0:
219,253,92043,1,0,0:0:0:0:
223,259,92137,1,0,0:0:0:0:
227,265,92231,1,0,0:0:0:0:
36,177,92418,1,0,0:0:0:0:
27,174,92512,1,0,0:0:0:0:
18,171,92606,1,2,0:0:0:0:
260,156,92793,1,0,0:0:0:0:
268,153,92887,1,0,0:0:0:0:
276,150,92981,6,0,L|374:156,1,88.000002685547
395,15,93356,2,0,L|346:88,1,88.000002685547,2|0,0:0|0:0,0:0:0:0:
452,185,93731,2,0,L|412:106,1,88.000002685547
329,232,94106,5,2,0:0:0:0:
247,49,94293,1,0,0:0:0:0:
222,277,94481,1,0,0:0:0:0:
225,267,94574,1,0,0:0:0:0:
228,257,94668,1,0,0:0:0:0:
326,74,94856,1,2,0:0:0:0:
323,84,94950,1,0,0:0:0:0:
320,94,95043,1,0,0:0:0:0:
310,384,95231,2,0,L|297:274,1,88.000002685547
118,57,95606,5,2,0:0:0:0:
186,278,95793,1,0,0:0:0:0:
211,19,95981,1,0,0:0:0:0:
209,29,96075,1,0,0:0:0:0:
208,39,96168,1,0,0:0:0:0:
90,240,96356,1,2,0:0:0:0:
91,230,96449,1,0,0:0:0:0:
92,220,96543,1,0,0:0:0:0:
300,36,96731,2,0,L|278:151,1,88.000002685547
28,146,97106,5,2,0:0:0:0:
204,130,97293,1,0,0:0:0:0:
380,114,97481,1,0,0:0:0:0:
378,123,97574,1,0,0:0:0:0:
376,132,97668,1,0,0:0:0:0:
304,281,97856,1,2,0:0:0:0:
306,272,97949,1,0,0:0:0:0:
308,263,98043,1,0,0:0:0:0:
269,109,98231,1,0,0:0:0:0:
276,116,98324,1,0,0:0:0:0:
283,122,98418,1,0,0:0:0:0:
413,296,98606,1,2,0:0:0:0:
406,289,98699,1,0,0:0:0:0:
399,283,98793,1,0,0:0:0:0:
202,220,98981,1,0,0:0:0:0:
211,217,99074,1,0,0:0:0:0:
220,214,99168,1,0,0:0:0:0:
474,194,99356,1,2,0:0:0:0:
465,197,99449,1,0,0:0:0:0:
456,200,99543,1,0,0:0:0:0:
233,384,99731,6,0,B|205:353|205:353|215:303,1,88.000002685547
341,195,100106,1,2,0:0:0:0:
308,364,100293,1,0,0:0:0:0:
228,69,100481,6,0,L|235:192,1,103.999995239258,6|0,0:0|0:0,0:0:0:0:
353,262,100856,1,8,0:0:0:0:
363,267,100950,1,0,0:0:0:0:
372,272,101043,1,0,0:0:0:0:
129,161,101231,1,2,0:0:0:0:
120,156,101325,1,0,0:0:0:0:
110,152,101418,1,0,0:0:0:0:
254,334,101606,1,8,0:0:0:0:
255,345,101700,1,0,0:0:0:0:
255,356,101793,1,0,0:0:0:0:
229,90,101981,1,2,0:0:0:0:
229,79,102075,1,0,0:0:0:0:
228,69,102168,1,0,0:0:0:0:
133,290,102356,1,8,0:0:0:0:
350,135,102543,2,0,B|314:156|314:156|293:251,2,103.999995239258,0|2|0,0:0|0:0|0:0,0:0:0:0:
467,269,103106,5,8,0:0:0:0:
428,0,103293,1,8,0:0:0:0:
330,357,103481,2,0,L|358:226,1,103.999995239258,2|0,0:0|0:0,0:0:0:0:
349,22,103856,2,0,L|320:151,1,103.999995239258,8|0,0:0|0:0,0:0:0:0:
343,357,104231,2,0,L|360:225,1,103.999995239258,2|0,0:0|0:0,0:0:0:0:
333,22,104606,2,0,L|315:152,1,103.999995239258,8|0,0:0|0:0,0:0:0:0:
360,356,104981,2,0,L|366:223,1,103.999995239258,2|0,0:0|0:0,0:0:0:0:
316,22,105356,2,0,L|310:155,1,103.999995239258,8|0,0:0|0:0,0:0:0:0:
376,353,105731,2,0,L|371:220,1,103.999995239258,2|0,0:0|0:0,0:0:0:0:
316,22,106106,1,8,0:0:0:0:
197,216,106293,1,8,0:0:0:0:
461,310,106481,5,0,0:0:0:0:
469,297,106574,1,2,0:0:0:0:
480,214,106762,1,0,0:0:0:0:
478,198,106856,1,10,0:0:0:0:
426,132,107043,1,2,0:0:0:0:
299,332,107231,5,0,0:0:0:0:
291,319,107324,1,2,0:0:0:0:
280,236,107512,1,0,0:0:0:0:
282,220,107606,1,10,0:0:0:0:
334,155,107793,1,2,0:0:0:0:
343,0,107981,5,0,0:0:0:0:
335,13,108074,1,2,0:0:0:0:
269,64,108262,1,0,0:0:0:0:
254,70,108356,1,10,0:0:0:0:
172,58,108543,1,2,0:0:0:0:
33,127,108731,5,0,0:0:0:0:
48,128,108824,1,2,0:0:0:0:
125,159,109012,1,0,0:0:0:0:
138,169,109106,1,10,0:0:0:0:
169,246,109293,1,10,0:0:0:0:
447,317,109481,5,0,0:0:0:0:
447,317,109574,1,2,0:0:0:0:
303,342,109762,1,0,0:0:0:0:
303,342,109856,1,10,0:0:0:0:
447,317,110043,1,2,0:0:0:0:
216,224,110231,5,0,0:0:0:0:
216,224,110324,1,2,0:0:0:0:
360,249,110512,1,0,0:0:0:0:
360,249,110606,1,10,0:0:0:0:
216,224,110793,1,2,0:0:0:0:
257,285,110981,5,0,0:0:0:0:
257,285,111074,1,2,0:0:0:0:
113,310,111262,1,0,0:0:0:0:
113,310,111356,1,10,0:0:0:0:
257,285,111543,1,2,0:0:0:0:
53,227,111731,5,0,0:0:0:0:
53,227,111824,1,2,0:0:0:0:
28,371,112012,1,0,0:0:0:0:
28,371,112106,1,10,0:0:0:0:
53,227,112293,1,10,0:0:0:0:
338,126,112481,6,0,L|321:236,1,103.999995239258,6|0,0:0|0:0,0:0:0:0:
436,88,112856,1,8,0:0:0:0:
451,87,112949,1,0,0:0:0:0:
465,91,113043,1,0,0:0:0:0:
240,170,113231,1,2,0:0:0:0:
225,171,113324,1,0,0:0:0:0:
211,167,113418,1,0,0:0:0:0:
422,193,113606,1,8,0:0:0:0:
430,205,113699,1,0,0:0:0:0:
434,219,113793,1,0,0:0:0:0:
253,64,113981,1,2,0:0:0:0:
245,52,114074,1,0,0:0:0:0:
241,38,114168,1,0,0:0:0:0:
317,246,114356,1,8,0:0:0:0:
357,10,114543,2,0,B|388:30|388:30|406:121,2,103.999995239258,0|2|0,0:0|0:0|0:0,0:0:0:0:
124,147,115106,5,8,0:0:0:0:
422,179,115293,1,8,0:0:0:0:
87,314,115481,2,0,P|186:323|213:317,1,103.999995239258,2|0,0:0|0:0,0:0:0:0:
503,307,115856,2,0,P|404:298|377:304,1,103.999995239258,8|0,0:0|0:0,0:0:0:0:
90,332,116231,2,0,P|189:332|215:324,1,103.999995239258,2|0,0:0|0:0,0:0:0:0:
499,288,116606,2,0,P|399:287|373:295,1,103.999995239258,8|0,0:0|0:0,0:0:0:0:
95,350,116981,2,0,P|194:341|219:331,1,103.999995239258,2|0,0:0|0:0,0:0:0:0:
494,270,117356,2,0,P|394:278|369:288,1,103.999995239258,8|0,0:0|0:0,0:0:0:0:
101,367,117731,2,0,P|198:350|223:337,1,103.999995239258,2|0,0:0|0:0,0:0:0:0:
14,349,118106,5,8,0:0:0:0:
268,244,118293,1,8,0:0:0:0:
0,206,118481,5,0,0:0:0:0:
0,206,118574,1,2,0:0:0:0:
64,156,118762,1,0,0:0:0:0:
64,156,118856,1,10,0:0:0:0:
61,41,119043,1,2,0:0:0:0:
89,238,119231,5,0,0:0:0:0:
89,238,119324,1,2,0:0:0:0:
153,188,119512,1,0,0:0:0:0:
153,188,119606,1,10,0:0:0:0:
175,33,119793,1,2,0:0:0:0:
178,270,119981,5,0,0:0:0:0:
178,270,120074,1,2,0:0:0:0:
242,220,120262,1,0,0:0:0:0:
242,220,120356,1,10,0:0:0:0:
289,25,120543,1,2,0:0:0:0:
267,302,120731,5,0,0:0:0:0:
267,302,120824,1,2,0:0:0:0:
331,252,121012,1,0,0:0:0:0:
331,252,121106,1,10,0:0:0:0:
403,17,121293,1,10,0:0:0:0:
266,41,121481,5,0,0:0:0:0:
269,55,121574,1,2,0:0:0:0:
313,126,121762,1,0,0:0:0:0:
325,137,121856,1,10,0:0:0:0:
406,154,122043,1,2,0:0:0:0:
487,232,122231,5,0,0:0:0:0:
487,232,122324,1,2,0:0:0:0:
413,252,122512,1,0,0:0:0:0:
413,252,122606,1,10,0:0:0:0:
373,318,122793,1,2,0:0:0:0:
249,384,122981,5,2,0:0:0:0:
218,379,123074,1,0,0:0:0:0:
198,354,123168,1,2,0:0:0:0:
198,322,123262,1,2,0:0:0:0:
218,249,123356,5,8,0:0:0:0:
202,251,123449,1,2,0:0:0:0:
186,254,123543,1,2,0:0:0:0:
170,257,123637,1,0,0:0:0:0:
99,267,123731,5,2,0:0:0:0:
102,252,123824,1,0,0:0:0:0:
105,236,123918,1,2,0:0:0:0:
109,220,124012,1,2,0:0:0:0:
169,184,124106,5,8,0:0:0:0:
189,160,124199,1,2,0:0:0:0:
189,128,124293,1,10,0:0:0:0:
167,103,124387,1,0,0:0:0:0:
102,127,124481,5,6,0:0:0:0:
49,10,124668,1,0,0:0:0:0:
101,136,124856,1,8,0:0:0:0:
176,32,125043,1,0,0:0:0:0:
100,145,125231,1,2,0:0:0:0:
236,117,125418,1,0,0:0:0:0:
99,154,125606,1,8,0:0:0:0:
236,191,125793,1,0,0:0:0:0:
98,163,125981,1,2,0:0:0:0:
205,246,126168,1,0,0:0:0:0:
97,172,126356,1,8,0:0:0:0:
173,278,126543,1,0,0:0:0:0:
0,321,126731,5,2,0:0:0:0:
411,287,126918,1,0,0:0:0:0:
316,384,127106,1,14,0:0:0:0:
266,56,127293,1,8,0:0:0:0:
411,192,127481,5,6,0:0:0:0:
512,136,127668,1,0,0:0:0:0:
402,191,127856,1,8,0:0:0:0:
489,100,128043,1,0,0:0:0:0:
393,190,128231,1,2,0:0:0:0:
434,69,128418,1,0,0:0:0:0:
384,189,128606,1,8,0:0:0:0:
342,71,128793,1,0,0:0:0:0:
375,188,128981,1,2,0:0:0:0:
243,131,129168,1,0,0:0:0:0:
366,187,129356,1,8,0:0:0:0:
211,252,129543,1,0,0:0:0:0:
54,133,129731,5,6,0:0:0:0:
453,112,129918,1,0,0:0:0:0:
319,28,130106,1,14,0:0:0:0:
392,348,130293,1,8,0:0:0:0:
241,262,130481,5,6,0:0:0:0:
385,168,130668,1,0,0:0:0:0:
227,220,130856,1,8,0:0:0:0:
306,80,131043,1,0,0:0:0:0:
198,253,131231,1,2,0:0:0:0:
230,54,131418,1,0,0:0:0:0:
244,247,131606,1,8,0:0:0:0:
153,69,131793,1,0,0:0:0:0:
223,208,131981,1,2,0:0:0:0:
60,153,132168,1,0,0:0:0:0:
201,245,132356,1,8,0:0:0:0:
36,308,132543,1,0,0:0:0:0:
269,348,132731,5,2,0:0:0:0:
252,43,132918,1,0,0:0:0:0:
119,303,133106,1,14,0:0:0:0:
413,279,133293,1,8,0:0:0:0:
151,123,133481,5,6,0:0:0:0:
33,128,133668,1,0,0:0:0:0:
134,165,133856,1,8,0:0:0:0:
39,211,134043,1,0,0:0:0:0:
178,158,134231,1,2,0:0:0:0:
99,292,134418,1,0,0:0:0:0:
139,133,134606,1,8,0:0:0:0:
225,320,134793,1,0,0:0:0:0:
130,176,134981,1,2,0:0:0:0:
360,261,135168,1,0,0:0:0:0:
170,162,135356,1,8,0:0:0:0:
385,99,135543,1,0,0:0:0:0:
139,61,135731,5,6,0:0:0:0:
502,127,135918,1,0,0:0:0:0:
302,20,136106,1,14,0:0:0:0:
238,355,136293,1,8,0:0:0:0:
42,384,136481,5,6,0:0:0:0:
49,358,136574,1,0,0:0:0:0:
53,346,136668,1,0,0:0:0:0:
59,321,136762,1,0,0:0:0:0:
131,293,136856,2,0,L|149:355,1,47.9999985351563,8|0,0:0|0:0,0:0:0:0:
206,240,137043,2,0,L|203:301,1,47.9999985351563
305,338,137231,5,6,0:0:0:0:
280,277,137324,1,0,0:0:0:0:
286,235,137418,1,0,0:0:0:0:
307,214,137512,1,0,0:0:0:0:
329,208,137606,2,0,L|326:266,1,47.9999985351563,8|0,0:0|0:0,0:0:0:0:
424,186,137793,2,0,L|421:244,1,47.9999985351563
486,141,137981,5,6,0:0:0:0:
425,116,138074,1,0,0:0:0:0:
383,122,138168,1,0,0:0:0:0:
362,143,138262,1,0,0:0:0:0:
356,165,138356,1,8,0:0:0:0:
350,187,138450,1,0,0:0:0:0:
329,208,138544,1,0,0:0:0:0:
287,214,138638,1,0,0:0:0:0:
226,189,138731,2,0,P|222:220|211:255,1,47.9999985351563,6|0,0:0|0:0,0:0:0:0:
151,147,138918,2,0,P|157:177|159:214,1,47.9999985351563
86,141,139106,2,0,P|102:167|116:201,1,47.9999985351563,14|0,0:0|0:0,0:0:0:0:
39,159,139293,2,0,P|63:177|88:204,1,47.9999985351563,8|0,0:0|0:0,0:0:0:0:
35,56,139481,5,6,0:0:0:0:
59,42,139574,1,0,0:0:0:0:
72,40,139668,1,0,0:0:0:0:
99,44,139762,1,0,0:0:0:0:
165,66,139856,2,0,P|187:74|219:76,1,47.9999985351563,8|0,0:0|0:0,0:0:0:0:
280,73,140043,2,0,P|303:68|331:54,1,47.9999985351563
417,0,140231,5,6,0:0:0:0:
392,61,140324,1,0,0:0:0:0:
398,103,140418,1,0,0:0:0:0:
419,124,140512,1,0,0:0:0:0:
441,130,140606,2,0,L|447:189,1,47.9999985351563,8|0,0:0|0:0,0:0:0:0:
508,215,140793,2,0,L|514:274,1,47.9999985351563
477,328,140981,5,6,0:0:0:0:
453,342,141074,1,0,0:0:0:0:
440,344,141168,1,0,0:0:0:0:
413,340,141262,1,0,0:0:0:0:
348,318,141356,1,8,0:0:0:0:
321,313,141450,1,0,0:0:0:0:
308,316,141544,1,0,0:0:0:0:
284,330,141637,1,0,0:0:0:0:
227,368,141731,2,0,L|172:360,1,47.9999985351563,6|0,0:0|0:0,0:0:0:0:
226,285,141918,2,0,L|171:277,1,47.9999985351563
116,324,142106,2,0,L|68:317,1,47.9999985351563,14|0,0:0|0:0,0:0:0:0:
115,241,142293,2,0,L|67:234,1,47.9999985351563,8|0,0:0|0:0,0:0:0:0:
28,149,142481,5,6,0:0:0:0:
61,162,142574,1,0,0:0:0:0:
73,157,142668,1,0,0:0:0:0:
89,126,142762,1,0,0:0:0:0:
80,57,142856,2,0,L|146:34,1,47.9999985351563,8|0,0:0|0:0,0:0:0:0:
225,70,143043,2,0,L|180:86,1,47.9999985351563
169,180,143231,5,6,0:0:0:0:
230,155,143324,1,0,0:0:0:0:
272,161,143418,1,0,0:0:0:0:
293,182,143512,1,0,0:0:0:0:
299,204,143606,2,0,L|344:188,1,47.9999985351563,8|0,0:0|0:0,0:0:0:0:
349,112,143793,2,0,L|394:96,1,47.9999985351563
479,97,143981,5,6,0:0:0:0:
504,158,144074,1,0,0:0:0:0:
498,200,144168,1,0,0:0:0:0:
477,221,144262,1,0,0:0:0:0:
455,227,144356,1,8,0:0:0:0:
433,233,144450,1,0,0:0:0:0:
412,254,144544,1,0,0:0:0:0:
406,296,144638,1,0,0:0:0:0:
431,357,144731,2,0,P|400:361|365:372,1,47.9999985351563,6|0,0:0|0:0,0:0:0:0:
312,274,144918,2,0,P|318:298|321:322,1,47.9999985351563
236,289,145106,2,0,P|240:320|251:355,1,47.9999985351563,14|0,0:0|0:0,0:0:0:0:
169,258,145293,2,0,P|145:263|121:266,1,47.9999985351563,8|0,0:0|0:0,0:0:0:0:
42,238,145481,5,6,0:0:0:0:
14,216,145575,1,0,0:0:0:0:
12,204,145669,1,0,0:0:0:0:
30,173,145762,1,0,0:0:0:0:
86,125,145856,2,0,L|74:46,1,47.9999985351563,8|0,0:0|0:0,0:0:0:0:
0,17,146043,2,0,L|7:64,1,47.9999985351563
180,203,146231,5,6,0:0:0:0:
205,142,146324,1,0,0:0:0:0:
199,101,146418,1,0,0:0:0:0:
178,79,146512,1,0,0:0:0:0:
156,73,146606,2,0,L|163:120,1,47.9999985351563,8|0,0:0|0:0,0:0:0:0:
203,0,146793,2,0,L|238:38,1,47.9999985351563
290,108,146981,5,6,0:0:0:0:
304,132,147074,1,0,0:0:0:0:
307,145,147168,1,0,0:0:0:0:
302,172,147262,1,0,0:0:0:0:
280,237,147356,1,12,0:0:0:0:
275,264,147450,1,0,0:0:0:0:
278,277,147544,1,0,0:0:0:0:
292,301,147637,1,0,0:0:0:0:
371,322,147731,6,0,P|395:311|418:288,1,47.9999985351563,6|0,0:0|0:0,0:0:0:0:
417,184,147918,2,0,P|429:204|434:227,1,47.9999985351563,2|0,0:0|0:0,0:0:0:0:
451,384,148106,2,0,P|466:362|474:331,1,47.9999985351563,14|0,0:0|0:0,0:0:0:0:
512,177,148293,2,0,P|512:200|505:223,1,47.9999985351563,10|0,0:0|0:0,0:0:0:0:
474,279,148481,5,4,0:0:0:0:
