osu file format v14

[General]
AudioFilename: audio.mp3
AudioLeadIn: 0
PreviewTime: 124481
Countdown: 0
SampleSet: Soft
StackLeniency: 0.4
Mode: 0
LetterboxInBreaks: 0
WidescreenStoryboard: 1

[Editor]
Bookmarks: 1481,13481,24918,37481,49481,52481,64481,100481,124481,136481,148481
DistanceSpacing: 1
BeatDivisor: 3
GridSize: 16
TimelineZoom: 1.3

[Metadata]
Title:Psycho Gene
TitleUnicode:Psycho Gene
Artist:cygnus
ArtistUnicode:cygnus
Creator:Matrix
Version:Niva's Insane
Source:
Tags:electronic gothic dramatic instrumental cry for the infinity niva heaven punisher wispy
BeatmapID:3950991
BeatmapSetID:1884657

[Difficulty]
HPDrainRate:6
CircleSize:4
OverallDifficulty:7.5
ApproachRate:9
SliderMultiplier:1.4
SliderTickRate:1

[Events]
//Background and Video events
0,0,"Psycho Gene.jpg",0,0
//Break Periods
//Storyboard Layer 0 (Background)
//Storyboard Layer 1 (Fail)
//Storyboard Layer 2 (Pass)
//Storyboard Layer 3 (Foreground)
//Storyboard Layer 4 (Overlay)
//Storyboard Sound Samples

[TimingPoints]
1481,375,4,2,1,45,1,0
1481,-166.666666666667,4,2,1,45,0,0
4106,-133.333333333333,4,2,1,45,0,0
7106,-153.846153846154,4,2,1,45,0,0
7481,-200,4,2,1,45,0,0
10481,-153.846153846154,4,2,1,45,0,0
11231,-166.666666666667,4,2,1,45,0,0
11981,-181.818181818182,4,2,1,45,0,0
12731,-222.222222222222,4,2,1,45,0,0
13481,-100,4,2,1,71,0,0
13856,-166.666666666667,4,2,1,71,0,0
14231,-153.846153846154,4,2,1,71,0,0
14606,-142.857142857143,4,2,1,71,0,0
14981,-105.263157894737,4,2,1,71,0,0
16106,-111.111111111111,4,2,1,71,0,0
16856,-181.818181818182,4,2,1,71,0,0
17231,-153.846153846154,4,2,1,71,0,0
17606,-142.857142857143,4,2,1,71,0,0
17981,-105.263157894737,4,2,1,71,0,0
19481,-142.857142857143,4,2,1,71,0,0
19762,-95.2380952380952,4,2,1,71,0,0
20231,-100,4,2,1,71,0,0
21356,-142.857142857143,4,2,1,71,0,0
22481,-125,4,2,1,71,0,0
22762,-86.9565217391304,4,2,1,71,0,0
23231,-95.2380952380952,4,2,1,71,0,0
24356,-153.846153846154,4,2,1,71,0,0
25481,-117.647058823529,4,2,1,71,0,0
25856,-153.846153846153,4,2,1,71,0,0
26231,-117.647058823529,4,2,1,71,0,0
26981,-105.263157894737,4,2,1,71,0,0
28481,-100,4,2,1,71,0,0
28856,-125,4,2,1,71,0,0
29606,-100,4,2,1,71,0,0
29981,-105.263157894737,4,2,1,71,0,0
31481,-117.647058823529,4,2,1,71,0,0
32981,-105.263157894737,4,2,1,71,0,0
34106,-142.857142857143,4,2,1,71,0,0
34856,-153.846153846154,4,2,1,71,0,0
35231,-133.333333333333,4,2,1,71,0,0
35606,-117.647058823529,4,2,1,71,0,0
35981,-100,4,2,1,71,0,0
37481,-100,4,2,1,75,0,1
37856,-142.857142857143,4,2,1,75,0,1
38231,-90.9090909090909,4,2,1,75,0,1
38981,-100,4,2,1,75,0,1
39356,-133.333333333333,4,2,1,75,0,1
40856,-100,4,2,1,75,0,1
41231,-80,4,2,1,75,0,1
41979,-100,4,2,1,75,0,1
41981,-111.111111111111,4,2,1,75,0,1
42356,-100,4,2,1,75,0,1
42731,-95.2380952380954,4,2,1,75,0,1
43668,-117.647058823529,4,2,1,75,0,1
44231,-90.9090909090909,4,2,1,75,0,1
44981,-105.263157894737,4,2,1,75,0,1
45731,-133.333333333334,4,2,1,75,0,1
46106,-117.64705882353,4,2,1,75,0,1
46481,-100,4,2,1,75,0,1
47981,-142.857142857143,4,2,1,75,0,1
48731,-55.5555555555556,4,2,1,75,0,1
48918,-125,4,2,1,75,0,1
49106,-111.111111111111,4,2,1,75,0,1
49293,-166.666666666667,4,2,1,75,0,0
49316,-166.666666666667,4,2,2,65,0,0
49481,-166.666666666667,4,2,1,60,0,0
49668,-166.666666666667,4,2,2,55,0,0
49856,-166.666666666667,4,2,1,50,0,0
50043,-166.666666666667,4,2,2,45,0,0
50231,-166.666666666667,4,2,1,40,0,0
50418,-166.666666666667,4,2,2,35,0,0
50606,-166.666666666667,4,2,1,30,0,0
50793,-166.666666666667,4,2,2,25,0,0
50981,-166.666666666667,4,2,1,40,0,0
52106,-166.666666666667,4,2,1,5,0,0
52481,-166.666666666667,4,2,3,60,0,0
52856,-166.666666666667,4,2,1,60,0,0
53981,-200,4,2,1,60,0,0
55106,-181.818181818182,4,2,1,60,0,0
58106,-125,4,2,1,60,0,0
58481,-181.818181818182,4,2,1,60,0,0
59231,-222.222222222222,4,2,1,60,0,0
61106,-133.333333333333,4,2,1,60,0,0
64106,-166.666666666667,4,2,1,45,0,0
66731,-181.818181818182,4,2,1,45,0,0
70106,-142.857142857143,4,2,1,45,0,0
70481,-153.846153846154,4,2,1,45,0,0
71981,-153.846153846154,4,2,1,45,0,0
72731,-181.818181818182,4,2,1,45,0,0
74981,-200,4,2,1,45,0,0
75731,-250,4,2,1,45,0,0
76481,-181.818181818182,4,2,1,45,0,0
77981,-166.666666666667,4,2,1,45,0,0
78731,-181.818181818182,4,2,1,45,0,0
80981,-250,4,2,1,45,0,0
81356,-250,4,2,1,5,0,0
81449,-200,4,2,1,45,0,0
81856,-222.222222222222,4,2,1,5,0,0
81918,-181.818181818182,4,2,1,45,0,0
82356,-200,4,2,1,5,0,0
82481,-181.818181818182,4,2,1,45,0,0
83981,-200,4,2,1,45,0,0
85481,-175.438596491228,4,2,1,45,0,0
86981,-200,4,2,1,45,0,0
87731,-200,4,2,1,50,0,0
87918,-200,4,2,1,55,0,0
88106,-200,4,2,1,60,0,0
88293,-200,4,2,1,65,0,0
88481,-133.333333333333,4,2,1,70,0,0
88856,-142.857142857143,4,2,1,70,0,0
89231,-105.263157894737,4,2,1,70,0,0
90731,-125,4,2,1,70,0,0
91481,-117.647058823529,4,2,1,70,0,0
92231,-105.263157894737,4,2,1,70,0,0
92981,-142.857142857143,4,2,1,70,0,0
94481,-142.857142857143,4,2,1,70,0,0
95231,-105.263157894737,4,2,1,70,0,0
95981,-125,4,2,1,70,0,0
96356,-105.263157894737,4,2,1,70,0,0
96731,-90.9090909090909,4,2,1,70,0,0
97481,-166.666666666667,4,2,1,70,0,0
97856,-111.111111111111,4,2,1,70,0,0
98231,-95.2380952380952,4,2,1,70,0,0
98981,-83.3333333333333,4,2,1,70,0,0
99356,-74.0740740740741,4,2,1,70,0,0
99731,-83.3333333333333,4,2,1,70,0,0
100481,-153.846153846154,4,2,1,70,0,0
101231,-142.857142857143,4,2,1,70,0,0
101606,-133.333333333333,4,2,1,70,0,0
101981,-105.263157894737,4,2,1,70,0,0
103481,-111.111111111111,4,2,1,70,0,0
104231,-105.263157894737,4,2,1,70,0,0
105356,-133.333333333333,4,2,1,70,0,0
106481,-117.647058823529,4,2,1,70,0,0
106762,-105.263157894737,4,2,1,70,0,0
107231,-100,4,2,1,70,0,0
107981,-142.857142857143,4,2,1,70,0,0
109106,-125,4,2,1,70,0,0
109481,-90.9090909090908,4,2,1,70,0,0
110606,-142.857142857143,4,2,1,70,0,0
111731,-200,4,2,1,70,0,0
112481,-133.333333333333,4,2,1,70,0,0
112856,-111.111111111111,4,2,1,70,0,0
113981,-133.333333333333,4,2,1,70,0,0
114731,-105.263157894737,4,2,1,70,0,0
115856,-181.818181818181,4,2,1,70,0,0
116231,-153.846153846153,4,2,1,70,0,0
116606,-133.333333333333,4,2,1,70,0,0
118481,-117.647058823529,4,2,1,70,0,0
118762,-100,4,2,1,70,0,0
121481,-181.818181818182,4,2,1,70,0,0
123731,-76.9230769230769,4,2,1,70,0,0
124106,-83.3333333333333,4,2,1,70,0,0
124293,-90.9090909090909,4,2,1,70,0,1
124481,-90.9090909090909,4,2,1,90,0,1
124668,-90.9090909090909,4,2,1,75,0,1
125981,-111.111111111111,4,2,1,75,0,1
126731,-111.111111111111,4,2,1,75,0,1
127106,-142.857142857143,4,2,1,75,0,1
128981,-90.9090909090908,4,2,1,75,0,1
129356,-76.9230769230769,4,2,1,75,0,1
129731,-66.6666666666667,4,2,1,75,0,1
130106,-100,4,2,1,75,0,1
131981,-111.111111111111,4,2,1,75,0,1
133106,-117.647058823529,4,2,1,75,0,1
134981,-117.647058823529,4,2,1,75,0,1
136387,-117.647058823529,4,2,1,75,0,0
136481,-117.647058823529,4,2,1,90,0,1
136574,-117.647058823529,4,2,1,75,0,1
137981,-111.111111111111,4,2,1,75,0,1
138731,-111.111111111111,4,2,1,75,0,1
139106,-125,4,2,1,75,0,1
140981,-125,4,2,1,75,0,1
141356,-111.111111111111,4,2,1,75,0,1
142106,-83.3333333333333,4,2,1,75,0,1
143981,-83.3333333333333,4,2,1,75,0,1
144356,-153.846153846153,4,2,1,75,0,1
144731,-83.3333333333333,4,2,1,75,0,1
145106,-153.846153846153,4,2,1,75,0,1
146981,-125,4,2,1,75,0,1
147356,-117.647058823529,4,2,1,75,0,1
148293,-166.666666666667,4,2,1,75,0,0
148481,-166.666666666667,4,2,2,75,0,0

[Colours]
Combo1 : 17,254,176
Combo2 : 173,255,95
Combo3 : 255,88,100
Combo4 : 255,94,55

[HitObjects]
438,211,1481,5,0,0:0:0:0:
474,139,1856,5,2,0:0:0:0:
450,59,2231,5,0,0:0:0:0:
365,19,2606,5,2,0:0:0:0:
273,37,2981,5,0,0:0:0:0:
240,113,3356,5,2,0:0:0:0:
256,192,3731,5,2,0:0:0:0:
383,146,4106,6,0,B|365:140|365:128|365:128|365:140|349:146,1,52.5000020027161,2|2,0:0|0:0,0:0:0:0:
497,260,4481,5,0,0:0:0:0:
460,333,4856,5,2,0:0:0:0:
373,359,5231,5,0,0:0:0:0:
278,318,5606,5,2,0:0:0:0:
234,222,5981,5,0,0:0:0:0:
162,150,6356,5,2,0:0:0:0:
71,138,6731,5,0,0:0:0:0:
0,192,7106,6,0,L|10:237,1,45.4999979171754,2|2,0:0|0:0,0:0:0:0:
66,342,7481,6,0,B|116:281|194:314,2,140,4|2|2,0:0|0:0|0:0,0:0:0:0:
256,70,9731,5,2,0:0:0:0:
495,242,10481,6,0,B|444:232|444:232|431:205|431:205|378:193,1,136.499993751526,2|0,0:0|0:0,0:0:0:0:
354,120,11231,6,0,B|358:193|294:220,1,125.999996154785,2|0,0:0|0:0,0:0:0:0:
256,297,11981,6,0,B|269:315|256:332|256:332|242:315|256:298,1,77.0000023498536,2|0,0:0|0:0,0:0:0:0:
309,104,12731,6,0,B|298:89|309:75|309:75|320:89|309:103,1,62.9999980773926,2|0,0:0|0:0,0:0:0:0:
296,225,13481,5,4,0:0:0:0:
373,144,13668,1,0,0:0:0:0:
259,160,13856,2,0,L|215:160,1,41.9999987182618,8|0,0:0|0:0,0:0:0:0:
372,219,14231,6,0,B|400:257,1,45.4999979171754
364,91,14606,6,0,B|391:47,1,48.9999985046387,8|0,0:0|0:0,0:0:0:0:
442,325,14981,6,0,B|389:269|321:291,2,132.999996448517,0|8|0,0:0|0:0|0:0,0:0:0:0:
77,128,16106,6,0,B|57:123|57:107|57:107|57:122|37:128,1,62.9999980773926,8|0,0:0|0:0,0:0:0:0:
168,68,16481,5,0,0:0:0:0:
217,157,16668,1,0,0:0:0:0:
285,35,16856,2,0,L|263:75,1,38.5000011749268,8|0,0:0|0:0,0:0:0:0:
147,165,17231,6,0,L|196:152,1,45.4999979171754
334,216,17606,6,0,L|301:180,1,48.9999985046387,8|0,0:0|0:0,0:0:0:0:
420,378,17981,6,0,B|500:386|519:306,2,132.999996448517,0|8|0,0:0|0:0|0:0,0:0:0:0:
282,289,18918,5,0,0:0:0:0:
374,297,19106,6,0,B|371:296|371:296|371:293|371:293|367:291|367:291|370:289|370:289|368:287|368:287|371:286|371:286|371:282|371:282|374:283|374:283|376:281|376:281|377:283|377:283|380:282|380:282|380:285|380:285|383:285|383:285|382:289|382:289|384:290|384:290|381:292|381:292|382:295|382:295|379:295|379:295|377:298|377:298|374:297,1,66.4999982242585,8|0,0:0|0:0,0:0:0:0:
208,341,19481,5,0,0:0:0:0:
142,277,19668,1,2,0:0:0:0:
142,277,19762,2,0,B|111:277|111:277|91:288|91:288|68:277|68:277|36:277,1,110.249996635437
293,321,20231,6,0,B|323:272|291:223,2,105,2|0|0,0:0|0:0|0:0,0:0:0:0:
175,164,20981,5,2,0:0:0:0:
100,259,21168,1,0,0:0:0:0:
100,259,21262,1,0,0:0:0:0:
100,259,21356,2,0,L|150:248,1,48.9999985046387,10|0,0:0|0:0,0:0:0:0:
205,23,21731,5,0,0:0:0:0:
256,131,21918,1,2,0:0:0:0:
280,14,22106,1,8,0:0:0:0:
189,96,22293,1,0,0:0:0:0:
385,149,22481,6,0,P|364:167|336:170,1,56,0|2,0:0|0:0,0:0:0:0:
337,170,22762,2,0,B|381:181|381:181|390:208|390:208|437:219,1,120.750002303124
154,324,23231,6,0,B|118:313|114:288|114:288|118:313|92:333,2,110.249996635437,2|0|0,0:0|0:0|0:0,0:0:0:0:
256,116,23981,5,0,0:0:0:0:
312,204,24168,1,2,0:0:0:0:
312,204,24262,1,0,0:0:0:0:
312,204,24356,2,0,L|367:203,1,45.4999979171754,8|0,0:0|0:0,0:0:0:0:
117,161,24731,5,2,0:0:0:0:
49,256,24918,5,2,0:0:0:0:
108,354,25106,5,10,0:0:0:0:
216,330,25293,5,0,0:0:0:0:
285,202,25481,6,0,L|229:219,1,59.5000011348725,6|0,0:0|0:0,0:0:0:0:
257,100,25856,6,0,B|250:89|257:79|257:79|264:89|257:100,1,45.4999979171754,8|0,0:0|0:0,0:0:0:0:
228,202,26231,6,0,L|284:219,1,59.5000011348725,2|0,0:0|0:0,0:0:0:0:
356,296,26606,5,8,0:0:0:0:
356,296,26793,1,0,0:0:0:0:
170,345,26981,6,0,B|95:324|53:385,1,132.999996448517,2|8,0:0|0:0,0:0:0:0:
53,384,27543,1,0,0:0:0:0:
138,212,27731,5,2,0:0:0:0:
242,277,27918,1,0,0:0:0:0:
222,194,28106,5,10,0:0:0:0:
158,295,28293,1,0,0:0:0:0:
370,383,28481,6,0,B|393:354|381:316,1,70,2|0,0:0|0:0,0:0:0:0:
381,316,28856,2,0,L|326:316,1,56,8|0,0:0|0:0,0:0:0:0:
189,261,29231,6,0,L|134:261,1,56,2|0,0:0|0:0,0:0:0:0:
133,260,29606,2,0,B|110:226|125:192,1,70,8|0,0:0|0:0,0:0:0:0:
305,52,29981,6,0,B|263:44|257:11|257:11|263:44|232:69,1,132.999996448517,2|8,0:0|0:0,0:0:0:0:
256,155,30543,5,0,0:0:0:0:
352,186,30731,5,2,0:0:0:0:
454,153,30918,5,0,0:0:0:0:
352,186,31106,5,10,0:0:0:0:
256,155,31293,5,0,0:0:0:0:
89,306,31481,6,0,L|148:291,1,59.5000011348725,2|0,0:0|0:0,0:0:0:0:
165,235,31856,6,0,L|145:295,1,59.5000011348725,8|0,0:0|0:0,0:0:0:0:
187,335,32231,6,0,L|143:287,1,59.5000011348725,2|0,0:0|0:0,0:0:0:0:
279,237,32606,5,8,0:0:0:0:
279,237,32793,1,0,0:0:0:0:
379,383,32981,6,0,B|453:371|461:292,1,132.999996448517,2|8,0:0|0:0,0:0:0:0:
460,292,33543,1,0,0:0:0:0:
314,160,33731,5,2,0:0:0:0:
256,269,33918,1,0,0:0:0:0:
166,177,34106,2,0,B|214:187,1,48.9999985046387,10|0,0:0|0:0,0:0:0:0:
80,335,34481,5,2,0:0:0:0:
80,335,34668,1,0,0:0:0:0:
80,335,34856,2,0,L|31:322,1,45.4999979171754,8|0,0:0|0:0,0:0:0:0:
191,223,35231,6,0,L|166:175,1,52.5000020027161,2|0,0:0|0:0,0:0:0:0:
364,193,35606,6,0,L|375:133,1,59.5000011348725,8|0,0:0|0:0,0:0:0:0:
398,344,35981,6,0,B|481:369|514:287,1,140,2|8,0:0|0:0,0:0:0:0:
483,209,36543,1,0,0:0:0:0:
293,252,36731,5,2,0:0:0:0:
170,209,36918,1,0,0:0:0:0:
242,315,37106,1,10,0:0:0:0:
246,185,37293,1,0,0:0:0:0:
167,287,37481,5,6,0:0:0:0:
310,255,37668,1,2,0:0:0:0:
310,255,37762,1,0,0:0:0:0:
310,255,37856,2,0,L|364:240,1,48.9999985046387,10|0,0:0|0:0,0:0:0:0:
148,149,38231,6,0,B|100:230|167:287,1,154.000004699707,2|10,0:0|0:0,0:0:0:0:
248,320,38793,1,2,0:0:0:0:
406,211,38981,5,2,0:0:0:0:
308,176,39168,1,0,0:0:0:0:
384,106,39356,2,0,L|395:53,1,52.5000020027161,8|2,0:0|0:0,0:0:0:0:
350,270,39731,5,0,0:0:0:0:
295,144,39918,1,2,0:0:0:0:
414,211,40106,1,8,0:0:0:0:
280,225,40293,1,0,0:0:0:0:
379,136,40481,5,2,0:0:0:0:
494,245,40668,5,2,0:0:0:0:
494,245,40762,1,0,0:0:0:0:
494,245,40856,2,0,B|471:236|471:221|471:221|471:236|449:245,1,70,10|0,0:0|0:0,0:0:0:0:
256,322,41231,6,0,B|249:391|313:409|352:394|364:363|346:338|328:348|329:363,1,175,2|10,0:0|0:0,0:0:0:0:
328,263,41793,1,2,0:0:0:0:
328,363,41981,6,0,L|392:371,1,62.9999980773926,2|0,0:0|0:0,0:0:0:0:
174,244,42356,6,0,L|101:236,1,70,8|2,0:0|0:0,0:0:0:0:
188,28,42731,5,2,0:0:0:0:
256,165,42918,5,2,0:0:0:0:
285,15,43106,5,10,0:0:0:0:
169,120,43293,5,2,0:0:0:0:
328,96,43481,5,2,0:0:0:0:
234,0,43668,5,2,0:0:0:0:
234,0,43762,1,0,0:0:0:0:
234,0,43856,2,0,B|242:62,1,59.5000011348725,10|0,0:0|0:0,0:0:0:0:
441,212,44231,6,0,B|360:239|338:320,1,154.000004699707,2|10,0:0|0:0,0:0:0:0:
275,384,44793,1,2,0:0:0:0:
141,229,44981,6,0,B|167:251|175:285,1,66.4999982242585,2|0,0:0|0:0,0:0:0:0:
82,143,45356,5,8,0:0:0:0:
240,187,45543,1,2,0:0:0:0:
141,229,45731,1,0,0:0:0:0:
367,261,45918,5,2,0:0:0:0:
255,309,46106,1,8,0:0:0:0:
332,341,46293,1,2,0:0:0:0:
256,287,46481,5,2,0:0:0:0:
411,248,46668,1,2,0:0:0:0:
411,248,46762,1,0,0:0:0:0:
411,248,46856,2,0,B|392:235|394:220|394:220|392:235|368:241,1,70,10|0,0:0|0:0,0:0:0:0:
88,88,47231,6,0,B|106:176|186:167,1,140,2|10,0:0|0:0,0:0:0:0:
191,176,47793,1,2,0:0:0:0:
191,176,47981,6,0,L|202:124,1,48.9999985046387,2|0,0:0|0:0,0:0:0:0:
138,253,48356,5,8,0:0:0:0:
158,355,48543,5,2,0:0:0:0:
273,384,48731,5,2,0:0:0:0:
396,338,48918,5,2,0:0:0:0:
425,210,49106,5,10,0:0:0:0:
347,93,49293,6,0,B|330:58|289:54|289:54|258:56|239:38|231:3|241:-25|275:-39|314:-40|334:-11|339:23|322:49|289:54|289:54|255:71|255:107,1,377.999988464356,2|0,0:0|0:0,0:0:0:0:
50,194,52481,5,6,0:0:0:0:
162,164,52856,5,0,0:0:0:0:
131,54,53231,5,0,0:0:0:0:
24,81,53606,5,0,0:0:0:0:
206,192,53981,6,0,B|183:183|183:167|183:167|183:183|162:192,1,70,2|0,0:0|0:0,0:0:0:0:
278,117,54731,5,0,0:0:0:0:
359,320,55106,6,0,L|403:320,1,38.5000011749268
256,384,55481,5,2,0:0:0:0:
188,348,55856,1,0,0:0:0:0:
168,275,56231,1,0,0:0:0:0:
192,203,56606,1,0,0:0:0:0:
318,225,56981,5,2,0:0:0:0:
365,154,57356,5,0,0:0:0:0:
343,66,57731,5,0,0:0:0:0:
256,18,58106,6,0,B|247:5|256:-8|256:-8|265:5|256:18,1,56,2|0,0:0|0:0,0:0:0:0:
101,110,58481,5,2,0:0:0:0:
159,224,58856,5,2,0:0:0:0:
180,96,59231,5,0,0:0:0:0:
83,188,59606,5,2,0:0:0:0:
256,19,59981,5,2,0:0:0:0:
256,192,60356,5,2,0:0:0:0:
256,365,60731,5,0,0:0:0:0:
449,257,61106,6,0,B|433:252|433:239|433:239|433:252|415:258,1,52.5000020027161,2|0,0:0|0:0,0:0:0:0:
362,362,61481,5,2,0:0:0:0:
284,379,61856,1,2,0:0:0:0:
245,310,62231,1,0,0:0:0:0:
297,249,62606,1,2,0:0:0:0:
369,285,62981,5,2,0:0:0:0:
291,341,63356,5,2,0:0:0:0:
187,268,63731,5,0,0:0:0:0:
70,338,64106,6,0,L|78:381,1,41.9999987182618,2|2,0:0|0:0,0:0:0:0:
91,192,64481,6,0,B|115:164|114:124|90:92|54:86|54:86|-15:76|-15:76|10:80|26:98,1,251.999992309571,6|0,0:0|0:0,0:0:0:0:
56,265,65981,6,0,B|93:209|167:229,1,125.999996154785
235,99,66731,6,0,B|278:148|339:131,1,115.50000352478
450,179,67481,5,2,0:0:0:0:
256,383,68981,5,0,0:0:0:0:
62,179,70106,6,0,B|71:156|71:156|60:133,1,48.9999985046387
153,247,70481,6,0,B|117:330|163:391|231:397|284:378|311:341|295:277|255:273|233:294|240:321|254:321,1,318.499985420228,2|0,0:0|0:0,0:0:0:0:
255,321,71981,6,0,B|304:333|304:333|317:365|317:365|369:375,1,136.499993751526
280,240,72731,6,0,B|247:295|182:280,1,115.50000352478
129,192,73481,5,2,0:0:0:0:
383,192,74981,6,0,L|446:224,1,70
275,135,75731,6,0,L|224:110,1,56
431,88,76481,6,0,B|462:141|419:188|419:188|372:238|409:300,1,231.000007049561,2|0,0:0|0:0,0:0:0:0:
111,219,77981,6,0,B|150:209|155:181|155:181|150:209|184:235,1,125.999996154785
234,334,78731,6,0,B|301:337|316:266,1,115.50000352478,0|2,0:0|0:0,0:0:0:0:
314,259,79356,5,0,0:0:0:0:
312,249,79418,5,0,0:0:0:0:
310,239,79481,5,2,0:0:0:0:
8,106,80981,6,0,L|65:96,1,56
100,58,81481,6,0,L|112:128,1,70
158,202,81981,6,0,L|235:213,1,77.0000023498536
256,265,82481,6,0,B|395:282|408:133,1,231.000007049561,2|0,0:0|0:0,0:0:0:0:
161,36,83981,6,0,B|135:23|129:-6|129:-6|154:115,1,175
105,194,85106,5,2,0:0:0:0:
132,234,85231,5,0,0:0:0:0:
180,241,85356,5,0,0:0:0:0:
227,212,85481,6,0,B|277:176|338:199|364:255|350:321|297:332|271:304|288:274|307:283,1,239.399997077637,2|0,0:0|0:0,0:0:0:0:
343,375,86981,6,0,B|293:326|230:353,1,122.5,2|0,0:0|0:0,0:0:0:0:
231,336,87731,5,2,0:0:0:0:
208,350,87824,5,2,0:0:0:0:
178,352,87918,5,2,0:0:0:0:
147,340,88012,5,2,0:0:0:0:
127,310,88106,5,2,0:0:0:0:
122,272,88199,5,2,0:0:0:0:
133,231,88293,5,2,0:0:0:0:
171,209,88387,5,2,0:0:0:0:
220,210,88481,6,0,B|205:262,1,52.5000020027161,4|0,0:0|0:0,0:0:0:0:
171,105,88856,6,0,L|127:72,1,48.9999985046387,2|0,0:0|0:0,0:0:0:0:
354,140,89231,6,0,B|432:143|453:67,2,132.999996448517,0|2|0,0:0|0:0|0:0,0:0:0:0:
256,359,90356,1,2,0:0:0:0:
256,45,90731,5,0,0:0:0:0:
256,15,90918,5,0,0:0:0:0:
296,90,91106,5,2,0:0:0:0:
206,162,91293,5,0,0:0:0:0:
341,224,91481,6,0,L|399:247,1,59.5000011348725,2|0,0:0|0:0,0:0:0:0:
396,245,91856,2,0,L|419:189,1,59.5000011348725,2|0,0:0|0:0,0:0:0:0:
256,359,92231,6,0,B|209:304|136:333,1,132.999996448517,0|2,0:0|0:0,0:0:0:0:
91,266,92793,1,0,0:0:0:0:
116,111,92981,6,0,L|131:157,1,48.9999985046387
53,297,93356,6,0,L|92:265,1,48.9999985046387,2|0,0:0|0:0,0:0:0:0:
319,369,93731,5,0,0:0:0:0:
366,246,93918,5,0,0:0:0:0:
256,317,94106,5,2,0:0:0:0:
387,325,94293,5,0,0:0:0:0:
286,242,94481,6,0,L|255:200,1,48.9999985046387
404,97,94856,6,0,L|384:145,1,48.9999985046387,2|0,0:0|0:0,0:0:0:0:
329,318,95231,6,0,B|280:264|208:288,1,132.999996448517,0|2,0:0|0:0,0:0:0:0:
151,233,95793,1,0,0:0:0:0:
231,92,95981,6,0,P|258:85|280:69,1,56
289,118,96356,6,0,P|257:114|231:92,1,66.4999982242585,2|0,0:0|0:0,0:0:0:0:
223,153,96731,6,0,B|263:153|288:119,1,77.0000023498536
365,231,97106,5,2,0:0:0:0:
256,264,97293,5,0,0:0:0:0:
133,299,97481,6,0,L|175:311,1,41.9999987182618
321,238,97856,5,2,0:0:0:0:
231,238,98043,5,0,0:0:0:0:
400,349,98231,6,0,B|471:308|441:220,1,146.999995513916,0|2,0:0|0:0,0:0:0:0:
294,95,98793,1,0,0:0:0:0:
294,95,98887,1,0,0:0:0:0:
294,95,98981,6,0,P|314:95|331:83,3,41.9999987182618
208,156,99356,6,0,P|184:156|165:144,3,47.2500001802444,2|0|0|0,0:0|0:0|0:0|0:0,0:0:0:0:
259,257,99731,5,2,0:0:0:0:
280,292,99824,1,0,0:0:0:0:
320,302,99918,1,0,0:0:0:0:
360,291,100012,1,0,0:0:0:0:
384,257,100106,1,2,0:0:0:0:
408,223,100199,1,0,0:0:0:0:
448,211,100293,1,2,0:0:0:0:
487,224,100387,1,0,0:0:0:0:
512,257,100481,5,6,0:0:0:0:
419,298,100668,1,0,0:0:0:0:
430,192,100856,2,0,L|412:148,1,45.4999979171754,8|0,0:0|0:0,0:0:0:0:
256,258,101231,6,0,L|256:205,1,48.9999985046387,2|0,0:0|0:0,0:0:0:0:
91,192,101606,6,0,L|110:144,1,52.5000020027161,8|0,0:0|0:0,0:0:0:0:
341,295,101981,6,0,B|267:269|223:335,1,132.999996448517,2|8,0:0|0:0,0:0:0:0:
396,235,102543,1,0,0:0:0:0:
217,158,102731,5,2,0:0:0:0:
320,117,102918,1,0,0:0:0:0:
248,87,103106,5,8,0:0:0:0:
290,188,103293,1,8,0:0:0:0:
415,34,103481,5,2,0:0:0:0:
415,34,103668,1,0,0:0:0:0:
415,34,103856,2,0,B|434:27|434:13|434:13|434:27|456:34,1,62.9999980773926,8|0,0:0|0:0,0:0:0:0:
319,132,104231,6,0,B|269:118|269:118|258:89|258:89|210:73,2,132.999996448517,2|8|2,0:0|0:0|0:0,0:0:0:0:
463,274,105168,5,0,0:0:0:0:
468,187,105356,2,0,L|416:203,1,52.5000020027161,8|0,0:0|0:0,0:0:0:0:
343,306,105731,5,2,0:0:0:0:
256,296,105918,5,0,0:0:0:0:
213,218,106106,5,8,0:0:0:0:
127,161,106293,5,8,0:0:0:0:
26,192,106481,6,0,B|13:181|20:166|20:166|34:176|26:192,1,59.5000011348725
0,267,106762,2,0,B|35:225|90:240,1,99.7499973363877,0|2,0:0|0:0,0:0:0:0:
256,128,107231,6,0,B|197:149|161:99,2,105,0|0|2,0:0|0:0|0:0,0:0:0:0:
358,317,107981,5,0,0:0:0:0:
332,233,108168,1,0,0:0:0:0:
332,233,108262,1,0,0:0:0:0:
332,233,108356,1,10,0:0:0:0:
401,175,108543,1,2,0:0:0:0:
479,223,108731,6,0,L|531:233,1,48.9999985046387
292,188,109106,6,0,L|238:177,1,56,10|10,0:0|0:0,0:0:0:0:
403,282,109481,6,0,B|440:230|401:175,2,115.50000352478,0|0|2,0:0|0:0|0:0,0:0:0:0:
287,369,110231,5,0,0:0:0:0:
203,315,110418,1,0,0:0:0:0:
203,315,110512,1,0,0:0:0:0:
203,315,110606,2,0,L|243:284,1,48.9999985046387,10|2,0:0|0:0,0:0:0:0:
390,228,110981,5,0,0:0:0:0:
286,165,111168,1,0,0:0:0:0:
145,107,111356,5,10,0:0:0:0:
234,56,111543,1,2,0:0:0:0:
167,12,111731,5,0,0:0:0:0:
167,12,111918,1,0,0:0:0:0:
256,91,112105,5,10,0:0:0:0:
127,204,112293,5,10,0:0:0:0:
311,305,112481,6,0,L|359:328,1,52.5000020027161,6|0,0:0|0:0,0:0:0:0:
359,328,112856,2,0,B|284:325|255:385,2,125.999996154785,8|2|8,0:0|0:0|0:0,0:0:0:0:
407,263,113793,1,0,0:0:0:0:
160,188,113981,6,0,L|103:169,1,52.5000020027161,2|0,0:0|0:0,0:0:0:0:
89,81,114356,6,0,B|77:72|84:58|84:58|96:68|89:82,1,52.5000020027161,8|0,0:0|0:0,0:0:0:0:
236,339,114731,6,0,B|303:306|281:228,1,132.999996448517,2|8,0:0|0:0,0:0:0:0:
280,227,115293,1,8,0:0:0:0:
393,22,115481,5,2,0:0:0:0:
393,22,115668,1,0,0:0:0:0:
393,22,115856,2,0,P|401:45|422:58,1,38.5000011749268,8|0,0:0|0:0,0:0:0:0:
338,110,116231,6,0,P|332:134|313:148,1,45.4999979171754,2|0,0:0|0:0,0:0:0:0:
438,182,116606,6,0,P|446:207|465:223,1,52.5000020027161,8|0,0:0|0:0,0:0:0:0:
360,329,116981,5,2,0:0:0:0:
466,259,117168,1,0,0:0:0:0:
450,345,117356,5,8,0:0:0:0:
377,243,117543,1,0,0:0:0:0:
296,129,117731,5,2,0:0:0:0:
241,241,117918,5,0,0:0:0:0:
201,52,118106,5,8,0:0:0:0:
132,228,118293,5,8,0:0:0:0:
95,119,118481,6,0,L|152:133,1,59.5000011348725,2|0,0:0|0:0,0:0:0:0:
168,117,118762,2,0,B|199:169|169:216,1,105,0|2,0:0|0:0,0:0:0:0:
286,384,119231,6,0,B|255:334|283:285,2,105,0|0|2,0:0|0:0|0:0,0:0:0:0:
499,192,119981,5,0,0:0:0:0:
433,248,120168,1,0,0:0:0:0:
433,248,120262,1,0,0:0:0:0:
433,248,120356,1,10,0:0:0:0:
381,170,120543,1,2,0:0:0:0:
310,75,120731,5,0,0:0:0:0:
261,214,120918,1,0,0:0:0:0:
169,358,121106,5,10,0:0:0:0:
104,182,121293,1,10,0:0:0:0:
15,252,121481,6,0,B|117:272|117:272|139:329|139:329|247:345,1,269.500008224488,4|0,0:0|0:0,0:0:0:0:
331,382,122981,5,10,0:0:0:0:
384,374,123074,1,8,0:0:0:0:
422,334,123168,1,10,0:0:0:0:
426,280,123262,1,10,0:0:0:0:
410,231,123356,1,8,0:0:0:0:
372,197,123449,1,10,0:0:0:0:
323,189,123543,1,10,0:0:0:0:
280,201,123637,1,8,0:0:0:0:
259,235,123731,5,2,0:0:0:0:
261,275,123824,5,2,0:0:0:0:
285,298,123918,5,2,0:0:0:0:
313,300,124012,5,2,0:0:0:0:
327,280,124106,6,0,L|284:273,1,41.9999987182618,8|2,0:0|0:0,0:0:0:0:
203,192,124293,6,0,L|163:186,1,38.5000011749268,10|0,0:0|0:0,0:0:0:0:
313,116,124481,5,6,0:0:0:0:
404,100,124668,1,0,0:0:0:0:
422,192,124856,5,8,0:0:0:0:
404,100,125043,1,0,0:0:0:0:
494,84,125231,5,2,0:0:0:0:
404,100,125418,1,0,0:0:0:0:
388,11,125606,5,8,0:0:0:0:
404,100,125793,1,0,0:0:0:0:
512,209,125981,6,0,L|452:191,1,62.9999980773926,2|0,0:0|0:0,0:0:0:0:
404,100,126356,5,8,0:0:0:0:
404,100,126543,1,0,0:0:0:0:
512,191,126731,6,0,L|452:209,1,62.9999980773926,2|0,0:0|0:0,0:0:0:0:
295,173,127106,6,0,L|343:160,1,48.9999985046387,14|8,0:0|0:0,0:0:0:0:
187,134,127481,5,6,0:0:0:0:
71,165,127668,1,0,0:0:0:0:
158,98,127856,5,8,0:0:0:0:
99,199,128043,1,0,0:0:0:0:
112,91,128231,5,2,0:0:0:0:
145,206,128418,1,0,0:0:0:0:
76,119,128606,5,8,0:0:0:0:
181,177,128793,1,0,0:0:0:0:
29,298,128981,6,0,B|51:302|63:325|59:337|54:342|46:342|40:340|36:334|40:324|50:324,1,77.0000023498536,2|0,0:0|0:0,0:0:0:0:
172,262,129356,6,0,B|191:281|188:308|180:317|170:323|161:320|156:313|157:302|165:296|175:303,1,90.9999958343508,8|0,0:0|0:0,0:0:0:0:
334,274,129731,6,0,B|341:304|329:330|313:333|295:330|288:320|293:309|299:301|309:302|309:311,1,105.000004005432,6|0,0:0|0:0,0:0:0:0:
309,311,130012,5,0,0:0:0:0:
309,311,130106,6,0,L|324:380,1,70,14|8,0:0|0:0,0:0:0:0:
333,155,130481,5,6,0:0:0:0:
239,137,130668,1,0,0:0:0:0:
257,43,130856,5,8,0:0:0:0:
239,137,131043,1,0,0:0:0:0:
144,119,131231,5,2,0:0:0:0:
239,137,131418,1,0,0:0:0:0:
222,232,131606,5,8,0:0:0:0:
239,137,131793,1,0,0:0:0:0:
450,260,131981,6,0,B|430:252|430:238|430:238|430:252|411:260,1,62.9999980773926,2|0,0:0|0:0,0:0:0:0:
361,337,132356,5,8,0:0:0:0:
265,353,132543,5,0,0:0:0:0:
188,287,132731,5,2,0:0:0:0:
98,237,132918,5,0,0:0:0:0:
1,348,133106,6,0,B|12:321|12:321|0:293,1,59.5000011348725,14|8,0:0|0:0,0:0:0:0:
111,124,133481,5,6,0:0:0:0:
145,243,133668,1,0,0:0:0:0:
158,128,133856,5,8,0:0:0:0:
98,237,134043,1,0,0:0:0:0:
186,167,134231,5,2,0:0:0:0:
70,198,134418,1,0,0:0:0:0:
181,213,134606,5,8,0:0:0:0:
74,151,134793,1,0,0:0:0:0:
267,24,134981,6,0,B|274:57|255:82,1,59.5000011348725,2|0,0:0|0:0,0:0:0:0:
314,143,135356,5,8,0:0:0:0:
180,166,135543,1,0,0:0:0:0:
205,299,135731,1,6,0:0:0:0:
346,282,135918,1,0,0:0:0:0:
346,282,136012,1,0,0:0:0:0:
346,282,136106,2,0,L|410:270,1,59.5000011348725,14|8,0:0|0:0,0:0:0:0:
125,122,136481,5,6,0:0:0:0:
111,218,136668,1,0,0:0:0:0:
111,218,136762,1,0,0:0:0:0:
111,218,136856,1,8,0:0:0:0:
92,307,137043,1,0,0:0:0:0:
14,199,137231,5,6,0:0:0:0:
111,218,137418,1,0,0:0:0:0:
111,218,137512,1,0,0:0:0:0:
111,218,137606,1,8,0:0:0:0:
199,228,137793,1,0,0:0:0:0:
256,52,137981,6,0,B|268:38|256:24|256:24|244:38|256:52,1,62.9999980773926,6|0,0:0|0:0,0:0:0:0:
314,192,138356,5,8,0:0:0:0:
203,167,138543,1,0,0:0:0:0:
327,140,138731,6,0,L|388:125,1,62.9999980773926,6|0,0:0|0:0,0:0:0:0:
203,263,139106,6,0,L|148:275,1,56,14|8,0:0|0:0,0:0:0:0:
381,384,139481,5,6,0:0:0:0:
441,267,139668,5,0,0:0:0:0:
441,267,139762,1,0,0:0:0:0:
441,267,139856,1,8,0:0:0:0:
318,329,140043,5,0,0:0:0:0:
457,345,140231,5,6,0:0:0:0:
355,255,140418,5,0,0:0:0:0:
355,255,140512,1,0,0:0:0:0:
355,255,140606,1,8,0:0:0:0:
381,384,140793,5,0,0:0:0:0:
507,291,140981,6,0,B|487:311|457:310,1,56,6|0,0:0|0:0,0:0:0:0:
381,384,141356,5,8,0:0:0:0:
271,362,141543,5,0,0:0:0:0:
227,253,141731,5,6,0:0:0:0:
269,134,141918,5,0,0:0:0:0:
269,134,142012,1,0,0:0:0:0:
269,134,142106,2,0,B|294:124|294:104|294:104|294:124|321:133,1,83.9999974365235,14|8,0:0|0:0,0:0:0:0:
137,284,142481,5,6,0:0:0:0:
121,197,142668,1,0,0:0:0:0:
121,197,142762,1,0,0:0:0:0:
121,197,142856,1,8,0:0:0:0:
99,104,143043,1,0,0:0:0:0:
25,211,143231,5,6,0:0:0:0:
121,197,143418,1,0,0:0:0:0:
121,197,143512,1,0,0:0:0:0:
121,197,143606,1,8,0:0:0:0:
209,177,143793,1,0,0:0:0:0:
315,284,143981,6,0,B|362:297|388:257,1,83.9999974365235,6|0,0:0|0:0,0:0:0:0:
428,149,144356,5,8,0:0:0:0:
335,118,144543,1,0,0:0:0:0:
429,285,144731,6,0,B|382:298|356:258,1,83.9999974365235,6|0,0:0|0:0,0:0:0:0:
427,118,145106,5,14,0:0:0:0:
336,149,145293,1,0,0:0:0:0:
256,370,145481,5,6,0:0:0:0:
208,247,145668,5,0,0:0:0:0:
208,247,145762,1,0,0:0:0:0:
208,247,145856,1,8,0:0:0:0:
321,312,146043,5,0,0:0:0:0:
183,325,146231,5,6,0:0:0:0:
295,237,146418,5,0,0:0:0:0:
295,237,146512,1,0,0:0:0:0:
295,237,146606,1,8,0:0:0:0:
256,370,146793,5,0,0:0:0:0:
141,298,146981,6,0,B|124:293|124:279|124:279|124:293|107:298,1,56,6|0,0:0|0:0,0:0:0:0:
256,384,147356,5,12,0:0:0:0:
302,343,147543,5,0,0:0:0:0:
225,265,147731,5,6,0:0:0:0:
326,196,147918,5,2,0:0:0:0:
193,113,148106,5,14,0:0:0:0:
349,35,148293,6,0,B|354:4|327:-19|327:-19|378:2|392:76|367:117|367:117|387:84|428:80,1,293.999991027832,10|0,0:0|0:0,0:0:0:0:
