osu file format v14

[General]
AudioFilename: audio.mp3
AudioLeadIn: 0
PreviewTime: 124481
Countdown: 0
SampleSet: Soft
StackLeniency: 0.7
Mode: 0
LetterboxInBreaks: 0
WidescreenStoryboard: 1

[Editor]
Bookmarks: 1481,13481,24918,37481,49481,52481,64481,100481,124481,136481,148481
DistanceSpacing: 1.1
BeatDivisor: 4
GridSize: 16
TimelineZoom: 1.3

[Metadata]
Title:Psycho Gene
TitleUnicode:Psycho Gene
Artist:cygnus
ArtistUnicode:cygnus
Creator:Matrix
Version:Hard
Source:
Tags:electronic gothic dramatic instrumental cry for the infinity niva heaven punisher wispy
BeatmapID:3931546
BeatmapSetID:1884657

[Difficulty]
HPDrainRate:5
CircleSize:4
OverallDifficulty:6
ApproachRate:8
SliderMultiplier:1.5
SliderTickRate:1

[Events]
//Background and Video events
0,0,"Psycho Gene.jpg",0,0
//Break Periods
//Storyboard Layer 0 (Background)
//Storyboard Layer 1 (Fail)
//Storyboard Layer 2 (Pass)
//Storyboard Layer 3 (Foreground)
//Storyboard Layer 4 (Overlay)
//Storyboard Sound Samples

[TimingPoints]
1481,375,4,2,1,45,1,0
13481,-100,4,2,1,71,0,0
24918,-100,4,2,1,71,0,0
37481,-100,4,2,1,75,0,1
49481,-100,4,2,4,66,0,0
49574,-100,4,2,1,66,0,0
52106,-100,4,2,1,5,0,0
52481,-100,4,2,3,60,0,0
52856,-100,4,2,1,60,0,0
64481,-100,4,2,1,45,0,0
80981,-125,4,2,1,60,0,0
81981,-100,4,2,1,60,0,0
88481,-100,4,2,1,70,0,0
100481,-100,4,2,1,70,0,0
124481,-100,4,2,1,90,0,1
124668,-100,4,2,1,75,0,1
136481,-100,4,2,1,90,0,1
136574,-100,4,2,1,75,0,1
148481,-100,4,2,2,75,0,0

[Colours]
Combo1 : 161,161,161
Combo2 : 130,220,242
Combo3 : 168,192,251
Combo4 : 133,138,245

[HitObjects]
72,333,1481,5,0,0:0:0:0:
221,318,1856,1,2,0:0:0:0:
83,258,2231,1,0,0:0:0:0:
232,243,2606,1,2,0:0:0:0:
94,183,2981,1,0,0:0:0:0:
243,168,3356,1,2,0:0:0:0:
105,108,3731,1,2,0:0:0:0:
254,93,4106,1,2,0:0:0:0:
208,33,4293,1,2,0:0:0:0:
133,42,4481,5,0,0:0:0:0:
225,159,4856,1,2,0:0:0:0:
105,108,5231,1,0,0:0:0:0:
254,93,5606,1,2,0:0:0:0:
148,168,5981,1,0,0:0:0:0:
210,32,6356,1,2,0:0:0:0:
225,159,6731,1,0,0:0:0:0:
133,42,7106,1,2,0:0:0:0:
92,104,7293,1,2,0:0:0:0:
106,177,7481,6,0,L|-23:191,2,112.5,4|0|0,0:0|0:0|0:0,0:0:0:0:
163,225,8231,2,0,L|292:239,2,112.5,2|0|0,0:0|0:0|0:0,0:0:0:0:
124,289,8981,2,0,L|-5:303,2,112.5,2|0|0,0:0|0:0|0:0,0:0:0:0:
168,349,9731,2,0,L|297:363,2,112.5,2|0|0,0:0|0:0|0:0,0:0:0:0:
124,289,10481,5,2,0:0:0:0:
407,191,11231,1,2,0:0:0:0:
130,190,11981,2,0,L|138:294,1,75,2|0,0:0|0:0,0:0:0:0:
203,208,12356,2,0,L|307:200,1,75,2|0,0:0|0:0,0:0:0:0:
221,129,12731,2,0,L|213:25,1,75,2|0,0:0|0:0,0:0:0:0:
148,111,13106,2,0,L|44:119,1,75,2|0,0:0|0:0,0:0:0:0:
31,188,13481,5,4,0:0:0:0:
105,223,13668,2,0,L|113:327,1,75,0|8,0:0|0:0,0:0:0:0:
189,273,14043,1,0,0:0:0:0:
262,310,14230,2,0,L|270:414,1,75
344,352,14606,1,8,0:0:0:0:
419,319,14793,1,0,0:0:0:0:
501,323,14981,2,0,L|495:248,1,75
414,229,15356,2,0,L|408:154,1,75,8|0,0:0|0:0,0:0:0:0:
465,95,15731,1,0,0:0:0:0:
296,54,16106,5,8,0:0:0:0:
243,117,16293,1,0,0:0:0:0:
190,180,16481,2,0,L|83:180,1,75
106,191,16856,2,0,L|95:268,1,75,8|0,0:0|0:0,0:0:0:0:
27,180,17231,2,0,L|102:180,1,75
116,164,17606,2,0,L|126:89,1,75,8|0,0:0|0:0,0:0:0:0:
140,8,17981,5,0,0:0:0:0:
4,101,18356,1,8,0:0:0:0:
35,262,18731,1,0,0:0:0:0:
72,188,18918,2,0,L|61:265,1,75,0|8,0:0|0:0,0:0:0:0:
101,334,19293,1,0,0:0:0:0:
181,316,19481,6,0,B|240:303|240:303|297:344,2,112.5,2|0|0,0:0|0:0|0:0,0:0:0:0:
95,277,20231,2,0,B|108:336|108:336|67:393,2,112.5,2|0|0,0:0|0:0|0:0,0:0:0:0:
130,195,20981,2,0,B|71:208|71:208|14:167,2,112.5,2|0|0,0:0|0:0|0:0,0:0:0:0:
213,232,21731,2,0,B|200:173|200:173|241:116,2,112.5,2|0|0,0:0|0:0|0:0,0:0:0:0:
295,252,22481,5,2,0:0:0:0:
295,252,22668,2,0,L|285:341,2,75,2|8|0,0:0|0:0|0:0,0:0:0:0:
371,218,23231,1,2,0:0:0:0:
371,218,23418,2,0,L|361:129,2,75,0|10|0,0:0|0:0|0:0,0:0:0:0:
424,281,23981,1,0,0:0:0:0:
424,281,24168,2,0,L|513:271,2,75,2|8|0,0:0|0:0|0:0,0:0:0:0:
377,350,24731,1,2,0:0:0:0:
278,236,25106,2,0,L|249:313,1,75,10|0,0:0|0:0,0:0:0:0:
170,322,25481,5,6,0:0:0:0:
89,339,25668,1,0,0:0:0:0:
166,309,25856,1,8,0:0:0:0:
21,230,26231,1,2,0:0:0:0:
103,232,26418,1,0,0:0:0:0:
21,216,26606,1,8,0:0:0:0:
58,55,26981,5,2,0:0:0:0:
130,93,27168,1,0,0:0:0:0:
70,36,27356,1,8,0:0:0:0:
105,110,27543,1,0,0:0:0:0:
178,148,27731,2,0,L|269:138,1,75,2|0,0:0|0:0,0:0:0:0:
288,65,28106,2,0,L|379:55,1,75,10|0,0:0|0:0,0:0:0:0:
444,49,28481,5,2,0:0:0:0:
495,112,28668,1,0,0:0:0:0:
455,39,28856,1,8,0:0:0:0:
379,185,29231,1,2,0:0:0:0:
460,194,29418,1,0,0:0:0:0:
377,200,29606,1,8,0:0:0:0:
467,337,29981,5,2,0:0:0:0:
394,298,30168,1,0,0:0:0:0:
475,314,30356,1,8,0:0:0:0:
393,322,30543,1,0,0:0:0:0:
317,288,30731,2,0,L|245:314,1,75,2|0,0:0|0:0,0:0:0:0:
230,232,31106,2,0,L|158:258,1,75,10|0,0:0|0:0,0:0:0:0:
82,286,31481,5,2,0:0:0:0:
40,357,31668,1,0,0:0:0:0:
95,295,31856,1,8,0:0:0:0:
14,151,32231,1,2,0:0:0:0:
20,233,32418,1,0,0:0:0:0:
30,150,32606,1,8,0:0:0:0:
166,57,32981,5,2,0:0:0:0:
90,24,33168,1,0,0:0:0:0:
172,34,33356,1,8,0:0:0:0:
88,49,33543,1,0,0:0:0:0:
157,5,33731,2,0,L|241:23,1,75,2|0,0:0|0:0,0:0:0:0:
254,99,34106,2,0,L|338:81,1,75,10|0,0:0|0:0,0:0:0:0:
391,31,34481,5,2,0:0:0:0:
408,111,34668,1,0,0:0:0:0:
470,57,34856,1,8,0:0:0:0:
489,220,35231,1,2,0:0:0:0:
407,211,35418,1,0,0:0:0:0:
441,286,35606,1,8,0:0:0:0:
296,205,35981,5,2,0:0:0:0:
330,130,36168,1,0,0:0:0:0:
254,96,36356,1,8,0:0:0:0:
220,171,36543,1,0,0:0:0:0:
286,220,36731,2,0,L|308:325,1,75,2|0,0:0|0:0,0:0:0:0:
317,374,37106,2,0,L|242:367,1,75,10|0,0:0|0:0,0:0:0:0:
170,320,37481,5,6,0:0:0:0:
88,333,37669,1,2,0:0:0:0:
36,268,37857,1,10,0:0:0:0:
79,198,38044,1,0,0:0:0:0:
160,182,38232,1,2,0:0:0:0:
190,105,38419,1,0,0:0:0:0:
145,35,38607,1,10,0:0:0:0:
63,49,38794,1,2,0:0:0:0:
31,125,38982,6,0,L|114:123,1,75,2|0,0:0|0:0,0:0:0:0:
190,105,39357,1,8,0:0:0:0:
260,62,39544,2,0,L|343:60,1,75,2|0,0:0|0:0,0:0:0:0:
417,51,39919,2,0,L|500:49,1,75,2|8,0:0|0:0,0:0:0:0:
338,162,40482,5,2,0:0:0:0:
416,187,40669,1,2,0:0:0:0:
445,264,40857,1,10,0:0:0:0:
394,329,41044,1,0,0:0:0:0:
315,303,41232,1,2,0:0:0:0:
288,225,41419,1,0,0:0:0:0:
208,201,41607,1,10,0:0:0:0:
134,238,41794,1,2,0:0:0:0:
165,314,41982,6,0,L|260:279,1,75,2|0,0:0|0:0,0:0:0:0:
297,343,42357,1,8,0:0:0:0:
370,380,42544,2,0,L|465:345,1,75,2|2,0:0|0:0,0:0:0:0:
442,271,42919,2,0,L|372:297,1,75,2|10,0:0|0:0,0:0:0:0:
488,156,43482,5,2,0:0:0:0:
503,75,43669,1,2,0:0:0:0:
441,19,43857,1,10,0:0:0:0:
361,40,44044,1,0,0:0:0:0:
342,120,44232,1,2,0:0:0:0:
262,141,44419,1,0,0:0:0:0:
202,83,44607,1,10,0:0:0:0:
122,104,44794,1,2,0:0:0:0:
104,184,44982,6,0,L|129:278,1,75,2|0,0:0|0:0,0:0:0:0:
82,328,45357,1,8,0:0:0:0:
137,254,45544,2,0,L|209:273,1,75,2|0,0:0|0:0,0:0:0:0:
262,336,45919,2,0,L|334:355,1,75,2|8,0:0|0:0,0:0:0:0:
330,192,46482,5,2,0:0:0:0:
248,181,46669,1,2,0:0:0:0:
199,114,46857,1,10,0:0:0:0:
247,47,47044,1,0,0:0:0:0:
328,58,47232,1,2,0:0:0:0:
373,126,47419,1,0,0:0:0:0:
455,136,47607,1,10,0:0:0:0:
506,71,47794,1,2,0:0:0:0:
462,0,47982,6,0,L|410:79,1,75,2|0,0:0|0:0,0:0:0:0:
455,136,48357,1,8,0:0:0:0:
492,209,48544,2,0,L|440:288,1,75,2|2,0:0|0:0,0:0:0:0:
470,352,48919,2,0,L|382:352,1,75,2|10,0:0|0:0,0:0:0:0:
314,333,49293,2,0,L|226:333,1,75,2|4,0:0|0:0,0:0:0:0:
256,192,49574,12,0,52106,0:0:0:0:
77,329,52481,5,6,0:0:0:0:
77,329,52856,1,0,0:0:0:0:
77,329,53231,1,0,0:0:0:0:
241,345,53606,1,0,0:0:0:0:
117,251,53981,5,2,0:0:0:0:
117,251,54356,1,0,0:0:0:0:
117,251,54731,1,0,0:0:0:0:
281,267,55106,1,0,0:0:0:0:
361,247,55293,1,0,0:0:0:0:
441,228,55481,5,2,0:0:0:0:
441,228,55856,1,0,0:0:0:0:
441,228,56231,1,0,0:0:0:0:
441,228,56606,1,0,0:0:0:0:
282,183,56981,1,2,0:0:0:0:
443,150,57356,1,0,0:0:0:0:
283,107,57731,1,0,0:0:0:0:
443,70,58106,1,2,0:0:0:0:
385,11,58293,1,0,0:0:0:0:
304,31,58481,5,2,0:0:0:0:
222,21,58668,1,0,0:0:0:0:
139,12,58856,1,2,0:0:0:0:
445,133,59606,1,2,0:0:0:0:
281,114,59981,1,2,0:0:0:0:
199,104,60168,1,0,0:0:0:0:
116,95,60356,1,2,0:0:0:0:
414,235,61106,5,2,0:0:0:0:
250,254,61481,1,2,0:0:0:0:
332,260,61668,1,0,0:0:0:0:
250,254,61856,1,2,0:0:0:0:
22,366,62606,5,2,0:0:0:0:
178,308,62981,1,2,0:0:0:0:
104,345,63168,1,0,0:0:0:0:
178,308,63356,1,2,0:0:0:0:
52,201,63731,1,0,0:0:0:0:
8,41,64106,1,2,0:0:0:0:
88,58,64293,1,2,0:0:0:0:
110,137,64481,5,6,0:0:0:0:
394,42,65231,2,0,L|472:36,2,75
483,162,65981,1,0,0:0:0:0:
193,83,66731,1,0,0:0:0:0:
270,372,67481,1,2,0:0:0:0:
270,372,68981,1,0,0:0:0:0:
21,351,70481,5,2,0:0:0:0:
24,42,71981,1,0,0:0:0:0:
192,290,72731,1,0,0:0:0:0:
322,19,73481,1,2,0:0:0:0:
420,104,74981,5,0,0:0:0:0:
142,219,75731,1,0,0:0:0:0:
394,381,76481,1,2,0:0:0:0:
32,25,77981,5,0,0:0:0:0:
43,324,78731,1,0,0:0:0:0:
95,105,79293,2,0,L|57:115,3,25,2|0|0|2,0:0|0:0|0:0|0:0,0:0:0:0:
479,340,80981,2,0,B|418:341|418:341|378:330|378:330|284:332,2,160
299,251,82481,1,2,0:0:0:0:
49,347,83981,1,0,0:0:0:0:
487,246,85106,2,0,L|493:191,3,50,2|0|0|2,0:0|0:0|0:0|0:0,0:0:0:0:
445,84,86981,5,2,0:0:0:0:
374,60,87168,1,2,0:0:0:0:
301,79,87356,2,0,P|257:64|202:69,2,75,2|2|0,0:0|0:0|0:0,0:0:0:0:
355,153,87918,1,2,0:0:0:0:
355,153,88012,1,0,0:0:0:0:
355,153,88106,2,0,P|348:188|314:233,1,75,2|0,0:0|0:0,0:0:0:0:
248,244,88481,6,0,L|259:340,1,75,4|0,0:0|0:0,0:0:0:0:
166,227,88856,2,0,L|175:302,1,75,2|0,0:0|0:0,0:0:0:0:
92,265,89231,2,0,L|-2:264,1,75
99,186,89606,1,2,0:0:0:0:
96,19,89981,6,0,L|-4:13,1,75
234,79,90356,2,0,L|134:73,1,75,2|0,0:0|0:0,0:0:0:0:
90,111,90731,2,0,L|99:186,1,75
112,267,91106,1,2,0:0:0:0:
184,306,91293,1,0,0:0:0:0:
263,283,91481,6,0,L|285:364,1,75,2|0,0:0|0:0,0:0:0:0:
348,244,91856,2,0,L|355:327,1,75,2|0,0:0|0:0,0:0:0:0:
437,264,92231,2,0,L|429:347,1,75
505,374,92606,1,2,0:0:0:0:
503,209,92981,5,0,0:0:0:0:
425,182,93168,2,0,L|431:107,1,75,0|2,0:0|0:0,0:0:0:0:
382,40,93543,1,0,0:0:0:0:
299,35,93731,2,0,L|292:109,2,75,0|0|2,0:0|0:0|0:0,0:0:0:0:
221,6,94293,1,0,0:0:0:0:
161,63,94481,6,0,L|64:69,1,75
108,147,94856,2,0,L|11:153,1,75,2|0,0:0|0:0,0:0:0:0:
198,144,95231,2,0,L|182:240,1,75
171,299,95606,1,2,0:0:0:0:
95,266,95793,1,0,0:0:0:0:
21,304,95981,6,0,L|3:384,1,75
93,349,96356,2,0,L|171:324,1,75,2|0,0:0|0:0,0:0:0:0:
95,266,96731,2,0,L|44:210,1,75
9,135,97106,1,2,0:0:0:0:
34,56,97293,1,0,0:0:0:0:
114,35,97481,6,0,L|109:121,1,75
192,84,97856,2,0,L|187:170,1,75,2|0,0:0|0:0,0:0:0:0:
275,41,98231,2,0,L|270:127,1,75
350,95,98606,2,0,L|345:181,1,75,2|0,0:0|0:0,0:0:0:0:
389,247,98981,6,0,L|478:232,1,75
422,335,99356,2,0,L|349:323,1,75,2|0,0:0|0:0,0:0:0:0:
233,257,99731,2,0,L|322:242,1,75
274,352,100106,2,0,L|200:339,1,75,2|0,0:0|0:0,0:0:0:0:
145,277,100481,6,0,P|118:320|107:365,1,75,6|0,0:0|0:0,0:0:0:0:
49,234,100856,2,0,P|76:277|87:322,1,75,8|0,0:0|0:0,0:0:0:0:
160,182,101231,2,0,P|133:225|122:270,1,75,2|0,0:0|0:0,0:0:0:0:
40,136,101606,2,0,P|67:179|78:224,1,75,8|0,0:0|0:0,0:0:0:0:
117,104,101981,5,2,0:0:0:0:
5,225,102356,1,8,0:0:0:0:
144,312,102731,1,2,0:0:0:0:
256,191,103106,1,8,0:0:0:0:
312,250,103293,1,8,0:0:0:0:
318,332,103481,6,0,P|340:321|409:318,1,75,2|0,0:0|0:0,0:0:0:0:
469,295,103856,2,0,P|447:284|378:281,1,75,8|0,0:0|0:0,0:0:0:0:
296,249,104231,2,0,P|318:238|387:235,1,75,2|0,0:0|0:0,0:0:0:0:
479,219,104606,2,0,P|457:208|388:205,1,75,8|0,0:0|0:0,0:0:0:0:
340,153,104981,5,2,0:0:0:0:
476,60,105356,1,8,0:0:0:0:
454,174,105731,1,2,0:0:0:0:
361,38,106106,1,8,0:0:0:0:
295,87,106293,1,8,0:0:0:0:
221,49,106481,6,0,B|167:36|167:36|99:62,2,112.5,0|0|2,0:0|0:0|0:0,0:0:0:0:
226,131,107231,2,0,B|172:118|172:118|104:144,2,112.5,0|0|2,0:0|0:0|0:0,0:0:0:0:
277,195,107981,2,0,B|331:182|331:182|399:208,2,112.5,0|0|2,0:0|0:0|0:0,0:0:0:0:
272,277,108731,2,0,B|326:264|326:264|394:290,2,112.5,0|0|10,0:0|0:0|0:0,0:0:0:0:
194,305,109481,5,0,0:0:0:0:
135,363,109668,1,0,0:0:0:0:
135,363,109762,2,0,P|79:364|53:352,1,75,2|0,0:0|0:0,0:0:0:0:
29,331,110043,1,2,0:0:0:0:
4,251,110231,2,0,P|11:227|57:184,1,75,2|0,0:0|0:0,0:0:0:0:
82,175,110512,2,0,P|103:174|173:203,1,75,2|0,0:0|0:0,0:0:0:0:
181,219,110793,1,2,0:0:0:0:
237,279,110981,2,0,B|281:314|281:314|344:303,2,112.5,2|2|0,0:0|0:0|0:0,0:0:0:0:
256,198,111731,2,0,B|311:188|311:188|355:223,2,112.5,2|2|10,0:0|0:0|0:0,0:0:0:0:
239,116,112481,6,0,P|203:134|169:137,1,75,6|0,0:0|0:0,0:0:0:0:
87,155,112856,2,0,P|123:173|157:176,1,75,8|0,0:0|0:0,0:0:0:0:
246,227,113231,2,0,P|210:245|176:248,1,75,2|0,0:0|0:0,0:0:0:0:
96,307,113606,2,0,P|132:325|166:328,1,75,8|0,0:0|0:0,0:0:0:0:
248,325,113981,5,2,0:0:0:0:
365,209,114356,1,8,0:0:0:0:
327,346,114731,1,2,0:0:0:0:
285,187,115106,1,8,0:0:0:0:
343,129,115293,1,8,0:0:0:0:
423,146,115481,6,0,P|422:195|445:252,1,75,2|0,0:0|0:0,0:0:0:0:
512,263,115856,2,0,P|513:214|490:157,1,75,8|0,0:0|0:0,0:0:0:0:
412,264,116231,2,0,P|411:313|434:369,1,75,2|0,0:0|0:0,0:0:0:0:
504,384,116606,2,0,P|505:335|482:278,1,75,8|0,0:0|0:0,0:0:0:0:
417,337,116981,5,2,0:0:0:0:
252,352,117356,1,8,0:0:0:0:
195,197,117731,1,2,0:0:0:0:
360,182,118106,1,8,0:0:0:0:
374,262,118293,1,8,0:0:0:0:
332,333,118481,5,2,0:0:0:0:
252,352,118668,1,0,0:0:0:0:
252,352,118762,2,0,L|170:352,1,75,2|0,0:0|0:0,0:0:0:0:
154,321,119043,1,2,0:0:0:0:
161,235,119231,2,0,B|102:221|102:221|47:248,2,112.5,2|2|0,0:0|0:0|0:0,0:0:0:0:
190,157,119981,2,0,B|249:143|249:143|304:170,2,112.5,2|2|2,0:0|0:0|0:0,0:0:0:0:
113,125,120731,1,2,0:0:0:0:
141,50,120918,1,0,0:0:0:0:
141,50,121012,2,0,P|186:61|219:60,1,75
243,30,121293,1,10,0:0:0:0:
317,66,121481,6,0,B|369:65|369:65|377:57|377:57|470:55,1,150,0|10,0:0|0:0,0:0:0:0:
482,219,122231,2,0,B|430:220|430:220|422:228|422:228|335:229,1,150,0|10,0:0|0:0,0:0:0:0:
302,378,122981,1,2,0:0:0:0:
219,372,123168,1,2,0:0:0:0:
159,313,123356,2,0,L|116:327,2,37.5,8|2|2,0:0|0:0|0:0,0:0:0:0:
225,263,123731,1,2,0:0:0:0:
160,219,123918,1,2,0:0:0:0:
160,219,124012,1,2,0:0:0:0:
160,219,124106,2,0,L|121:191,2,37.5,8|2|10,0:0|0:0|0:0,0:0:0:0:
209,149,124481,5,6,0:0:0:0:
264,89,124668,1,0,0:0:0:0:
264,89,124762,1,0,0:0:0:0:
264,89,124856,2,0,P|313:75|354:74,1,75,8|0,0:0|0:0,0:0:0:0:
414,104,125231,1,2,0:0:0:0:
428,188,125418,2,0,P|444:210|454:230,2,37.5,0|0|8,0:0|0:0|0:0,0:0:0:0:
469,302,125793,1,0,0:0:0:0:
390,277,125981,1,2,0:0:0:0:
405,357,126168,2,0,P|419:373|435:382,2,37.5,0|0|8,0:0|0:0|0:0,0:0:0:0:
326,330,126543,1,0,0:0:0:0:
245,310,126731,2,0,L|240:391,3,75,2|0|14|8,0:0|0:0|0:0|0:0,0:0:0:0:
266,229,127481,5,6,0:0:0:0:
184,217,127668,2,0,P|143:243|122:286,1,75,0|8,0:0|0:0,0:0:0:0:
109,344,128043,1,0,0:0:0:0:
40,297,128231,1,2,0:0:0:0:
63,218,128418,2,0,P|55:160|42:134,1,75,0|8,0:0|0:0,0:0:0:0:
2,76,128793,1,0,0:0:0:0:
72,32,128981,1,2,0:0:0:0:
153,45,129168,2,0,P|183:66|203:97,1,75,0|8,0:0|0:0,0:0:0:0:
238,172,129543,1,0,0:0:0:0:
308,128,129731,2,0,P|303:88|274:46,3,75,6|0|14|8,0:0|0:0|0:0|0:0,0:0:0:0:
200,46,130481,5,6,0:0:0:0:
117,40,130668,1,0,0:0:0:0:
117,40,130762,1,0,0:0:0:0:
117,40,130856,2,0,L|27:32,1,75,8|0,0:0|0:0,0:0:0:0:
30,115,131231,1,2,0:0:0:0:
112,121,131418,2,0,L|110:178,2,37.5,0|0|8,0:0|0:0|0:0,0:0:0:0:
194,128,131793,1,0,0:0:0:0:
248,190,131981,1,2,0:0:0:0:
240,271,132168,2,0,L|289:276,2,37.5,0|0|8,0:0|0:0|0:0,0:0:0:0:
163,302,132543,1,0,0:0:0:0:
81,315,132731,2,0,L|-20:330,3,75,2|0|14|8,0:0|0:0|0:0|0:0,0:0:0:0:
163,302,133481,5,6,0:0:0:0:
248,334,133668,1,0,0:0:0:0:
248,334,133762,1,0,0:0:0:0:
248,334,133856,2,0,L|353:359,1,75,8|0,0:0|0:0,0:0:0:0:
384,298,134231,1,2,0:0:0:0:
363,218,134418,2,0,L|416:205,2,37.5,0|0|8,0:0|0:0|0:0,0:0:0:0:
342,140,134793,1,0,0:0:0:0:
263,114,134981,1,2,0:0:0:0:
205,171,135168,1,0,0:0:0:0:
205,171,135262,1,0,0:0:0:0:
205,171,135356,2,0,L|140:235,1,75,8|0,0:0|0:0,0:0:0:0:
86,172,135731,2,0,L|-9:179,3,75,6|0|14|8,0:0|0:0|0:0|0:0,0:0:0:0:
13,94,136481,5,6,0:0:0:0:
85,55,136668,1,0,0:0:0:0:
85,55,136762,1,0,0:0:0:0:
85,55,136856,2,0,L|178:65,1,75,8|0,0:0|0:0,0:0:0:0:
212,126,137231,1,6,0:0:0:0:
284,87,137418,1,0,0:0:0:0:
284,87,137512,1,0,0:0:0:0:
284,87,137606,2,0,L|377:97,1,75,8|0,0:0|0:0,0:0:0:0:
437,70,137981,5,6,0:0:0:0:
488,134,138168,1,0,0:0:0:0:
410,162,138356,1,8,0:0:0:0:
461,226,138543,1,0,0:0:0:0:
381,249,138731,2,0,L|404:331,1,75,6|0,0:0|0:0,0:0:0:0:
291,229,139106,2,0,L|314:311,1,75,14|8,0:0|0:0,0:0:0:0:
252,358,139481,5,6,0:0:0:0:
252,358,139668,1,0,0:0:0:0:
172,364,139856,1,8,0:0:0:0:
172,364,140043,1,0,0:0:0:0:
95,332,140231,2,0,L|21:346,1,75,6|0,0:0|0:0,0:0:0:0:
147,268,140606,2,0,L|221:254,1,75,8|0,0:0|0:0,0:0:0:0:
89,215,140981,5,6,0:0:0:0:
160,174,141168,1,0,0:0:0:0:
184,94,141356,2,0,P|178:46|165:17,1,75,8|0,0:0|0:0,0:0:0:0:
86,39,141731,2,0,L|5:58,1,75,6|0,0:0|0:0,0:0:0:0:
90,123,142106,2,0,L|9:142,1,75,14|8,0:0|0:0,0:0:0:0:
12,222,142481,5,6,0:0:0:0:
35,309,142668,1,0,0:0:0:0:
35,309,142762,1,0,0:0:0:0:
35,309,142856,2,0,P|77:346|104:353,1,75,8|0,0:0|0:0,0:0:0:0:
176,347,143231,1,6,0:0:0:0:
258,321,143418,1,0,0:0:0:0:
258,321,143512,1,0,0:0:0:0:
258,321,143606,2,0,P|285:283|291:239,1,75,8|0,0:0|0:0,0:0:0:0:
291,173,143981,6,0,P|307:130|327:100,1,75,6|0,0:0|0:0,0:0:0:0:
385,52,144356,2,0,P|404:42|466:30,1,75,8|0,0:0|0:0,0:0:0:0:
483,108,144731,2,0,L|475:192,1,75,6|0,0:0|0:0,0:0:0:0:
402,144,145106,2,0,L|394:228,1,75,14|8,0:0|0:0,0:0:0:0:
387,301,145481,5,6,0:0:0:0:
387,301,145668,1,0,0:0:0:0:
320,349,145856,1,8,0:0:0:0:
320,349,146043,1,0,0:0:0:0:
250,303,146231,1,6,0:0:0:0:
250,303,146418,1,0,0:0:0:0:
176,341,146606,1,8,0:0:0:0:
176,341,146793,1,0,0:0:0:0:
93,330,146981,5,6,0:0:0:0:
56,267,147168,1,0,0:0:0:0:
56,267,147262,1,0,0:0:0:0:
56,267,147356,2,0,P|59:215|71:181,1,75,12|0,0:0|0:0,0:0:0:0:
109,123,147731,1,6,0:0:0:0:
142,47,147918,1,2,0:0:0:0:
69,7,148106,1,14,0:0:0:0:
36,83,148293,1,10,0:0:0:0:
109,123,148481,5,4,0:0:0:0:
