osu file format v14

[General]
AudioFilename: Surveiller et punir.mp3
AudioLeadIn: 0
PreviewTime: 109841
Countdown: 1
SampleSet: None
StackLeniency: 0.7
Mode: 1
LetterboxInBreaks: 0
WidescreenStoryboard: 0

[Editor]
Bookmarks: 10531,37013,50255,56875,63496,83358,96600,109841
DistanceSpacing: 1
BeatDivisor: 8
GridSize: 32
TimelineZoom: 2.699999

[Metadata]
Title:Surveiller et punir
TitleUnicode:Surveiller et punir
Artist:cybermiso
ArtistUnicode:cybermiso
Creator:tasuke912
Version:Oni
Source:
Tags:
BeatmapID:1923626
BeatmapSetID:921181

[Difficulty]
HPDrainRate:5
CircleSize:2
OverallDifficulty:5
ApproachRate:5
SliderMultiplier:1.4
SliderTickRate:1

[Events]
//Background and Video events
0,0,"bg.jpg",0,20
//Break Periods
//Storyboard Layer 0 (Background)
//Storyboard Layer 1 (Fail)
//Storyboard Layer 2 (Pass)
//Storyboard Layer 3 (Foreground)
//Storyboard Sound Samples

[TimingPoints]
600,413.793103448276,4,1,0,70,1,0
600,-66.6666666666667,4,1,0,65,0,0
9703,-66.6666666666667,4,1,0,30,0,0
10427,-100,4,1,0,60,0,0
17151,-66.6666666666667,4,1,0,65,0,0
20462,-58.8235294117647,4,1,0,65,0,0
23255,-76.9230769230769,4,1,0,65,0,0
23979,-133.333333333333,4,1,0,65,0,0
30289,-100,4,1,0,65,0,0
37013,-66.6666666666667,4,1,0,65,0,0
50358,-100,4,1,0,65,0,0
56875,-66.6666666666667,4,1,0,65,0,0
63496,-133.333333333333,4,1,0,65,0,0
70117,-100,4,1,0,65,0,0
75082,-100,4,1,0,50,0,0
75496,-66.6666666666667,4,1,0,65,0,0
76737,-50,4,1,0,65,0,1
82531,-52.6315789473684,4,1,0,65,0,1
82841,-57.1428571428571,4,1,0,65,0,1
83151,-62.5,4,1,0,65,0,1
83358,-66.6666666666667,4,1,0,65,0,0
109841,-66.6666666666667,4,1,0,65,0,1
114806,-66.6666666666667,4,1,0,65,0,0
115013,-70.4225352112676,4,1,0,65,0,0
115220,-74.6268656716418,4,1,0,65,0,0
115427,-78.125,4,1,0,65,0,0
115634,-83.3333333333333,4,1,0,65,0,0
115737,-86.2068965517241,4,1,0,65,0,0
115841,-89.2857142857143,4,1,0,65,0,0
115944,-92.5925925925926,4,1,0,65,0,0
116048,-96.1538461538461,4,1,0,65,0,0
116462,-66.6666666666667,4,1,0,65,0,1
126393,-66.6666666666667,4,1,0,65,0,0
126806,-66.6666666666667,4,1,0,65,0,1
141289,-50,4,1,0,65,0,0

[HitObjects]
256,192,600,5,4,0:0:0:0:
256,192,806,1,0,0:0:0:0:
256,192,1013,1,2,0:0:0:0:
256,192,1220,1,0,0:0:0:0:
256,192,1324,1,0,0:0:0:0:
256,192,1427,1,2,0:0:0:0:
256,192,1634,1,0,0:0:0:0:
256,192,1841,1,2,0:0:0:0:
256,192,2255,1,4,0:0:0:0:
256,192,2462,1,0,0:0:0:0:
256,192,2668,1,2,0:0:0:0:
256,192,2875,1,0,0:0:0:0:
256,192,2979,1,2,0:0:0:0:
256,192,3082,1,2,0:0:0:0:
256,192,3289,1,0,0:0:0:0:
256,192,3496,1,2,0:0:0:0:
256,192,3600,1,2,0:0:0:0:
256,192,3703,1,0,0:0:0:0:
256,192,3910,1,4,0:0:0:0:
256,192,4117,1,0,0:0:0:0:
256,192,4324,1,2,0:0:0:0:
256,192,4531,1,0,0:0:0:0:
256,192,4634,1,0,0:0:0:0:
256,192,4737,1,2,0:0:0:0:
256,192,4944,1,2,0:0:0:0:
256,192,5048,1,0,0:0:0:0:
256,192,5151,1,2,0:0:0:0:
256,192,5358,1,0,0:0:0:0:
256,192,5565,1,2,0:0:0:0:
256,192,5668,1,2,0:0:0:0:
256,192,5772,1,0,0:0:0:0:
256,192,5875,1,0,0:0:0:0:
256,192,5979,1,2,0:0:0:0:
256,192,6082,1,0,0:0:0:0:
256,192,6186,1,0,0:0:0:0:
256,192,6289,1,0,0:0:0:0:
256,192,6393,1,2,0:0:0:0:
256,192,6462,1,2,0:0:0:0:
256,192,6531,1,2,0:0:0:0:
256,192,6600,1,0,0:0:0:0:
256,192,6668,1,0,0:0:0:0:
256,192,6737,1,0,0:0:0:0:
256,192,6806,1,2,0:0:0:0:
256,192,7013,1,0,0:0:0:0:
256,192,7220,1,2,0:0:0:0:
256,192,7324,1,2,0:0:0:0:
256,192,7427,1,2,0:0:0:0:
256,192,7531,1,2,0:0:0:0:
256,192,7841,1,2,0:0:0:0:
256,192,7944,1,2,0:0:0:0:
256,192,8048,1,2,0:0:0:0:
256,192,8151,1,2,0:0:0:0:
256,192,8462,1,0,0:0:0:0:
256,192,8531,1,0,0:0:0:0:
256,192,8600,1,0,0:0:0:0:
256,192,8668,1,2,0:0:0:0:
256,192,8772,1,2,0:0:0:0:
256,192,8875,1,4,0:0:0:0:
256,192,9186,1,4,0:0:0:0:
256,192,9496,1,4,0:0:0:0:
256,192,9703,12,0,10324,0:0:0:0:
256,192,10531,5,0,0:0:0:0:
256,192,10944,1,0,0:0:0:0:
256,192,11151,1,2,0:0:0:0:
256,192,11358,1,0,0:0:0:0:
256,192,11462,1,2,0:0:0:0:
256,192,11668,1,2,0:0:0:0:
256,192,11772,1,0,0:0:0:0:
256,192,11979,1,2,0:0:0:0:
256,192,12186,1,0,0:0:0:0:
256,192,12600,1,0,0:0:0:0:
256,192,12806,1,2,0:0:0:0:
256,192,13013,1,0,0:0:0:0:
256,192,13220,1,2,0:0:0:0:
256,192,13324,1,2,0:0:0:0:
256,192,13427,1,0,0:0:0:0:
256,192,13634,1,2,0:0:0:0:
256,192,13841,1,0,0:0:0:0:
256,192,14255,1,0,0:0:0:0:
256,192,14462,1,2,0:0:0:0:
256,192,14668,1,0,0:0:0:0:
256,192,14772,1,2,0:0:0:0:
256,192,14979,1,2,0:0:0:0:
256,192,15082,1,0,0:0:0:0:
256,192,15289,1,2,0:0:0:0:
256,192,15358,1,2,0:0:0:0:
256,192,15427,1,2,0:0:0:0:
256,192,15496,1,0,0:0:0:0:
256,192,15910,1,0,0:0:0:0:
256,192,16117,1,2,0:0:0:0:
256,192,16324,1,0,0:0:0:0:
256,192,16427,1,0,0:0:0:0:
256,192,16634,1,0,0:0:0:0:
256,192,16737,1,2,0:0:0:0:
256,192,16944,1,2,0:0:0:0:
256,192,17151,1,0,0:0:0:0:
256,192,17358,1,2,0:0:0:0:
256,192,17565,1,0,0:0:0:0:
256,192,17668,1,2,0:0:0:0:
256,192,17772,1,0,0:0:0:0:
256,192,17979,1,2,0:0:0:0:
256,192,18186,1,0,0:0:0:0:
256,192,18289,1,0,0:0:0:0:
256,192,18393,1,2,0:0:0:0:
256,192,18600,1,2,0:0:0:0:
256,192,18806,1,0,0:0:0:0:
256,192,19013,1,2,0:0:0:0:
256,192,19117,1,0,0:0:0:0:
256,192,19220,1,0,0:0:0:0:
256,192,19324,1,2,0:0:0:0:
256,192,19427,1,0,0:0:0:0:
256,192,19634,1,0,0:0:0:0:
256,192,19703,1,0,0:0:0:0:
256,192,19772,1,0,0:0:0:0:
256,192,19841,1,2,0:0:0:0:
256,192,20048,1,0,0:0:0:0:
256,192,20255,1,2,0:0:0:0:
256,192,20462,1,0,0:0:0:0:
256,192,20565,1,0,0:0:0:0:
256,192,20668,1,2,0:0:0:0:
256,192,20772,1,0,0:0:0:0:
256,192,20875,1,2,0:0:0:0:
256,192,20979,1,2,0:0:0:0:
256,192,21082,1,0,0:0:0:0:
256,192,21186,1,0,0:0:0:0:
256,192,21289,1,2,0:0:0:0:
256,192,21393,1,2,0:0:0:0:
256,192,21496,1,0,0:0:0:0:
256,192,21600,1,2,0:0:0:0:
256,192,21703,1,0,0:0:0:0:
256,192,21806,1,0,0:0:0:0:
256,192,21910,1,2,0:0:0:0:
256,192,22013,1,2,0:0:0:0:
256,192,22117,1,0,0:0:0:0:
256,192,22220,1,0,0:0:0:0:
256,192,22324,1,0,0:0:0:0:
256,192,22427,1,0,0:0:0:0:
256,192,22531,1,2,0:0:0:0:
256,192,22737,1,0,0:0:0:0:
256,192,22841,1,0,0:0:0:0:
256,192,22944,1,2,0:0:0:0:
256,192,23255,1,2,0:0:0:0:
256,192,23358,1,0,0:0:0:0:
256,192,23565,1,2,0:0:0:0:
256,192,23668,1,2,0:0:0:0:
256,192,23772,1,0,0:0:0:0:
256,192,24393,1,0,0:0:0:0:
256,192,24600,1,2,0:0:0:0:
256,192,25013,1,2,0:0:0:0:
256,192,25220,1,2,0:0:0:0:
256,192,25427,1,0,0:0:0:0:
256,192,25737,1,2,0:0:0:0:
256,192,26048,1,0,0:0:0:0:
256,192,26151,1,0,0:0:0:0:
256,192,26255,1,2,0:0:0:0:
256,192,26668,1,2,0:0:0:0:
256,192,26875,1,2,0:0:0:0:
256,192,26979,1,2,0:0:0:0:
256,192,27082,1,0,0:0:0:0:
256,192,27289,1,2,0:0:0:0:
256,192,27393,1,0,0:0:0:0:
256,192,27703,1,0,0:0:0:0:
256,192,27910,1,2,0:0:0:0:
256,192,28117,1,2,0:0:0:0:
256,192,28186,1,2,0:0:0:0:
256,192,28255,1,2,0:0:0:0:
256,192,28324,1,0,0:0:0:0:
256,192,28531,1,2,0:0:0:0:
256,192,28737,1,0,0:0:0:0:
256,192,28944,1,0,0:0:0:0:
256,192,29048,1,2,0:0:0:0:
256,192,29151,1,2,0:0:0:0:
256,192,29358,1,0,0:0:0:0:
256,192,29565,1,2,0:0:0:0:
256,192,29979,1,0,0:0:0:0:
256,192,30393,1,0,0:0:0:0:
256,192,30806,1,2,0:0:0:0:
256,192,31013,1,0,0:0:0:0:
256,192,31427,1,2,0:0:0:0:
256,192,31634,1,2,0:0:0:0:
256,192,31841,1,0,0:0:0:0:
256,192,32048,1,0,0:0:0:0:
256,192,32358,1,0,0:0:0:0:
256,192,32565,1,2,0:0:0:0:
256,192,32668,1,0,0:0:0:0:
256,192,32875,1,2,0:0:0:0:
256,192,33082,1,2,0:0:0:0:
256,192,33186,1,0,0:0:0:0:
256,192,33289,1,2,0:0:0:0:
256,192,33393,1,2,0:0:0:0:
256,192,33496,1,0,0:0:0:0:
256,192,33600,1,2,0:0:0:0:
256,192,34117,1,0,0:0:0:0:
256,192,34186,1,2,0:0:0:0:
256,192,34531,1,0,0:0:0:0:
256,192,34600,1,0,0:0:0:0:
256,192,34668,1,0,0:0:0:0:
256,192,34737,1,2,0:0:0:0:
256,192,34841,1,0,0:0:0:0:
256,192,34944,1,2,0:0:0:0:
256,192,35151,1,2,0:0:0:0:
256,192,35358,1,0,0:0:0:0:
256,192,35462,1,0,0:0:0:0:
256,192,35565,1,2,0:0:0:0:
256,192,35634,1,2,0:0:0:0:
256,192,35703,1,2,0:0:0:0:
256,192,35772,1,0,0:0:0:0:
256,192,35875,1,0,0:0:0:0:
256,192,35979,1,2,0:0:0:0:
256,192,36048,1,0,0:0:0:0:
256,192,36117,1,0,0:0:0:0:
256,192,36186,1,2,0:0:0:0:
256,192,36289,1,2,0:0:0:0:
256,192,36393,1,2,0:0:0:0:
256,192,36496,1,2,0:0:0:0:
256,192,36600,1,2,0:0:0:0:
256,192,36806,1,2,0:0:0:0:
256,192,37013,5,0,0:0:0:0:
256,192,37220,1,2,0:0:0:0:
256,192,37427,1,0,0:0:0:0:
256,192,37531,1,0,0:0:0:0:
256,192,37634,1,2,0:0:0:0:
256,192,37841,1,2,0:0:0:0:
256,192,37910,1,2,0:0:0:0:
256,192,37979,1,2,0:0:0:0:
256,192,38048,1,0,0:0:0:0:
256,192,38255,1,2,0:0:0:0:
256,192,38324,1,2,0:0:0:0:
256,192,38393,1,2,0:0:0:0:
256,192,38462,1,0,0:0:0:0:
256,192,38668,1,0,0:0:0:0:
256,192,38875,1,2,0:0:0:0:
256,192,39082,1,0,0:0:0:0:
256,192,39186,1,2,0:0:0:0:
256,192,39289,1,2,0:0:0:0:
256,192,39496,1,0,0:0:0:0:
256,192,39703,1,2,0:0:0:0:
256,192,39806,1,0,0:0:0:0:
256,192,39910,1,2,0:0:0:0:
256,192,40117,1,0,0:0:0:0:
256,192,40324,1,2,0:0:0:0:
256,192,40531,1,2,0:0:0:0:
256,192,40600,1,2,0:0:0:0:
256,192,40668,1,2,0:0:0:0:
256,192,40737,1,0,0:0:0:0:
256,192,40841,1,0,0:0:0:0:
256,192,40944,1,2,0:0:0:0:
256,192,41048,1,0,0:0:0:0:
256,192,41151,1,2,0:0:0:0:
256,192,41358,1,0,0:0:0:0:
256,192,41462,1,2,0:0:0:0:
256,192,41565,1,2,0:0:0:0:
256,192,41772,1,2,0:0:0:0:
256,192,41875,1,0,0:0:0:0:
256,192,41979,1,0,0:0:0:0:
256,192,42186,1,2,0:0:0:0:
256,192,42393,1,0,0:0:0:0:
256,192,42496,1,0,0:0:0:0:
256,192,42600,1,2,0:0:0:0:
256,192,42806,1,0,0:0:0:0:
256,192,43013,1,2,0:0:0:0:
256,192,43117,1,0,0:0:0:0:
256,192,43324,1,0,0:0:0:0:
256,192,43427,1,2,0:0:0:0:
256,192,43634,1,0,0:0:0:0:
256,192,43841,1,2,0:0:0:0:
256,192,44048,1,0,0:0:0:0:
256,192,44151,1,0,0:0:0:0:
256,192,44255,1,2,0:0:0:0:
256,192,44462,1,2,0:0:0:0:
256,192,44531,1,2,0:0:0:0:
256,192,44600,1,2,0:0:0:0:
256,192,44668,1,0,0:0:0:0:
256,192,44875,1,2,0:0:0:0:
256,192,44944,1,2,0:0:0:0:
256,192,45013,1,2,0:0:0:0:
256,192,45082,1,0,0:0:0:0:
256,192,45289,1,0,0:0:0:0:
256,192,45496,1,2,0:0:0:0:
256,192,45703,1,0,0:0:0:0:
256,192,45806,1,2,0:0:0:0:
256,192,45910,1,2,0:0:0:0:
256,192,46117,1,0,0:0:0:0:
256,192,46324,1,2,0:0:0:0:
256,192,46427,1,0,0:0:0:0:
256,192,46531,1,2,0:0:0:0:
256,192,46737,1,0,0:0:0:0:
256,192,46944,1,4,0:0:0:0:
256,192,47151,1,2,0:0:0:0:
256,192,47220,1,2,0:0:0:0:
256,192,47289,1,2,0:0:0:0:
256,192,47358,1,0,0:0:0:0:
256,192,47462,1,0,0:0:0:0:
256,192,47565,1,2,0:0:0:0:
256,192,47668,1,0,0:0:0:0:
256,192,47772,1,2,0:0:0:0:
256,192,47979,1,0,0:0:0:0:
256,192,48082,1,2,0:0:0:0:
256,192,48186,1,2,0:0:0:0:
256,192,48393,1,2,0:0:0:0:
256,192,48496,1,0,0:0:0:0:
256,192,48600,1,0,0:0:0:0:
256,192,48806,1,2,0:0:0:0:
256,192,48910,1,2,0:0:0:0:
256,192,49013,1,0,0:0:0:0:
256,192,49117,1,2,0:0:0:0:
256,192,49220,1,0,0:0:0:0:
256,192,49324,1,0,0:0:0:0:
256,192,49427,1,2,0:0:0:0:
256,192,49531,1,2,0:0:0:0:
256,192,49634,1,0,0:0:0:0:
256,192,49737,1,2,0:0:0:0:
256,192,49841,1,2,0:0:0:0:
256,192,49944,1,0,0:0:0:0:
256,192,50048,1,2,0:0:0:0:
256,192,50151,1,2,0:0:0:0:
256,192,50255,1,0,0:0:0:0:
256,192,51082,1,2,0:0:0:0:
256,192,51186,1,2,0:0:0:0:
256,192,51289,1,0,0:0:0:0:
256,192,51393,1,0,0:0:0:0:
256,192,51496,1,2,0:0:0:0:
256,192,51703,1,2,0:0:0:0:
256,192,51910,1,0,0:0:0:0:
256,192,52013,1,0,0:0:0:0:
256,192,52220,1,0,0:0:0:0:
256,192,52324,1,2,0:0:0:0:
256,192,52531,1,0,0:0:0:0:
256,192,52737,1,2,0:0:0:0:
256,192,52841,1,0,0:0:0:0:
256,192,53048,1,0,0:0:0:0:
256,192,53151,1,2,0:0:0:0:
256,192,53358,1,2,0:0:0:0:
256,192,53462,1,2,0:0:0:0:
256,192,53565,1,0,0:0:0:0:
256,192,53979,1,0,0:0:0:0:
256,192,54186,1,2,0:0:0:0:
256,192,54393,1,0,0:0:0:0:
256,192,54600,1,2,0:0:0:0:
256,192,54703,1,2,0:0:0:0:
256,192,54806,1,2,0:0:0:0:
256,192,55013,1,2,0:0:0:0:
256,192,55117,1,2,0:0:0:0:
256,192,55220,1,0,0:0:0:0:
256,192,55427,1,2,0:0:0:0:
256,192,55634,1,0,0:0:0:0:
256,192,55737,1,2,0:0:0:0:
256,192,55841,1,0,0:0:0:0:
256,192,55944,1,0,0:0:0:0:
256,192,56048,1,2,0:0:0:0:
256,192,56255,1,0,0:0:0:0:
256,192,56358,1,2,0:0:0:0:
256,192,56565,1,0,0:0:0:0:
256,192,56668,1,2,0:0:0:0:
256,192,56772,1,2,0:0:0:0:
256,192,56875,1,0,0:0:0:0:
256,192,57082,1,2,0:0:0:0:
256,192,57289,1,0,0:0:0:0:
256,192,57393,1,2,0:0:0:0:
256,192,57496,1,0,0:0:0:0:
256,192,57703,1,2,0:0:0:0:
256,192,57910,1,0,0:0:0:0:
256,192,58013,1,0,0:0:0:0:
256,192,58117,1,2,0:0:0:0:
256,192,58324,1,2,0:0:0:0:
256,192,58427,1,2,0:0:0:0:
256,192,58531,1,0,0:0:0:0:
256,192,58737,1,2,0:0:0:0:
256,192,58944,1,0,0:0:0:0:
256,192,59048,1,2,0:0:0:0:
256,192,59151,1,2,0:0:0:0:
256,192,59358,1,2,0:0:0:0:
256,192,59410,1,2,0:0:0:0:
256,192,59462,1,2,0:0:0:0:
256,192,59565,1,0,0:0:0:0:
256,192,59668,1,2,0:0:0:0:
256,192,59875,1,2,0:0:0:0:
256,192,59979,1,0,0:0:0:0:
256,192,60186,1,0,0:0:0:0:
256,192,60393,1,2,0:0:0:0:
256,192,60496,1,0,0:0:0:0:
256,192,60600,1,2,0:0:0:0:
256,192,60703,1,2,0:0:0:0:
256,192,60806,1,0,0:0:0:0:
256,192,60910,1,2,0:0:0:0:
256,192,61013,1,0,0:0:0:0:
256,192,61082,1,0,0:0:0:0:
256,192,61151,1,0,0:0:0:0:
256,192,61220,1,2,0:0:0:0:
256,192,61324,1,2,0:0:0:0:
256,192,61427,1,0,0:0:0:0:
256,192,61496,1,2,0:0:0:0:
256,192,61565,1,2,0:0:0:0:
256,192,61634,1,2,0:0:0:0:
256,192,61737,1,2,0:0:0:0:
256,192,61841,1,0,0:0:0:0:
256,192,63496,5,4,0:0:0:0:
256,192,64324,1,2,0:0:0:0:
256,192,65151,1,0,0:0:0:0:
256,192,65462,1,2,0:0:0:0:
256,192,65772,1,0,0:0:0:0:
256,192,65979,1,2,0:0:0:0:
256,192,66393,1,2,0:0:0:0:
256,192,66496,1,2,0:0:0:0:
256,192,66600,1,2,0:0:0:0:
256,192,67220,1,2,0:0:0:0:
256,192,67427,1,0,0:0:0:0:
256,192,67634,1,2,0:0:0:0:
256,192,67841,1,2,0:0:0:0:
256,192,67944,1,2,0:0:0:0:
256,192,68151,1,2,0:0:0:0:
256,192,68255,1,2,0:0:0:0:
256,192,68462,1,2,0:0:0:0:
256,192,68668,1,0,0:0:0:0:
256,192,68875,1,2,0:0:0:0:
256,192,69082,1,0,0:0:0:0:
256,192,69289,1,2,0:0:0:0:
256,192,69496,1,2,0:0:0:0:
256,192,69600,1,0,0:0:0:0:
256,192,69806,1,0,0:0:0:0:
256,192,69910,1,2,0:0:0:0:
256,192,70117,1,0,0:0:0:0:
256,192,70427,1,2,0:0:0:0:
256,192,70531,1,0,0:0:0:0:
256,192,70737,1,2,0:0:0:0:
256,192,70944,1,0,0:0:0:0:
256,192,71151,1,2,0:0:0:0:
256,192,71255,1,2,0:0:0:0:
256,192,71358,1,0,0:0:0:0:
256,192,71565,1,2,0:0:0:0:
256,192,71772,1,0,0:0:0:0:
256,192,71875,1,2,0:0:0:0:
256,192,72082,1,2,0:0:0:0:
256,192,72186,1,0,0:0:0:0:
256,192,72393,1,2,0:0:0:0:
256,192,72600,1,0,0:0:0:0:
256,192,72806,1,2,0:0:0:0:
256,192,72910,1,2,0:0:0:0:
256,192,73013,1,0,0:0:0:0:
256,192,73117,1,2,0:0:0:0:
256,192,73220,1,2,0:0:0:0:
256,192,73427,1,0,0:0:0:0:
256,192,73634,1,0,0:0:0:0:
256,192,73737,1,2,0:0:0:0:
256,192,73841,1,0,0:0:0:0:
256,192,74048,1,2,0:0:0:0:
256,192,74255,1,0,0:0:0:0:
256,192,74462,1,2,0:0:0:0:
256,192,74565,1,0,0:0:0:0:
256,192,74668,1,0,0:0:0:0:
256,192,74875,1,2,0:0:0:0:
141,129,75082,2,0,L|243:119,1,70
256,192,75496,1,2,0:0:0:0:
256,192,75600,1,2,0:0:0:0:
256,192,75703,1,0,0:0:0:0:
256,192,75772,1,0,0:0:0:0:
256,192,75841,1,0,0:0:0:0:
256,192,75910,1,2,0:0:0:0:
256,192,76013,1,2,0:0:0:0:
256,192,76117,1,0,0:0:0:0:
256,192,76186,1,2,0:0:0:0:
256,192,76255,1,2,0:0:0:0:
256,192,76324,1,0,0:0:0:0:
256,192,76531,1,2,0:0:0:0:
256,192,76737,1,0,0:0:0:0:
256,192,76841,1,0,0:0:0:0:
256,192,76944,1,0,0:0:0:0:
256,192,77048,1,0,0:0:0:0:
256,192,77151,1,2,0:0:0:0:
256,192,77255,1,2,0:0:0:0:
256,192,77358,1,0,0:0:0:0:
256,192,77462,1,0,0:0:0:0:
256,192,77565,1,2,0:0:0:0:
256,192,77772,1,2,0:0:0:0:
256,192,77875,1,0,0:0:0:0:
256,192,78186,1,2,0:0:0:0:
256,192,78289,1,2,0:0:0:0:
256,192,78393,1,0,0:0:0:0:
256,192,78496,1,2,0:0:0:0:
256,192,78703,1,0,0:0:0:0:
256,192,78806,1,2,0:0:0:0:
256,192,79013,1,6,0:0:0:0:
256,192,79117,1,6,0:0:0:0:
256,192,79324,1,2,0:0:0:0:
256,192,79375,1,2,0:0:0:0:
256,192,79427,1,0,0:0:0:0:
256,192,79531,1,0,0:0:0:0:
256,192,79634,1,2,0:0:0:0:
256,192,79737,1,0,0:0:0:0:
256,192,79841,1,2,0:0:0:0:
256,192,79910,1,2,0:0:0:0:
256,192,79979,1,2,0:0:0:0:
256,192,80048,1,0,0:0:0:0:
256,192,80151,1,0,0:0:0:0:
256,192,80255,1,0,0:0:0:0:
256,192,80358,1,0,0:0:0:0:
256,192,80462,1,2,0:0:0:0:
256,192,80565,1,0,0:0:0:0:
256,192,80668,1,0,0:0:0:0:
256,192,80772,1,0,0:0:0:0:
256,192,80875,1,2,0:0:0:0:
256,192,80944,1,2,0:0:0:0:
256,192,81013,1,2,0:0:0:0:
256,192,81082,1,0,0:0:0:0:
256,192,81186,1,2,0:0:0:0:
256,192,81393,1,2,0:0:0:0:
256,192,81444,1,2,0:0:0:0:
256,192,81496,1,2,0:0:0:0:
256,192,81600,1,2,0:0:0:0:
256,192,81703,1,4,0:0:0:0:
256,192,82013,1,6,0:0:0:0:
256,192,82324,1,4,0:0:0:0:
256,192,82531,1,6,0:0:0:0:
256,192,82841,1,6,0:0:0:0:
256,192,83151,1,6,0:0:0:0:
256,192,83358,1,4,0:0:0:0:
256,192,83565,1,0,0:0:0:0:
256,192,83668,1,2,0:0:0:0:
256,192,83772,1,0,0:0:0:0:
256,192,83979,1,2,0:0:0:0:
256,192,84186,1,0,0:0:0:0:
256,192,84393,1,2,0:0:0:0:
256,192,84496,1,2,0:0:0:0:
256,192,84600,1,0,0:0:0:0:
256,192,84668,1,2,0:0:0:0:
256,192,84737,1,2,0:0:0:0:
256,192,84806,1,0,0:0:0:0:
256,192,85013,1,0,0:0:0:0:
256,192,85220,1,2,0:0:0:0:
256,192,85324,1,2,0:0:0:0:
256,192,85427,1,0,0:0:0:0:
256,192,85634,1,2,0:0:0:0:
256,192,85841,1,4,0:0:0:0:
256,192,86048,1,4,0:0:0:0:
256,192,86255,1,6,0:0:0:0:
256,192,86462,1,6,0:0:0:0:
256,192,86668,1,0,0:0:0:0:
256,192,86875,1,2,0:0:0:0:
256,192,86979,1,0,0:0:0:0:
256,192,87082,1,2,0:0:0:0:
256,192,87186,1,2,0:0:0:0:
256,192,87289,1,0,0:0:0:0:
256,192,87496,1,0,0:0:0:0:
256,192,87703,1,0,0:0:0:0:
256,192,87806,1,2,0:0:0:0:
256,192,87910,1,0,0:0:0:0:
256,192,87979,1,2,0:0:0:0:
256,192,88048,1,2,0:0:0:0:
256,192,88117,1,2,0:0:0:0:
256,192,88324,1,0,0:0:0:0:
256,192,88531,1,0,0:0:0:0:
256,192,88634,1,0,0:0:0:0:
256,192,88737,1,2,0:0:0:0:
256,192,88806,1,2,0:0:0:0:
256,192,88875,1,2,0:0:0:0:
256,192,89151,1,0,0:0:0:0:
256,192,89255,1,0,0:0:0:0:
256,192,89462,1,0,0:0:0:0:
256,192,89565,1,2,0:0:0:0:
256,192,89772,1,2,0:0:0:0:
256,192,89979,1,0,0:0:0:0:
256,192,90186,1,0,0:0:0:0:
256,192,90289,1,2,0:0:0:0:
256,192,90393,1,0,0:0:0:0:
256,192,90600,1,2,0:0:0:0:
256,192,90806,1,0,0:0:0:0:
256,192,91013,1,2,0:0:0:0:
256,192,91117,1,2,0:0:0:0:
256,192,91220,1,0,0:0:0:0:
256,192,91289,1,0,0:0:0:0:
256,192,91358,1,0,0:0:0:0:
256,192,91427,1,2,0:0:0:0:
256,192,91634,1,0,0:0:0:0:
256,192,91737,1,2,0:0:0:0:
256,192,91841,1,2,0:0:0:0:
256,192,91944,1,0,0:0:0:0:
256,192,92048,1,2,0:0:0:0:
256,192,92117,1,0,0:0:0:0:
256,192,92186,1,0,0:0:0:0:
256,192,92255,1,2,0:0:0:0:
256,192,92462,1,4,0:0:0:0:
256,192,92668,1,4,0:0:0:0:
256,192,92875,1,6,0:0:0:0:
256,192,93082,1,6,0:0:0:0:
256,192,93289,1,0,0:0:0:0:
256,192,93496,1,0,0:0:0:0:
256,192,93600,1,2,0:0:0:0:
256,192,93703,1,0,0:0:0:0:
256,192,93806,1,0,0:0:0:0:
256,192,93910,1,2,0:0:0:0:
256,192,94013,1,2,0:0:0:0:
256,192,94117,1,0,0:0:0:0:
256,192,94186,1,0,0:0:0:0:
256,192,94255,1,0,0:0:0:0:
256,192,94324,1,2,0:0:0:0:
256,192,94427,1,2,0:0:0:0:
256,192,94531,1,0,0:0:0:0:
256,192,94634,1,2,0:0:0:0:
256,192,94737,1,2,0:0:0:0:
256,192,94841,1,2,0:0:0:0:
256,192,94944,1,0,0:0:0:0:
256,192,95048,1,0,0:0:0:0:
256,192,95151,1,2,0:0:0:0:
256,192,95306,1,2,0:0:0:0:
256,192,95358,1,0,0:0:0:0:
256,192,95462,1,2,0:0:0:0:
256,192,95565,1,2,0:0:0:0:
256,192,95617,1,2,0:0:0:0:
256,192,95668,1,2,0:0:0:0:
256,192,95772,1,0,0:0:0:0:
256,192,95841,1,0,0:0:0:0:
256,192,95910,1,0,0:0:0:0:
256,192,95979,1,2,0:0:0:0:
256,192,96048,1,2,0:0:0:0:
256,192,96117,1,2,0:0:0:0:
256,192,96186,1,0,0:0:0:0:
256,192,96255,1,2,0:0:0:0:
256,192,96324,1,2,0:0:0:0:
256,192,96393,1,0,0:0:0:0:
256,192,96600,5,4,0:0:0:0:
256,192,96806,1,0,0:0:0:0:
256,192,96910,1,2,0:0:0:0:
256,192,97117,1,2,0:0:0:0:
256,192,97220,1,0,0:0:0:0:
256,192,97427,1,2,0:0:0:0:
256,192,97496,1,2,0:0:0:0:
256,192,97565,1,2,0:0:0:0:
256,192,97634,1,0,0:0:0:0:
256,192,97841,1,2,0:0:0:0:
256,192,97910,1,2,0:0:0:0:
256,192,97979,1,2,0:0:0:0:
256,192,98048,1,0,0:0:0:0:
256,192,98255,1,0,0:0:0:0:
256,192,98462,1,0,0:0:0:0:
256,192,98565,1,2,0:0:0:0:
256,192,98668,1,0,0:0:0:0:
256,192,98772,1,0,0:0:0:0:
256,192,98875,1,2,0:0:0:0:
256,192,99082,1,4,0:0:0:0:
256,192,99289,1,6,0:0:0:0:
256,192,99496,1,6,0:0:0:0:
256,192,99703,1,4,0:0:0:0:
256,192,99910,1,0,0:0:0:0:
256,192,100117,1,2,0:0:0:0:
256,192,100220,1,2,0:0:0:0:
256,192,100324,1,0,0:0:0:0:
256,192,100427,1,0,0:0:0:0:
256,192,100531,1,2,0:0:0:0:
256,192,100737,1,2,0:0:0:0:
256,192,100806,1,2,0:0:0:0:
256,192,100875,1,2,0:0:0:0:
256,192,100944,1,0,0:0:0:0:
256,192,101151,1,2,0:0:0:0:
256,192,101220,1,2,0:0:0:0:
256,192,101289,1,2,0:0:0:0:
256,192,101358,1,0,0:0:0:0:
256,192,101565,1,0,0:0:0:0:
256,192,101772,1,0,0:0:0:0:
256,192,101875,1,2,0:0:0:0:
256,192,101979,1,0,0:0:0:0:
256,192,102082,1,0,0:0:0:0:
256,192,102186,1,2,0:0:0:0:
256,192,102289,1,2,0:0:0:0:
256,192,102393,1,0,0:0:0:0:
256,192,102600,1,2,0:0:0:0:
256,192,102668,1,0,0:0:0:0:
256,192,102737,1,0,0:0:0:0:
256,192,102806,1,2,0:0:0:0:
256,192,103013,1,2,0:0:0:0:
256,192,103117,1,2,0:0:0:0:
256,192,103220,1,0,0:0:0:0:
256,192,103324,1,0,0:0:0:0:
256,192,103375,1,0,0:0:0:0:
256,192,103427,1,0,0:0:0:0:
256,192,103531,1,0,0:0:0:0:
256,192,103634,1,2,0:0:0:0:
256,192,103737,1,0,0:0:0:0:
256,192,103841,1,0,0:0:0:0:
256,192,103944,1,0,0:0:0:0:
256,192,104048,1,2,0:0:0:0:
256,192,104117,1,2,0:0:0:0:
256,192,104186,1,2,0:0:0:0:
256,192,104255,1,0,0:0:0:0:
256,192,104358,1,0,0:0:0:0:
256,192,104462,1,2,0:0:0:0:
256,192,104531,1,2,0:0:0:0:
256,192,104600,1,2,0:0:0:0:
256,192,104668,1,0,0:0:0:0:
256,192,104875,1,0,0:0:0:0:
256,192,104927,1,0,0:0:0:0:
256,192,104979,1,0,0:0:0:0:
256,192,105031,1,0,0:0:0:0:
256,192,105082,1,0,0:0:0:0:
256,192,105186,1,0,0:0:0:0:
256,192,105289,1,2,0:0:0:0:
256,192,105393,1,0,0:0:0:0:
256,192,105496,1,2,0:0:0:0:
256,192,105600,1,2,0:0:0:0:
256,192,105703,1,0,0:0:0:0:
256,192,105755,1,0,0:0:0:0:
256,192,105806,1,0,0:0:0:0:
256,192,105910,1,2,0:0:0:0:
256,192,106013,1,2,0:0:0:0:
256,192,106065,1,2,0:0:0:0:
256,192,106117,1,0,0:0:0:0:
256,192,106324,1,2,0:0:0:0:
256,192,106531,1,0,0:0:0:0:
256,192,106634,1,0,0:0:0:0:
256,192,106737,1,0,0:0:0:0:
256,192,106841,1,0,0:0:0:0:
256,192,107151,1,0,0:0:0:0:
256,192,107255,1,0,0:0:0:0:
256,192,107358,1,0,0:0:0:0:
256,192,107462,1,0,0:0:0:0:
256,192,107772,1,0,0:0:0:0:
256,192,107841,1,0,0:0:0:0:
256,192,107910,1,0,0:0:0:0:
256,192,107979,1,2,0:0:0:0:
256,192,108082,1,2,0:0:0:0:
256,192,108186,1,4,0:0:0:0:
256,192,108496,1,6,0:0:0:0:
256,192,108806,1,4,0:0:0:0:
256,192,109013,1,2,0:0:0:0:
256,192,109220,1,2,0:0:0:0:
256,192,109324,1,2,0:0:0:0:
256,192,109531,1,2,0:0:0:0:
256,192,109634,1,2,0:0:0:0:
256,192,109737,1,2,0:0:0:0:
256,192,109841,1,0,0:0:0:0:
256,192,110048,1,2,0:0:0:0:
256,192,110255,1,0,0:0:0:0:
256,192,110358,1,0,0:0:0:0:
256,192,110462,1,2,0:0:0:0:
256,192,110668,1,0,0:0:0:0:
256,192,110875,1,2,0:0:0:0:
256,192,110979,1,2,0:0:0:0:
256,192,111082,1,0,0:0:0:0:
256,192,111289,1,2,0:0:0:0:
256,192,111496,1,0,0:0:0:0:
256,192,111703,1,2,0:0:0:0:
256,192,111806,1,0,0:0:0:0:
256,192,111910,1,2,0:0:0:0:
256,192,112117,1,0,0:0:0:0:
256,192,112220,1,2,0:0:0:0:
256,192,112427,1,2,0:0:0:0:
256,192,112531,1,0,0:0:0:0:
256,192,112634,1,0,0:0:0:0:
256,192,112737,1,2,0:0:0:0:
256,192,112944,1,2,0:0:0:0:
256,192,113048,1,2,0:0:0:0:
256,192,113151,1,0,0:0:0:0:
256,192,113358,1,2,0:0:0:0:
256,192,113565,1,0,0:0:0:0:
256,192,113668,1,0,0:0:0:0:
256,192,113772,1,2,0:0:0:0:
256,192,113979,1,0,0:0:0:0:
256,192,114186,1,2,0:0:0:0:
256,192,114289,1,0,0:0:0:0:
256,192,114393,1,2,0:0:0:0:
256,192,114496,1,2,0:0:0:0:
256,192,114600,1,0,0:0:0:0:
256,192,114703,1,2,0:0:0:0:
256,192,114806,1,0,0:0:0:0:
256,192,115013,1,0,0:0:0:0:
256,192,115220,1,2,0:0:0:0:
256,192,115427,1,0,0:0:0:0:
256,192,115634,1,2,0:0:0:0:
256,192,115737,1,0,0:0:0:0:
256,192,115841,1,0,0:0:0:0:
256,192,115944,1,0,0:0:0:0:
256,192,116048,1,2,0:0:0:0:
256,192,116462,1,0,0:0:0:0:
256,192,116668,1,0,0:0:0:0:
256,192,116772,1,2,0:0:0:0:
256,192,116875,1,0,0:0:0:0:
256,192,116979,1,0,0:0:0:0:
256,192,117082,1,2,0:0:0:0:
256,192,117186,1,2,0:0:0:0:
256,192,117289,1,0,0:0:0:0:
256,192,117496,1,2,0:0:0:0:
256,192,117600,1,0,0:0:0:0:
256,192,117703,1,2,0:0:0:0:
256,192,117806,1,2,0:0:0:0:
256,192,117910,1,0,0:0:0:0:
256,192,118013,1,0,0:0:0:0:
256,192,118117,1,2,0:0:0:0:
256,192,118324,1,2,0:0:0:0:
256,192,118427,1,0,0:0:0:0:
256,192,118531,1,2,0:0:0:0:
256,192,118737,1,0,0:0:0:0:
256,192,118841,1,2,0:0:0:0:
256,192,119048,1,0,0:0:0:0:
256,192,119151,1,0,0:0:0:0:
256,192,119255,1,0,0:0:0:0:
256,192,119358,1,2,0:0:0:0:
256,192,119462,1,2,0:0:0:0:
256,192,119513,1,2,0:0:0:0:
256,192,119565,1,0,0:0:0:0:
256,192,119668,1,2,0:0:0:0:
256,192,119772,1,0,0:0:0:0:
256,192,119979,1,0,0:0:0:0:
256,192,120082,1,0,0:0:0:0:
256,192,120186,1,2,0:0:0:0:
256,192,120393,1,2,0:0:0:0:
256,192,120496,1,2,0:0:0:0:
256,192,120600,1,0,0:0:0:0:
256,192,120703,1,2,0:0:0:0:
256,192,120806,1,0,0:0:0:0:
256,192,120910,1,0,0:0:0:0:
256,192,121013,1,2,0:0:0:0:
256,192,121220,1,0,0:0:0:0:
256,192,121427,1,2,0:0:0:0:
256,192,121531,1,0,0:0:0:0:
256,192,121634,1,0,0:0:0:0:
256,192,121737,1,2,0:0:0:0:
256,192,121944,1,0,0:0:0:0:
256,192,122048,1,2,0:0:0:0:
256,192,122151,1,2,0:0:0:0:
256,192,122255,1,0,0:0:0:0:
256,192,122462,1,2,0:0:0:0:
256,192,122565,1,0,0:0:0:0:
256,192,122668,1,2,0:0:0:0:
256,192,122875,1,2,0:0:0:0:
256,192,122979,1,2,0:0:0:0:
256,192,123082,1,0,0:0:0:0:
256,192,123151,1,0,0:0:0:0:
256,192,123220,1,0,0:0:0:0:
256,192,123289,1,0,0:0:0:0:
256,192,123358,1,0,0:0:0:0:
256,192,123427,1,0,0:0:0:0:
256,192,123496,1,2,0:0:0:0:
256,192,123703,1,0,0:0:0:0:
256,192,123910,1,2,0:0:0:0:
256,192,123979,1,2,0:0:0:0:
256,192,124048,1,2,0:0:0:0:
256,192,124117,1,2,0:0:0:0:
256,192,124186,1,2,0:0:0:0:
256,192,124255,1,2,0:0:0:0:
256,192,124324,1,0,0:0:0:0:
256,192,124531,1,2,0:0:0:0:
256,192,124634,1,2,0:0:0:0:
256,192,124737,1,0,0:0:0:0:
256,192,124944,1,2,0:0:0:0:
256,192,125048,1,0,0:0:0:0:
256,192,125151,1,2,0:0:0:0:
256,192,125358,1,0,0:0:0:0:
256,192,125462,1,2,0:0:0:0:
256,192,125668,1,6,0:0:0:0:
256,192,125875,1,6,0:0:0:0:
256,192,125979,1,4,0:0:0:0:
256,192,126186,1,6,0:0:0:0:
256,192,126600,1,2,0:0:0:0:
256,192,126703,1,2,0:0:0:0:
256,192,126806,1,0,0:0:0:0:
256,192,127013,1,2,0:0:0:0:
256,192,127220,1,0,0:0:0:0:
256,192,127289,1,2,0:0:0:0:
256,192,127358,1,2,0:0:0:0:
256,192,127427,1,2,0:0:0:0:
256,192,127496,1,2,0:0:0:0:
256,192,127565,1,2,0:0:0:0:
256,192,127634,1,0,0:0:0:0:
256,192,127841,1,2,0:0:0:0:
256,192,127944,1,2,0:0:0:0:
256,192,128048,1,0,0:0:0:0:
256,192,128255,1,0,0:0:0:0:
256,192,128306,1,0,0:0:0:0:
256,192,128358,1,0,0:0:0:0:
256,192,128462,1,2,0:0:0:0:
256,192,128565,1,2,0:0:0:0:
256,192,128668,1,0,0:0:0:0:
256,192,128720,1,0,0:0:0:0:
256,192,128772,1,0,0:0:0:0:
256,192,128875,1,2,0:0:0:0:
256,192,128979,1,2,0:0:0:0:
256,192,129082,1,0,0:0:0:0:
256,192,129186,1,0,0:0:0:0:
256,192,129289,1,2,0:0:0:0:
256,192,129496,1,2,0:0:0:0:
256,192,129600,1,2,0:0:0:0:
256,192,129703,1,0,0:0:0:0:
256,192,129910,1,0,0:0:0:0:
256,192,130013,1,2,0:0:0:0:
256,192,130117,1,0,0:0:0:0:
256,192,130220,1,0,0:0:0:0:
256,192,130324,1,2,0:0:0:0:
256,192,130427,1,2,0:0:0:0:
256,192,130531,1,0,0:0:0:0:
256,192,130600,1,0,0:0:0:0:
256,192,130668,1,0,0:0:0:0:
256,192,130737,1,2,0:0:0:0:
256,192,130806,1,2,0:0:0:0:
256,192,130875,1,2,0:0:0:0:
256,192,130944,1,0,0:0:0:0:
256,192,131048,1,0,0:0:0:0:
256,192,131151,1,2,0:0:0:0:
256,192,131255,1,2,0:0:0:0:
256,192,131358,1,0,0:0:0:0:
256,192,131462,1,0,0:0:0:0:
256,192,131565,1,2,0:0:0:0:
256,192,131617,1,2,0:0:0:0:
256,192,131668,1,2,0:0:0:0:
256,192,131772,1,0,0:0:0:0:
256,192,131875,1,0,0:0:0:0:
256,192,131979,1,2,0:0:0:0:
256,192,132031,1,2,0:0:0:0:
256,192,132082,1,2,0:0:0:0:
256,192,132186,1,0,0:0:0:0:
256,192,132289,1,2,0:0:0:0:
256,192,132496,1,2,0:0:0:0:
256,192,132548,1,2,0:0:0:0:
256,192,132600,1,0,0:0:0:0:
256,192,132806,1,2,0:0:0:0:
256,192,132910,1,2,0:0:0:0:
256,192,133013,1,0,0:0:0:0:
256,192,133220,1,2,0:0:0:0:
256,192,133324,1,0,0:0:0:0:
256,192,133427,1,2,0:0:0:0:
256,192,133531,1,2,0:0:0:0:
256,192,133634,1,0,0:0:0:0:
256,192,133737,1,2,0:0:0:0:
256,192,133841,1,0,0:0:0:0:
256,192,133944,1,0,0:0:0:0:
256,192,134048,1,2,0:0:0:0:
256,192,134151,1,0,0:0:0:0:
256,192,134255,1,2,0:0:0:0:
256,192,134358,1,2,0:0:0:0:
256,192,134462,1,0,0:0:0:0:
256,192,134565,1,0,0:0:0:0:
256,192,134668,1,2,0:0:0:0:
256,192,134772,1,2,0:0:0:0:
256,192,134875,1,0,0:0:0:0:
256,192,134979,1,2,0:0:0:0:
256,192,135082,1,0,0:0:0:0:
256,192,135186,1,0,0:0:0:0:
256,192,135289,1,2,0:0:0:0:
256,192,135393,1,0,0:0:0:0:
256,192,135496,1,2,0:0:0:0:
256,192,135565,1,2,0:0:0:0:
256,192,135634,1,2,0:0:0:0:
256,192,135703,1,0,0:0:0:0:
256,192,135772,1,0,0:0:0:0:
256,192,135841,1,0,0:0:0:0:
256,192,135910,1,2,0:0:0:0:
256,192,135979,1,2,0:0:0:0:
256,192,136048,1,2,0:0:0:0:
256,192,136117,1,2,0:0:0:0:
256,192,136324,1,0,0:0:0:0:
256,192,136375,1,0,0:0:0:0:
256,192,136427,1,0,0:0:0:0:
256,192,136531,1,2,0:0:0:0:
256,192,136634,1,0,0:0:0:0:
256,192,136841,1,2,0:0:0:0:
256,192,137048,1,0,0:0:0:0:
256,192,137151,1,2,0:0:0:0:
256,192,137203,1,2,0:0:0:0:
256,192,137255,1,2,0:0:0:0:
256,192,137358,1,0,0:0:0:0:
256,192,137462,1,2,0:0:0:0:
256,192,137668,1,0,0:0:0:0:
256,192,137772,1,2,0:0:0:0:
256,192,137875,1,2,0:0:0:0:
256,192,137979,1,0,0:0:0:0:
256,192,138031,1,0,0:0:0:0:
256,192,138082,1,2,0:0:0:0:
256,192,138186,1,0,0:0:0:0:
256,192,138289,1,2,0:0:0:0:
256,192,138496,1,2,0:0:0:0:
256,192,138600,1,0,0:0:0:0:
256,192,138703,1,0,0:0:0:0:
256,192,138806,1,2,0:0:0:0:
256,192,138858,1,2,0:0:0:0:
256,192,138910,1,0,0:0:0:0:
256,192,139013,1,0,0:0:0:0:
256,192,139117,1,2,0:0:0:0:
256,192,139324,1,2,0:0:0:0:
256,192,139427,1,0,0:0:0:0:
256,192,139634,1,2,0:0:0:0:
256,192,139737,1,0,0:0:0:0:
256,192,139841,1,0,0:0:0:0:
256,192,139944,1,0,0:0:0:0:
256,192,140048,1,2,0:0:0:0:
256,192,140151,1,2,0:0:0:0:
256,192,140255,1,0,0:0:0:0:
256,192,140358,1,0,0:0:0:0:
256,192,140462,1,2,0:0:0:0:
256,192,140565,1,0,0:0:0:0:
256,192,140668,1,0,0:0:0:0:
256,192,140772,1,0,0:0:0:0:
256,192,140875,1,2,0:0:0:0:
256,192,140927,1,2,0:0:0:0:
256,192,140979,1,0,0:0:0:0:
256,192,141031,1,0,0:0:0:0:
256,192,141082,1,2,0:0:0:0:
256,192,141134,1,2,0:0:0:0:
256,192,141186,1,2,0:0:0:0:
256,192,141289,1,6,0:0:0:0:
