osu file format v14

[General]
AudioFilename: audio.mp3
AudioLeadIn: 0
PreviewTime: 89555
Countdown: 0
SampleSet: Soft
StackLeniency: 0.3
Mode: 0
LetterboxInBreaks: 0
WidescreenStoryboard: 0

[Editor]
Bookmarks: 27374,44828,53555,71010,89555,108101,116828,125555
DistanceSpacing: 1.5
BeatDivisor: 4
GridSize: 4
TimelineZoom: 1.7

[Metadata]
Title:Panopticon
TitleUnicode:Panopticon
Artist:cybermiso
ArtistUnicode:cybermiso
Creator:Telzzxs
Version:Basic
Source:maimai MURASAKI
Tags:YizWind kanor ZZHBOY
BeatmapID:1877315
BeatmapSetID:898680

[Difficulty]
HPDrainRate:3
CircleSize:3
OverallDifficulty:3
ApproachRate:4.5
SliderMultiplier:1.2
SliderTickRate:1

[Events]
//Background and Video events
0,0,"bg.png",0,0
Video,0,"bgaudio.Mp4"
//Break Periods
2,70937,78477
//Storyboard Layer 0 (Background)
//Storyboard Layer 1 (Fail)
//Storyboard Layer 2 (Pass)
//Storyboard Layer 3 (Foreground)
//Storyboard Sound Samples

[TimingPoints]
3374,545.454545454546,4,2,1,60,1,0
3374,-100,4,2,1,30,0,0
25192,-100,4,2,1,5,0,0
26828,-100,4,2,1,40,0,0
35828,-100,4,2,1,25,0,0
79737,-100,4,2,1,50,0,0
89555,-100,4,2,1,60,0,1
106737,-100,4,2,1,30,0,1
108101,-100,4,2,1,60,0,0
125555,-100,4,2,1,60,0,0

[Colours]
Combo1 : 0,0,255
Combo2 : 255,255,0
Combo3 : 128,0,128
Combo4 : 0,234,147

[HitObjects]
113,77,3374,6,2,L|183:83,1,60
161,171,3919,2,0,L|238:176,1,60
288,115,4464,1,2,0:0:0:0:
404,183,4874,1,0,0:0:0:0:
336,299,5283,1,8,0:0:0:0:
248,319,5555,6,0,P|219:285|186:280,1,60
117,299,6101,2,0,P|97:269|110:230,1,60
66,162,6646,5,2,0:0:0:0:
190,106,7055,1,0,0:0:0:0:
323,124,7464,1,2,0:0:0:0:
408,95,7737,6,2,L|440:158,1,60
369,211,8283,2,0,L|398:271,1,60
313,303,8828,2,8,L|243:333,1,60
211,249,9374,2,0,L|145:277,1,60
105,197,9919,6,2,L|108:133,1,60
191,104,10464,2,0,L|188:170,1,60
274,135,11010,1,8,0:0:0:0:
404,98,11419,1,8,0:0:0:0:
329,310,12101,6,0,L|255:295,1,60
180,309,12646,2,0,L|186:271,1,30
228,200,13055,1,0,0:0:0:0:
137,197,13328,2,0,P|108:195|80:176,1,60
152,62,14010,1,8,0:0:0:0:
240,42,14283,6,2,L|320:51,1,60
388,64,14828,2,0,L|383:139,1,60
406,211,15374,1,8,0:0:0:0:
263,320,15919,1,8,0:0:0:0:
87,282,16464,6,0,P|85:218|116:163,1,120
245,50,17555,2,0,P|294:67|384:47,1,120
441,220,18646,6,2,L|411:146,1,60
328,175,19192,2,0,L|353:232,1,60
319,313,19737,2,2,P|263:300|207:316,1,90
114,112,20828,6,2,L|134:216,1,90
356,199,21919,2,2,L|335:101,1,90
351,335,23010,6,2,P|320:327|287:325,1,60
208,359,23555,1,0,0:0:0:0:
218,269,23828,1,0,0:0:0:0:
296,223,24101,2,2,P|273:189|240:182,1,60
166,192,24646,1,0,0:0:0:0:
88,145,24919,1,0,0:0:0:0:
104,56,25192,2,0,P|146:75|227:45,1,120
303,42,26010,2,0,P|299:107|338:160,1,120
381,79,26828,1,0,0:0:0:0:
447,246,27374,6,2,P|442:293|380:335,1,120
209,312,28464,2,0,P|184:263|103:248,1,120
79,68,29555,2,2,P|122:95|192:78,1,120,0|0,0:0|0:0,0:0:0:0:
365,60,30646,2,0,P|394:102|396:192,1,120
338,337,31737,6,2,L|349:265,1,60
271,227,32283,1,8,0:0:0:0:
91,220,32828,2,0,L|158:200,1,60
144,112,33374,1,2,0:0:0:0:
313,52,33919,6,0,L|311:121,1,60
401,114,34464,2,0,L|399:183,1,60
415,262,35010,2,0,B|376:257|376:257|341:269,1,60
292,326,35555,1,0,0:0:0:0:
206,296,35828,1,4,0:0:0:0:
123,332,36101,6,2,P|107:261|124:202,1,120
215,65,37192,2,2,P|257:111|327:112,1,120
296,28,38010,1,0,0:0:0:0:
384,51,38283,2,2,P|415:107|402:170,1,120
332,324,39374,2,2,P|314:264|246:226,1,120
242,317,40192,1,8,0:0:0:0:
149,338,40464,6,0,L|167:203,2,120
66,302,41828,1,0,0:0:0:0:
80,213,42101,2,2,L|94:135,1,60
153,89,42646,6,2,P|198:114|225:107,1,60
289,82,43192,1,8,0:0:0:0:
346,151,43464,1,0,0:0:0:0:
410,88,43737,2,2,P|436:140|415:211,1,120
386,280,44555,1,0,0:0:0:0:
300,309,44828,6,0,P|209:329|149:259,1,180
239,239,45919,1,0,0:0:0:0:
239,239,46464,1,4,0:0:0:0:
146,84,47010,6,2,P|160:128|230:134,1,120
390,61,48101,2,0,B|359:113|412:156|377:196,1,120
304,338,49192,1,2,0:0:0:0:
214,339,49464,2,8,L|226:257,1,60
141,239,50010,1,0,0:0:0:0:
88,166,50283,6,2,P|143:146|210:190,1,120
339,60,51374,2,2,P|304:115|317:175,1,120
406,319,52464,2,0,B|390:310|390:310|382:291|382:291|369:255|297:270,1,120
133,298,53555,6,0,B|149:192|149:192|218:196|264:184,1,210
443,66,55192,2,2,P|465:117|447:203,1,120
212,68,56555,1,0,0:0:0:0:
300,53,56828,2,8,P|270:132|225:157,1,120
92,249,57919,6,8,P|137:286|200:274,1,120
321,229,58874,2,2,L|349:312,1,60
468,328,59555,1,8,0:0:0:0:
452,148,60101,2,2,P|383:163|333:113,1,120
184,59,61192,2,2,P|156:140|177:191,1,120
104,340,62283,5,8,0:0:0:0:
368,287,63101,1,0,0:0:0:0:
143,136,63919,1,0,0:0:0:0:
318,96,64464,6,2,P|286:155|301:226,1,120
374,170,65283,1,0,0:0:0:0:
456,205,65555,2,0,L|415:334,1,120
330,334,66374,1,0,0:0:0:0:
242,315,66646,6,0,B|271:236|271:236|136:298,1,210
117,66,68283,1,0,0:0:0:0:
296,56,68828,6,2,P|380:57|409:82,1,120
412,212,69783,2,2,P|346:198|288:235,1,120
371,335,70737,1,4,0:0:0:0:
336,306,79737,6,2,P|247:325|151:310,1,180
169,223,80828,2,2,P|233:212|300:226,1,120
373,245,81646,5,8,0:0:0:0:
423,170,81919,2,2,P|344:137|280:58,1,180
193,66,83010,2,2,P|149:127|84:145,1,120
151,223,83828,1,8,0:0:0:0:
193,302,84101,6,2,P|262:302|365:242,1,180
285,196,85192,2,2,P|288:127|388:42,1,180
256,192,86283,12,4,88464,0:0:0:0:
375,71,89555,6,2,P|393:112|358:190,1,120
369,315,90510,2,8,L|330:251,1,60
250,242,91055,1,0,0:0:0:0:
146,329,91464,1,8,0:0:0:0:
57,348,91737,6,2,P|43:289|64:217,1,120
113,61,92828,2,8,P|166:71|205:114,1,90
326,77,93646,1,8,0:0:0:0:
414,96,93919,6,0,B|423:135|423:135|386:168|386:168|403:214|403:214|373:248|373:248,1,180
350,331,95010,2,0,B|317:302|317:302|284:323|284:323|230:302|230:302|181:331,1,180
112,291,96101,2,0,L|62:236,1,60
131,179,96646,2,0,L|179:231,1,60
234,158,97192,2,0,L|147:55,1,120
244,44,98010,1,8,0:0:0:0:
332,59,98283,6,2,P|395:57|452:101,1,120
341,176,99237,2,8,L|416:204,1,60
467,253,99783,1,8,0:0:0:0:
339,294,100192,1,8,0:0:0:0:
262,340,100464,2,2,P|232:295|164:285,1,120
93,331,101283,1,0,0:0:0:0:
46,254,101555,6,2,P|78:217|127:224,1,90
114,82,102374,1,0,0:0:0:0:
193,40,102646,6,0,B|230:74|230:74|228:103|240:120|240:120|271:147|286:190,1,180
235,263,103737,2,0,B|254:291|282:290|282:290|304:275|330:288|330:288|364:300|384:281|384:281|416:280|422:290,1,180
449,206,104828,1,0,0:0:0:0:
359,198,105101,2,2,L|384:128,1,60
317,76,105646,1,0,0:0:0:0:
227,68,105919,2,2,L|185:171,1,90
121,265,106737,6,4,P|155:289|184:280,1,60
457,68,108101,6,2,L|432:168,1,90
424,244,108783,2,2,P|395:290|340:302,1,90
184,319,109737,2,8,L|205:253,1,60
140,196,110283,6,2,P|194:169|240:176,1,90
297,121,110964,2,2,P|313:169|292:227,1,90
446,319,111919,2,8,L|433:248,1,60
429,170,112464,6,2,P|392:100|367:84,1,90
299,67,113146,2,2,P|259:107|217:104,1,90
82,214,114101,2,8,L|60:283,1,60
148,300,114646,6,2,P|194:279|243:290,1,90
303,338,115328,2,2,P|333:307|385:308,1,90
397,125,116283,2,8,L|405:194,1,60
314,191,116828,6,2,B|309:144|309:144|246:162,1,90
180,133,117510,2,2,P|155:185|169:230,1,90
304,322,118464,2,8,L|370:342,1,60
443,300,119010,6,2,P|437:249|455:195,1,90
400,134,119692,2,2,P|365:168|298:173,1,90
146,165,120646,2,0,L|218:200,1,60
144,265,121192,6,2,L|241:312,1,90
314,308,121874,2,2,L|355:226,1,90
412,159,122555,2,2,P|366:128|335:61,1,120
246,76,123374,2,2,P|201:156|95:178,1,180
256,192,124464,12,4,125555,0:0:0:0:
171,110,126646,6,0,L|159:185,1,60
229,229,127192,1,0,0:0:0:0:
294,110,127601,2,0,P|367:173|351:293,1,210
256,192,129374,12,0,132101,0:0:0:0:
