osu file format v14

[General]
AudioFilename: audio.mp3
AudioLeadIn: 0
PreviewTime: 21633
Countdown: 0
SampleSet: Soft
StackLeniency: 0.7
Mode: 0
LetterboxInBreaks: 0
WidescreenStoryboard: 1

[Editor]
DistanceSpacing: 1
BeatDivisor: 1
GridSize: 4
TimelineZoom: 2.7

[Metadata]
Title:main heroine
TitleUnicode:main heroine
Artist:cute girls doing cute things
ArtistUnicode:cute girls doing cute things
Creator:Antuoniz
Version:Normal
Source:osu!
Tags:Antuoniz
BeatmapID:1863183
BeatmapSetID:875978

[Difficulty]
HPDrainRate:4
CircleSize:3
OverallDifficulty:4
ApproachRate:5
SliderMultiplier:1
SliderTickRate:1

[Events]
//Background and Video events
0,0,"66764420_p0_master1200.jpg",0,0
//Break Periods
2,101833,109544
//Storyboard Layer 0 (Background)
//Storyboard Layer 1 (Fail)
//Storyboard Layer 2 (Pass)
//Storyboard Layer 3 (Foreground)
//Storyboard Layer 4 (Overlay)
//Storyboard Sound Samples

[TimingPoints]
12403,384.615384615385,4,2,2,50,1,0
23556,-100,4,2,2,75,0,0
24710,-100,4,2,2,75,0,0
35864,-100,4,2,2,50,0,0
36633,-100,4,2,2,50,0,0
37210,-100,4,2,2,75,0,0
48941,-100,4,2,2,75,0,0
49326,-100,4,2,2,75,0,1
49518,-100,4,2,2,85,0,1
61441,-100,4,2,2,50,0,0
62210,-100,4,2,2,50,0,0
73172,-100,4,2,2,30,0,0
86249,-100,4,2,2,30,0,0
110864,-100,4,2,2,50,0,0
120095,-100,4,2,2,85,0,1
122979,-100,4,2,2,75,0,0
147787,-100,4,2,2,85,0,1
151056,-100,4,2,2,85,0,1
159903,-100,4,2,2,50,0,0
163172,-100,4,2,2,50,0,0
173749,-100,4,2,2,50,0,0
181633,-100,4,2,2,40,0,0

[Colours]
Combo1 : 0,128,255
Combo2 : 255,255,0
Combo3 : 0,255,64
Combo4 : 0,255,255

[HitObjects]
51,107,12403,5,2,0:0:0:0:
65,205,12787,1,8,0:0:0:0:
90,301,13172,1,8,0:0:0:0:
172,357,13556,1,8,0:0:0:0:
269,381,13941,6,0,P|307:349|327:304,1,100,2|8,0:0|0:0,0:0:0:0:
329,204,14710,2,0,P|381:174|437:172,1,100,8|8,0:0|0:0,0:0:0:0:
505,221,15479,5,2,0:0:0:0:
450,304,15864,1,8,0:0:0:0:
361,350,16249,1,8,0:0:0:0:
263,373,16633,1,8,0:0:0:0:
163,362,17018,6,0,P|122:313|120:247,1,100,2|8,0:0|0:0,0:0:0:0:
154,186,17787,2,0,P|194:235|197:301,1,100,8|8,0:0|0:0,0:0:0:0:
163,362,18556,5,2,0:0:0:0:
106,279,18941,1,8,0:0:0:0:
68,186,19326,1,8,0:0:0:0:
58,86,19710,1,8,0:0:0:0:
138,145,20095,6,0,P|183:206|226:225,1,100,2|8,0:0|0:0,0:0:0:0:
302,204,20864,2,0,P|270:153|219:132,1,100,8|8,0:0|0:0,0:0:0:0:
138,145,21633,6,0,P|93:187|87:249,1,100,2|8,0:0|0:0,0:0:0:0:
116,317,22403,2,0,P|162:273|168:211,1,100,8|8,0:0|0:0,0:0:0:0:
138,145,23172,5,2,0:0:0:0:
63,78,23556,2,0,P|109:31|175:25,1,100,8|8,0:0|0:0,0:0:0:0:
238,45,24326,1,8,0:0:0:0:
324,97,24710,6,0,P|355:135|361:184,1,100,2|8,0:0|0:0,0:0:0:0:
334,280,25479,1,8,0:0:0:0:
431,256,25864,1,8,0:0:0:0:
361,184,26249,6,0,P|317:132|264:119,1,100,2|8,0:0|0:0,0:0:0:0:
188,121,27018,2,0,P|127:152|102:200,1,100,8|8,0:0|0:0,0:0:0:0:
107,277,27787,6,0,P|159:291|221:276,1,100,2|8,0:0|0:0,0:0:0:0:
285,226,28556,2,0,P|335:252|362:289,1,100,8|8,0:0|0:0,0:0:0:0:
267,322,29326,5,2,0:0:0:0:
356,366,29710,1,0,0:0:0:0:
450,332,30095,1,0,0:0:0:0:
486,238,30479,1,0,0:0:0:0:
486,137,30864,6,0,L|386:77,1,100,2|8,0:0|0:0,0:0:0:0:
315,31,31633,1,8,0:0:0:0:
215,43,32018,1,8,0:0:0:0:
133,101,32403,6,0,P|109:156|126:221,1,100,2|8,0:0|0:0,0:0:0:0:
172,275,33172,1,8,0:0:0:0:
192,177,33556,1,8,0:0:0:0:
133,101,33941,5,2,0:0:0:0:
217,46,34326,1,8,0:0:0:0:
315,60,34710,1,8,0:0:0:0:
391,125,35095,1,8,0:0:0:0:
451,204,35479,6,0,P|486:254|484:312,1,100,2|8,0:0|0:0,0:0:0:0:
436,377,36249,2,0,P|404:320|408:263,1,100,8|8,0:0|0:0,0:0:0:0:
451,204,37018,5,2,0:0:0:0:
499,116,37403,1,8,0:0:0:0:
487,16,37787,1,8,0:0:0:0:
418,89,38172,1,8,0:0:0:0:
346,158,38556,6,0,P|292:193|238:193,1,100,2|8,0:0|0:0,0:0:0:0:
168,149,39326,2,0,P|222:114|276:114,1,100,8|8,0:0|0:0,0:0:0:0:
346,158,40095,6,0,P|302:189|246:195,1,100,2|8,0:0|0:0,0:0:0:0:
168,149,40864,2,0,P|157:206|172:252,1,100,8|8,0:0|0:0,0:0:0:0:
239,315,41633,5,2,0:0:0:0:
330,274,42018,1,8,0:0:0:0:
426,300,42403,1,8,0:0:0:0:
504,361,42787,1,8,0:0:0:0:
503,260,43172,6,0,L|433:169,1,100,2|8,0:0|0:0,0:0:0:0:
374,106,43941,1,8,0:0:0:0:
297,41,44326,1,8,0:0:0:0:
230,115,44710,6,0,P|208:171|229:233,1,100,2|8,0:0|0:0,0:0:0:0:
306,169,45479,2,0,P|332:122|381:105,1,100,8|8,0:0|0:0,0:0:0:0:
470,127,46249,5,2,0:0:0:0:
487,225,46633,1,8,0:0:0:0:
460,321,47018,1,8,0:0:0:0:
380,381,47403,1,8,0:0:0:0:
280,382,47787,6,0,P|217:358|186:311,1,100,2|8,0:0|0:0,0:0:0:0:
161,240,48556,1,8,0:0:0:0:
170,140,48941,1,8,0:0:0:0:
175,40,49326,6,0,P|123:57|81:106,1,100,2|8,0:0|0:0,0:0:0:0:
80,187,50095,1,8,0:0:0:0:
170,140,50479,6,0,P|231:125|266:86,1,100,8|2,0:0|0:0,0:0:0:0:
262,0,51249,1,8,0:0:0:0:
332,70,51633,1,8,0:0:0:0:
362,165,52018,1,8,0:0:0:0:
433,234,52403,5,2,0:0:0:0:
456,136,52787,1,8,0:0:0:0:
362,165,53172,1,8,0:0:0:0:
265,190,53556,1,8,0:0:0:0:
168,218,53941,6,0,P|119:207|84:172,1,100,2|8,0:0|0:0,0:0:0:0:
68,73,54710,2,0,P|128:93|167:141,1,100,8|8,0:0|0:0,0:0:0:0:
168,218,55479,5,2,0:0:0:0:
88,278,55864,1,8,0:0:0:0:
54,372,56249,1,8,0:0:0:0:
147,337,56633,1,8,0:0:0:0:
229,280,57018,6,0,P|294:269|359:292,1,100,2|8,0:0|0:0,0:0:0:0:
398,345,57787,2,0,P|427:282|414:233,1,100,8|8,0:0|0:0,0:0:0:0:
405,155,58556,5,2,0:0:0:0:
335,83,58941,2,0,P|285:46|228:40,1,100,8|8,0:0|0:0,0:0:0:0:
152,65,59710,1,8,0:0:0:0:
59,27,60095,5,2,0:0:0:0:
68,126,60479,1,8,0:0:0:0:
89,223,60864,1,8,0:0:0:0:
140,308,61249,1,8,0:0:0:0:
213,240,61633,5,2,0:0:0:0:
281,161,62018,1,8,0:0:0:0:
326,250,62403,2,0,P|367:195|364:125,1,100,8|8,0:0|0:0,0:0:0:0:
333,72,63172,5,2,0:0:0:0:
281,161,63556,2,0,P|241:199|228:263,1,100,8|0,0:0|0:0,0:0:0:0:
89,180,64326,2,0,L|62:233,1,50,8|0,0:0|0:0,0:0:0:0:
54,268,64710,6,0,L|94:325,1,50,2|0,0:0|0:0,0:0:0:0:
118,343,65095,2,0,L|169:350,1,50,8|0,0:0|0:0,0:0:0:0:
213,350,65479,2,0,L|263:342,1,50
304,340,65864,2,0,L|376:339,1,50,8|0,0:0|0:0,0:0:0:0:
395,331,66249,6,0,P|428:205|400:143,1,200,2|0,0:0|0:0,0:0:0:0:
309,130,67403,1,8,0:0:0:0:
198,143,67787,6,0,P|168:184|233:325,1,200,2|0,0:0|0:0,0:0:0:0:
296,312,68941,2,0,L|297:239,1,50,8|0,0:0|0:0,0:0:0:0:
308,211,69326,6,0,L|384:199,1,50,2|0,0:0|0:0,0:0:0:0:
396,183,69710,2,0,L|416:114,1,50,8|0,0:0|0:0,0:0:0:0:
411,86,70095,2,0,L|353:47,1,50
324,45,70479,2,0,L|254:59,1,50,8|0,0:0|0:0,0:0:0:0:
187,83,70864,5,2,0:0:0:0:
94,135,71249,2,0,P|46:172|31:229,1,100,8|0,0:0|0:0,0:0:0:0:
133,226,72018,2,0,P|175:248|252:230,1,100,8|2,0:0|0:0,0:0:0:0:
298,172,72787,1,0,0:0:0:0:
185,113,73941,6,0,P|337:71|419:200,1,300,2|8,0:0|0:0,0:0:0:0:
267,226,75479,5,2,0:0:0:0:
274,316,75864,1,8,0:0:0:0:
369,338,76249,1,0,0:0:0:0:
362,246,76633,1,8,0:0:0:0:
255,203,77018,6,0,B|249:119|140:93|140:93|64:205|172:305,1,400,2|2,0:0|0:0,0:0:0:0:
247,344,78941,1,8,0:0:0:0:
327,370,79326,1,0,0:0:0:0:
356,286,79710,1,8,0:0:0:0:
269,251,80095,6,0,B|366:177|366:177|324:78|230:138|230:138|165:234,1,400,2|2,0:0|0:0,0:0:0:0:
240,278,83172,6,0,P|321:311|227:215,1,400,2|2,0:0|0:0,0:0:0:0:
315,211,85479,1,0,0:0:0:0:
182,113,86249,6,0,B|118:109|118:109|139:290|306:264|306:264|319:178,1,400,2|2,0:0|0:0,0:0:0:0:
359,157,89326,6,0,B|301:193|301:193|310:252|310:252|212:246|212:246|205:124|325:97,1,400,2|2,0:0|0:0,0:0:0:0:
367,129,92403,6,0,B|272:197|236:116|236:116|118:133|118:133|151:223|210:228,1,400,2|2,0:0|0:0,0:0:0:0:
293,240,95479,6,0,B|238:175|238:175|111:209|178:99|178:99|225:80|280:106|280:106|339:170,1,400,2|2,0:0|0:0,0:0:0:0:
219,281,97787,1,4,0:0:0:0:
256,192,98556,12,0,101633,0:0:0:0:
116,157,110864,6,0,L|173:147,1,50,2|0,0:0|0:0,0:0:0:0:
207,155,111249,2,0,L|247:221,1,50,8|0,0:0|0:0,0:0:0:0:
258,236,111633,2,0,L|338:207,1,50
341,200,112018,2,0,L|358:134,1,50,8|0,0:0|0:0,0:0:0:0:
372,110,112403,6,0,P|424:114|448:166,1,100,2|8,0:0|0:0,0:0:0:0:
430,253,113172,2,0,P|392:298|337:292,1,100,0|8,0:0|0:0,0:0:0:0:
284,235,113941,5,2,0:0:0:0:
248,131,114326,2,0,L|212:90,1,50,8|0,0:0|0:0,0:0:0:0:
172,75,114710,2,0,L|82:77,1,50
75,84,115095,2,0,L|63:142,1,50,8|0,0:0|0:0,0:0:0:0:
57,181,115479,1,2,0:0:0:0:
55,294,115863,6,0,L|94:327,1,50,8|0,0:0|0:0,0:0:0:0:
131,333,116249,2,0,L|206:319,1,50
220,319,116633,2,0,L|273:321,1,50,8|0,0:0|0:0,0:0:0:0:
308,329,117018,6,0,L|360:322,1,50,2|0,0:0|0:0,0:0:0:0:
403,316,117403,2,0,L|399:256,1,50,8|0,0:0|0:0,0:0:0:0:
394,219,117787,2,0,L|387:140,1,50
365,127,118172,2,0,L|294:99,1,50,8|0,0:0|0:0,0:0:0:0:
278,98,118556,6,0,L|201:90,1,50,2|0,0:0|0:0,0:0:0:0:
182,101,118941,2,0,L|127:150,1,50,8|0,0:0|0:0,0:0:0:0:
114,172,119326,2,0,L|79:244,1,50
77,262,119710,1,8,0:0:0:0:
111,348,120095,6,0,P|161:305|170:243,1,100,2|8,0:0|0:0,0:0:0:0:
189,189,120864,1,0,0:0:0:0:
139,117,121249,2,0,L|170:60,1,50,8|0,0:0|0:0,0:0:0:0:
197,48,121633,6,0,P|268:42|330:70,1,100,2|8,0:0|0:0,0:0:0:0:
390,111,122403,2,0,P|423:158|410:230,1,100,0|8,0:0|0:0,0:0:0:0:
351,293,123172,6,0,L|264:270,1,50,2|0,0:0|0:0,0:0:0:0:
265,251,123556,2,0,L|255:183,1,50,8|0,0:0|0:0,0:0:0:0:
234,158,123941,2,0,L|154:144,1,50
168,227,124326,1,8,0:0:0:0:
93,192,124710,6,0,L|94:106,1,50,2|0,0:0|0:0,0:0:0:0:
111,95,125095,2,0,L|162:74,1,50,8|0,0:0|0:0,0:0:0:0:
206,68,125479,2,0,L|285:74,1,50
302,78,125864,1,8,0:0:0:0:
396,77,126249,5,2,0:0:0:0:
462,151,126633,1,8,0:0:0:0:
474,250,127018,1,0,0:0:0:0:
405,322,127403,1,8,0:0:0:0:
244,332,127787,6,0,L|174:341,1,50,2|0,0:0|0:0,0:0:0:0:
149,336,128172,2,0,L|88:330,1,50,8|0,0:0|0:0,0:0:0:0:
58,306,128556,2,0,L|63:234,1,50
71,207,128941,2,0,L|95:160,1,50,8|0,0:0|0:0,0:0:0:0:
111,118,129326,5,2,0:0:0:0:
184,44,129710,1,8,0:0:0:0:
266,114,130095,1,0,0:0:0:0:
350,43,130479,1,8,0:0:0:0:
432,98,130864,6,0,P|420:145|382:189,1,100,2|8,0:0|0:0,0:0:0:0:
400,291,131633,2,0,P|446:270|470:224,1,100,0|8,0:0|0:0,0:0:0:0:
473,132,132403,6,0,P|430:78|376:77,1,100,2|8,0:0|0:0,0:0:0:0:
316,21,133172,1,0,0:0:0:0:
244,91,133556,1,8,0:0:0:0:
150,56,133941,6,0,L|81:57,1,50,2|0,0:0|0:0,0:0:0:0:
56,82,134326,2,0,L|53:137,1,50,8|0,0:0|0:0,0:0:0:0:
71,178,134710,2,0,L|126:215,1,50
147,241,135095,2,0,L|174:282,1,50,8|0,0:0|0:0,0:0:0:0:
216,309,135479,6,0,P|290:251|335:158,2,200,2|0|2,0:0|0:0|0:0,0:0:0:0:
124,268,137403,6,0,L|127:210,1,50,8|0,0:0|0:0,0:0:0:0:
118,168,137787,2,0,L|68:143,1,50
44,104,138172,2,0,L|79:68,1,50,8|0,0:0|0:0,0:0:0:0:
127,56,138556,5,2,0:0:0:0:
224,31,138941,1,8,0:0:0:0:
309,82,139326,2,0,P|345:146|348:201,1,100,0|8,0:0|0:0,0:0:0:0:
378,266,140095,5,2,0:0:0:0:
290,314,140479,2,0,L|225:315,1,50,8|0,0:0|0:0,0:0:0:0:
194,296,140864,2,0,L|151:228,1,50
136,213,141249,2,0,L|86:167,1,50,8|0,0:0|0:0,0:0:0:0:
71,137,141633,6,0,L|128:97,1,50,2|0,0:0|0:0,0:0:0:0:
162,102,142018,2,0,L|219:140,1,50,8|0,0:0|0:0,0:0:0:0:
241,162,142403,2,0,L|261:218,1,50
288,248,142787,2,0,L|348:261,1,50,8|0,0:0|0:0,0:0:0:0:
387,253,143172,6,0,L|431:199,1,50,2|0,0:0|0:0,0:0:0:0:
440,169,143556,2,0,L|443:91,1,50,8|0,0:0|0:0,0:0:0:0:
413,77,143941,2,0,L|327:66,1,50
314,82,144326,2,0,L|254:120,1,50,8|0,0:0|0:0,0:0:0:0:
232,139,144710,6,0,L|232:212,1,50,2|0,0:0|0:0,0:0:0:0:
238,238,145095,1,8,0:0:0:0:
332,205,145479,1,0,0:0:0:0:
317,304,145864,1,8,0:0:0:0:
401,358,146249,5,2,0:0:0:0:
483,301,146633,1,8,0:0:0:0:
461,203,147018,2,0,P|448:151|405:117,1,100,0|8,0:0|0:0,0:0:0:0:
316,101,147787,6,0,P|260:125|194:114,1,100,2|8,0:0|0:0,0:0:0:0:
139,66,148556,2,0,P|120:112|131:173,1,100,0|8,0:0|0:0,0:0:0:0:
173,249,149326,6,0,P|200:273|270:285,1,100,2|8,0:0|0:0,0:0:0:0:
351,243,150095,2,0,P|394:185|396:134,1,100,0|8,0:0|0:0,0:0:0:0:
329,86,150864,6,0,P|293:136|229:158,1,100,2|8,0:0|0:0,0:0:0:0:
186,221,151633,2,0,P|137:255|85:259,1,100,0|8,0:0|0:0,0:0:0:0:
64,165,152403,6,0,P|118:167|155:137,1,100,2|8,0:0|0:0,0:0:0:0:
186,45,153172,1,0,0:0:0:0:
250,121,153556,1,8,0:0:0:0:
300,34,153941,5,2,0:0:0:0:
387,81,154326,2,0,P|420:137|408:184,1,100,8|0,0:0|0:0,0:0:0:0:
434,267,155095,1,8,0:0:0:0:
349,319,155479,6,0,P|292:297|224:301,1,100,2|8,0:0|0:0,0:0:0:0:
173,355,156249,2,0,L|69:289,1,100,0|8,0:0|0:0,0:0:0:0:
49,209,157018,6,0,P|75:160|115:127,1,100,2|8,0:0|0:0,0:0:0:0:
206,112,157787,2,0,P|267:80|265:23,1,100,0|8,0:0|0:0,0:0:0:0:
181,14,158556,6,0,P|135:9|88:31,1,100,2|8,0:0|0:0,0:0:0:0:
22,108,159326,2,0,L|56:211,1,100,0|8,0:0|0:0,0:0:0:0:
122,274,160095,2,0,L|210:339,1,100,2|8,0:0|0:0,0:0:0:0:
302,340,160864,2,0,L|402:277,1,100,0|8,0:0|0:0,0:0:0:0:
436,200,161633,6,0,P|388:172|313:183,1,100,2|8,0:0|0:0,0:0:0:0:
247,195,162403,2,0,P|193:192|145:155,1,100,0|8,0:0|0:0,0:0:0:0:
109,78,163172,6,0,P|67:109|55:163,1,100,2|8,0:0|0:0,0:0:0:0:
15,245,163941,1,0,0:0:0:0:
69,328,164326,1,8,0:0:0:0:
146,265,164710,5,2,0:0:0:0:
227,322,165095,2,0,P|269:279|328:266,1,100,8|0,0:0|0:0,0:0:0:0:
339,360,165864,2,0,P|410:360|442:343,1,100,8|2,0:0|0:0,0:0:0:0:
465,252,166633,6,0,L|472:187,1,50,8|0,0:0|0:0,0:0:0:0:
466,152,167018,2,0,L|423:93,1,50
393,85,167403,2,0,L|331:85,1,50,8|0,0:0|0:0,0:0:0:0:
293,86,167787,6,0,P|229:96|167:85,1,100,2|8,0:0|0:0,0:0:0:0:
118,26,168556,2,0,P|75:43|54:95,1,100,0|8,0:0|0:0,0:0:0:0:
133,151,169326,2,0,P|119:202|76:256,1,100,2|8,0:0|0:0,0:0:0:0:
32,321,170095,2,0,L|154:322,1,100,0|8,0:0|0:0,0:0:0:0:
232,319,170864,5,2,0:0:0:0:
299,245,171249,1,8,0:0:0:0:
241,163,171633,1,0,0:0:0:0:
302,83,172018,2,0,L|366:60,1,50,8|0,0:0|0:0,0:0:0:0:
399,63,172403,6,0,L|442:101,1,50,2|0,0:0|0:0,0:0:0:0:
458,141,172787,2,0,L|412:175,1,50,8|0,0:0|0:0,0:0:0:0:
379,203,173172,2,0,L|335:259,1,50
317,281,173556,2,0,L|253:320,1,50,8|0,0:0|0:0,0:0:0:0:
228,326,173941,5,2,0:0:0:0:
191,232,174326,1,8,0:0:0:0:
131,312,174710,1,0,0:0:0:0:
37,275,175095,1,8,0:0:0:0:
98,189,175479,5,2,0:0:0:0:
60,96,175864,1,8,0:0:0:0:
141,153,176249,1,0,0:0:0:0:
169,57,176633,1,8,0:0:0:0:
269,61,177018,6,0,L|305:98,1,50,2|0,0:0|0:0,0:0:0:0:
311,146,177403,2,0,L|274:205,1,50,8|0,0:0|0:0,0:0:0:0:
255,228,177787,2,0,L|207:262,1,50
194,302,178172,2,0,L|244:337,1,50,8|0,0:0|0:0,0:0:0:0:
281,347,178556,6,0,L|342:345,1,50,2|0,0:0|0:0,0:0:0:0:
380,340,178941,2,0,L|426:285,1,50,8|0,0:0|0:0,0:0:0:0:
426,253,179326,2,0,L|409:193,1,50
418,155,179710,2,0,L|439:94,1,50,8|0,0:0|0:0,0:0:0:0:
439,57,180095,6,0,L|387:24,1,50,2|0,0:0|0:0,0:0:0:0:
347,24,180479,2,0,L|290:62,1,50,8|0,0:0|0:0,0:0:0:0:
264,80,180864,1,0,0:0:0:0:
164,70,181249,1,8,0:0:0:0:
73,112,181633,6,0,L|75:168,1,50,2|0,0:0|0:0,0:0:0:0:
84,211,182018,2,0,L|121:250,1,50,8|0,0:0|0:0,0:0:0:0:
149,286,182403,2,0,L|213:315,1,50
244,305,182787,2,0,L|298:247,1,50,8|0,0:0|0:0,0:0:0:0:
301,224,183172,6,0,P|346:173|403:154,1,100,2|8,0:0|0:0,0:0:0:0:
468,126,183941,1,0,0:0:0:0:
468,226,184326,2,0,L|466:284,1,50,8|0,0:0|0:0,0:0:0:0:
462,325,184710,1,2,0:0:0:0:
364,304,185095,6,0,L|290:304,1,50,8|0,0:0|0:0,0:0:0:0:
264,303,185479,1,0,0:0:0:0:
187,118,186249,1,2,0:0:0:0:
