osu file format v14

[General]
AudioFilename: audio.mp3
AudioLeadIn: 0
PreviewTime: 135332
Countdown: 0
SampleSet: Normal
StackLeniency: 0.7
Mode: 1
LetterboxInBreaks: 0
WidescreenStoryboard: 0

[Editor]
Bookmarks: 5591,11108,16711,22228,27746,33263,38780,44297,49815,55332,60763,66366,71884,77401,82918,88435,93866,99470,104987,110504,116022,121539,127056,132573,138091,143608,149125,154556,160160,165677,171194
DistanceSpacing: 0.8
BeatDivisor: 4
GridSize: 32
TimelineZoom: 1

[Metadata]
Title:Let's Go!
TitleUnicode:Let's Go!
Artist:cute girls doing cute things
ArtistUnicode:cute girls doing cute things
Creator:HEAVENLY MOON
Version:Futsuu!
Source:osu!
Tags:yenmaster instrumental lets scene mg mappers' guild mpg featured artist ginjani electronic fa
BeatmapID:2770314
BeatmapSetID:1336669

[Difficulty]
HPDrainRate:8
CircleSize:2
OverallDifficulty:4
ApproachRate:0
SliderMultiplier:1.4
SliderTickRate:1

[Events]
//Background and Video events
0,0,"davidminh0111.jpg",0,-40
//Break Periods
2,11394,20428
//Storyboard Layer 0 (Background)
//Storyboard Layer 1 (Fail)
//Storyboard Layer 2 (Pass)
//Storyboard Layer 3 (Foreground)
//Storyboard Layer 4 (Overlay)
//Storyboard Sound Samples

[TimingPoints]
160,344.827586206897,4,1,0,81,1,0
11366,-100,4,1,0,40,0,0
22072,-100,4,1,0,75,0,0
33109,-100,4,1,0,66,0,0
39039,-100,4,1,0,40,0,0
41539,-100,4,1,0,40,0,0
41883,-100,4,1,0,50,0,0
42228,-100,4,1,0,70,0,0
42401,-100,4,1,0,75,0,0
42573,-100,4,1,0,85,0,0
42918,-100,4,1,0,71,0,0
44297,-100,4,1,0,92,0,1
63608,-100,4,1,0,92,0,0
66353,-100,4,1,0,81,0,0
77264,-100,4,1,0,66,0,0
82918,324.324324324325,4,1,0,66,1,0
82918,-106.321839080521,4,1,0,66,0,0
84298,344.827586206897,4,1,0,66,1,8
88435,324.324324324325,4,1,0,66,1,0
88435,-106.321839080521,4,1,0,66,0,0
89732,324.324324324325,4,1,0,66,1,8
89732,-106.382978723404,4,1,0,66,0,8
89815,344.827586206897,4,1,0,66,1,0
91194,300,4,1,0,66,1,0
91194,-114.942528735632,4,1,0,66,0,0
91494,333.333333333334,4,1,0,66,1,8
91494,-103.448275862782,4,1,0,66,0,8
92574,344.827586206897,4,1,0,66,1,0
96711,329.67032967033,4,1,0,66,1,0
96711,-104.597701149858,4,1,0,66,0,0
98029,329.67032967033,4,1,0,66,1,8
98029,-104.166666666667,4,1,0,66,0,0
98091,344.827586206897,4,1,0,66,1,0
110418,-100,4,1,0,77,0,0
132918,-100,4,1,0,40,0,0
134297,-100,4,1,0,50,0,0
134642,-100,4,1,0,70,0,0
134815,-100,4,1,0,75,0,0
134987,-100,4,1,0,85,0,0
135332,-100,4,1,0,92,0,1
146366,-100,4,1,0,87,0,0
147746,-100,4,1,0,92,0,1
157401,-100,4,1,0,66,0,0
168349,-100,4,1,0,50,0,0

[HitObjects]
256,192,160,5,0,0:0:0:0:
256,192,849,1,0,0:0:0:0:
256,192,1366,1,0,0:0:0:0:
256,192,2228,1,8,0:0:0:0:
256,192,2918,1,0,0:0:0:0:
256,192,3608,1,0,0:0:0:0:
256,192,4125,1,0,0:0:0:0:
256,192,5332,1,8,0:0:0:0:
256,192,5504,1,8,0:0:0:0:
256,192,5677,1,0,0:0:0:0:
256,192,6366,1,0,0:0:0:0:
256,192,6884,1,8,0:0:0:0:
256,192,7746,1,8,0:0:0:0:
256,192,8435,1,8,0:0:0:0:
256,192,9125,1,0,0:0:0:0:
256,192,9642,1,8,0:0:0:0:
256,192,10160,1,0,0:0:0:0:
256,192,10677,1,8,0:0:0:0:
256,192,10849,1,0,0:0:0:0:
256,192,11194,1,0,0:0:0:0:
256,192,22228,5,0,0:0:0:0:
256,192,22918,1,8,0:0:0:0:
256,192,23263,1,0,0:0:0:0:
256,192,23608,1,0,0:0:0:0:
256,192,24297,1,8,0:0:0:0:
256,192,24642,1,8,0:0:0:0:
256,192,24987,1,0,0:0:0:0:
256,192,25677,1,8,0:0:0:0:
256,192,26022,1,0,0:0:0:0:
256,192,26366,1,0,0:0:0:0:
256,192,27056,1,8,0:0:0:0:
256,192,27401,1,8,0:0:0:0:
256,192,27746,1,0,0:0:0:0:
256,192,28435,1,8,0:0:0:0:
256,192,28780,1,0,0:0:0:0:
256,192,29125,1,0,0:0:0:0:
256,192,29815,1,8,0:0:0:0:
256,192,30160,1,8,0:0:0:0:
256,192,30504,1,0,0:0:0:0:
256,192,31194,1,8,0:0:0:0:
256,192,31539,1,0,0:0:0:0:
256,192,31884,1,8,0:0:0:0:
256,192,32573,1,0,0:0:0:0:
256,192,32918,1,8,0:0:0:0:
256,192,33263,1,8,0:0:0:0:
256,192,33953,1,8,0:0:0:0:
256,192,34470,1,0,0:0:0:0:
256,192,34987,1,8,0:0:0:0:
256,192,35332,1,0,0:0:0:0:
256,192,36022,1,0,0:0:0:0:
256,192,36711,1,0,0:0:0:0:
256,192,37228,1,8,0:0:0:0:
256,192,37746,1,8,0:0:0:0:
256,192,38091,1,8,0:0:0:0:
256,192,38435,1,0,0:0:0:0:
256,192,38780,1,8,0:0:0:0:
256,192,39125,12,0,42573,0:0:0:0:
256,192,42918,5,8,0:0:0:0:
256,192,43953,5,8,0:0:0:0:
256,192,44297,1,12,0:0:0:0:
256,192,44987,1,0,0:0:0:0:
256,192,45504,1,8,0:0:0:0:
256,192,45849,1,8,0:0:0:0:
256,192,46022,1,0,0:0:0:0:
256,192,46366,1,8,0:0:0:0:
256,192,46539,1,0,0:0:0:0:
256,192,46711,1,0,0:0:0:0:
256,192,47056,1,8,0:0:0:0:
256,192,47746,1,8,0:0:0:0:
256,192,48091,1,0,0:0:0:0:
256,192,48263,1,8,0:0:0:0:
256,192,48608,1,8,0:0:0:0:
256,192,48780,1,0,0:0:0:0:
256,192,49125,1,8,0:0:0:0:
256,192,49297,1,0,0:0:0:0:
256,192,49470,1,0,0:0:0:0:
256,192,49815,1,8,0:0:0:0:
256,192,50504,1,0,0:0:0:0:
256,192,51022,1,8,0:0:0:0:
256,192,51366,1,8,0:0:0:0:
256,192,51539,1,0,0:0:0:0:
256,192,51884,1,8,0:0:0:0:
256,192,52056,1,0,0:0:0:0:
256,192,52228,1,8,0:0:0:0:
256,192,52573,1,8,0:0:0:0:
256,192,53263,1,8,0:0:0:0:
256,192,53608,1,0,0:0:0:0:
256,192,53780,1,0,0:0:0:0:
256,192,54297,1,8,0:0:0:0:
256,192,54642,1,0,0:0:0:0:
256,192,54987,1,8,0:0:0:0:
256,192,55160,1,0,0:0:0:0:
256,192,55332,1,8,0:0:0:0:
256,192,56022,1,0,0:0:0:0:
256,192,56539,1,8,0:0:0:0:
256,192,56884,1,8,0:0:0:0:
256,192,57056,1,0,0:0:0:0:
256,192,57401,1,8,0:0:0:0:
256,192,57573,1,0,0:0:0:0:
256,192,57746,1,8,0:0:0:0:
256,192,58091,1,0,0:0:0:0:
256,192,58608,1,0,0:0:0:0:
256,192,58780,1,8,0:0:0:0:
256,192,59297,1,8,0:0:0:0:
256,192,59642,1,8,0:0:0:0:
256,192,59815,1,0,0:0:0:0:
256,192,60160,1,8,0:0:0:0:
256,192,60504,1,0,0:0:0:0:
256,192,60677,1,0,0:0:0:0:
256,192,60849,1,8,0:0:0:0:
256,192,61539,1,8,0:0:0:0:
256,192,62056,1,0,0:0:0:0:
256,192,62401,1,8,0:0:0:0:
256,192,62573,1,0,0:0:0:0:
256,192,62918,1,8,0:0:0:0:
256,192,63091,1,0,0:0:0:0:
256,192,63263,1,8,0:0:0:0:
256,192,63608,1,8,0:0:0:0:
256,192,64297,1,8,0:0:0:0:
256,192,64815,1,0,0:0:0:0:
256,192,65332,1,8,0:0:0:0:
256,192,65677,1,0,0:0:0:0:
256,192,66366,1,0,0:0:0:0:
256,192,67056,1,8,0:0:0:0:
256,192,67573,1,0,0:0:0:0:
256,192,68091,1,0,0:0:0:0:
256,192,68435,1,8,0:0:0:0:
256,192,68780,1,8,0:0:0:0:
256,192,69125,1,0,0:0:0:0:
256,192,69297,1,0,0:0:0:0:
256,192,69470,1,0,0:0:0:0:
256,192,69815,1,8,0:0:0:0:
256,192,70332,1,0,0:0:0:0:
256,192,70849,1,8,0:0:0:0:
256,192,71194,1,0,0:0:0:0:
256,192,71539,1,8,0:0:0:0:
256,192,71711,1,0,0:0:0:0:
256,192,71884,1,8,0:0:0:0:
256,192,72573,1,8,0:0:0:0:
256,192,73091,1,8,0:0:0:0:
256,192,73608,1,0,0:0:0:0:
256,192,73953,1,8,0:0:0:0:
256,192,74297,1,8,0:0:0:0:
256,192,74642,1,0,0:0:0:0:
256,192,74815,1,0,0:0:0:0:
256,192,74987,1,0,0:0:0:0:
256,192,75332,1,8,0:0:0:0:
256,192,75677,1,0,0:0:0:0:
256,192,75849,1,8,0:0:0:0:
256,192,76366,1,8,0:0:0:0:
256,192,76884,1,8,0:0:0:0:
256,192,77401,1,8,0:0:0:0:
256,192,77746,1,0,0:0:0:0:
256,192,78091,1,8,0:0:0:0:
256,192,80160,1,8,0:0:0:0:
256,192,80504,1,0,0:0:0:0:
256,192,80849,1,8,0:0:0:0:
256,192,82918,1,0,0:0:0:0:
256,192,83242,1,0,0:0:0:0:
256,192,83566,1,8,0:0:0:0:
256,192,85677,1,0,0:0:0:0:
256,192,86022,1,0,0:0:0:0:
256,192,86366,1,8,0:0:0:0:
256,192,87746,1,8,0:0:0:0:
256,192,88435,1,8,0:0:0:0:
256,192,88759,1,0,0:0:0:0:
256,192,89083,1,8,0:0:0:0:
256,192,91194,1,8,0:0:0:0:
256,192,91494,1,0,0:0:0:0:
256,192,91827,1,8,0:0:0:0:
256,192,93953,1,0,0:0:0:0:
256,192,94298,1,0,0:0:0:0:
256,192,94642,1,8,0:0:0:0:
256,192,96711,1,0,0:0:0:0:
256,192,97040,1,0,0:0:0:0:
256,192,97370,1,8,0:0:0:0:
256,192,98780,1,8,0:0:0:0:
256,192,99470,1,0,0:0:0:0:
256,192,100159,1,0,0:0:0:0:
256,192,100677,1,8,0:0:0:0:
256,192,102228,1,8,0:0:0:0:
256,192,102918,1,8,0:0:0:0:
256,192,103435,1,0,0:0:0:0:
256,192,104642,1,8,0:0:0:0:
256,192,104815,1,8,0:0:0:0:
256,192,104987,1,0,0:0:0:0:
256,192,105677,1,0,0:0:0:0:
256,192,106194,1,8,0:0:0:0:
256,192,107746,1,8,0:0:0:0:
256,192,108435,1,8,0:0:0:0:
256,192,108953,1,8,0:0:0:0:
256,192,109470,1,8,0:0:0:0:
256,192,109987,1,8,0:0:0:0:
256,192,110504,1,0,0:0:0:0:
256,192,111194,1,8,0:0:0:0:
256,192,111884,1,0,0:0:0:0:
256,192,112573,1,8,0:0:0:0:
256,192,112918,1,0,0:0:0:0:
256,192,113091,1,8,0:0:0:0:
256,192,113263,1,0,0:0:0:0:
256,192,113953,1,8,0:0:0:0:
256,192,114642,1,0,0:0:0:0:
256,192,115332,1,8,0:0:0:0:
256,192,116022,1,0,0:0:0:0:
256,192,116711,1,8,0:0:0:0:
256,192,117401,1,0,0:0:0:0:
256,192,118091,1,8,0:0:0:0:
256,192,118263,1,8,0:0:0:0:
256,192,118435,1,8,0:0:0:0:
256,192,118780,1,0,0:0:0:0:
256,192,119470,1,8,0:0:0:0:
256,192,120159,1,0,0:0:0:0:
256,192,120849,1,8,0:0:0:0:
256,192,121194,1,8,0:0:0:0:
256,192,121539,5,0,0:0:0:0:
256,192,122228,1,8,0:0:0:0:
256,192,122573,1,0,0:0:0:0:
256,192,122918,1,0,0:0:0:0:
256,192,123608,1,8,0:0:0:0:
256,192,123953,1,8,0:0:0:0:
256,192,124297,1,0,0:0:0:0:
256,192,124988,1,8,0:0:0:0:
256,192,125332,1,0,0:0:0:0:
256,192,125677,1,0,0:0:0:0:
256,192,126366,1,8,0:0:0:0:
256,192,126711,1,0,0:0:0:0:
256,192,127056,1,8,0:0:0:0:
256,192,127746,1,8,0:0:0:0:
256,192,128091,1,8,0:0:0:0:
256,192,128435,1,0,0:0:0:0:
256,192,129125,1,8,0:0:0:0:
256,192,129470,1,0,0:0:0:0:
256,192,129815,1,8,0:0:0:0:
256,192,130504,1,8,0:0:0:0:
256,192,130849,1,0,0:0:0:0:
256,192,131194,1,0,0:0:0:0:
256,192,131884,1,8,0:0:0:0:
256,192,132228,1,0,0:0:0:0:
256,192,132573,1,8,0:0:0:0:
256,192,133608,12,0,134987,0:0:0:0:
256,192,135332,5,12,0:0:0:0:
256,192,136022,1,8,0:0:0:0:
256,192,136366,1,0,0:0:0:0:
256,192,136711,1,8,0:0:0:0:
256,192,137056,1,8,0:0:0:0:
256,192,137228,1,0,0:0:0:0:
256,192,137401,1,8,0:0:0:0:
256,192,137746,1,0,0:0:0:0:
256,192,138091,1,8,0:0:0:0:
256,192,138780,1,8,0:0:0:0:
256,192,139125,1,0,0:0:0:0:
256,192,139470,1,8,0:0:0:0:
256,192,139815,1,0,0:0:0:0:
256,192,139987,1,0,0:0:0:0:
256,192,140159,1,8,0:0:0:0:
256,192,140504,1,0,0:0:0:0:
256,192,140849,1,8,0:0:0:0:
256,192,141539,1,8,0:0:0:0:
256,192,141884,1,0,0:0:0:0:
256,192,142228,1,8,0:0:0:0:
256,192,142573,1,8,0:0:0:0:
256,192,142746,1,0,0:0:0:0:
256,192,142918,1,8,0:0:0:0:
256,192,143263,1,0,0:0:0:0:
256,192,143608,1,8,0:0:0:0:
256,192,143953,1,8,0:0:0:0:
256,192,144125,1,0,0:0:0:0:
256,192,144470,1,8,0:0:0:0:
256,192,144642,1,0,0:0:0:0:
256,192,144987,1,8,0:0:0:0:
256,192,145504,1,0,0:0:0:0:
256,192,145677,1,8,0:0:0:0:
256,192,146022,1,0,0:0:0:0:
256,192,146366,1,8,0:0:0:0:
256,192,147401,1,0,0:0:0:0:
256,192,147746,1,12,0:0:0:0:
256,192,148091,1,0,0:0:0:0:
256,192,148263,1,0,0:0:0:0:
256,192,148435,1,8,0:0:0:0:
256,192,148780,1,0,0:0:0:0:
256,192,149125,1,8,0:0:0:0:
256,192,149815,1,8,0:0:0:0:
256,192,150159,1,0,0:0:0:0:
256,192,150504,1,8,0:0:0:0:
256,192,150849,1,8,0:0:0:0:
256,192,151022,1,0,0:0:0:0:
256,192,151194,1,8,0:0:0:0:
256,192,151539,1,8,0:0:0:0:
256,192,151884,1,0,0:0:0:0:
256,192,152573,1,8,0:0:0:0:
256,192,152918,1,0,0:0:0:0:
256,192,153263,1,8,0:0:0:0:
256,192,153608,1,8,0:0:0:0:
256,192,153780,1,0,0:0:0:0:
256,192,153953,1,8,0:0:0:0:
256,192,154297,1,0,0:0:0:0:
256,192,154642,1,8,0:0:0:0:
256,192,154987,1,8,0:0:0:0:
256,192,155159,1,0,0:0:0:0:
256,192,155504,1,8,0:0:0:0:
256,192,155677,1,0,0:0:0:0:
256,192,156022,1,8,0:0:0:0:
256,192,156539,1,0,0:0:0:0:
256,192,156711,1,8,0:0:0:0:
256,192,157056,1,8,0:0:0:0:
256,192,157401,5,0,0:0:0:0:
256,192,158091,1,8,0:0:0:0:
256,192,158435,1,0,0:0:0:0:
256,192,159125,1,0,0:0:0:0:
256,192,159470,1,8,0:0:0:0:
256,192,159815,1,0,0:0:0:0:
256,192,160159,1,8,0:0:0:0:
256,192,160849,1,8,0:0:0:0:
256,192,161194,1,0,0:0:0:0:
256,192,161884,1,8,0:0:0:0:
256,192,162228,1,8,0:0:0:0:
256,192,162573,1,0,0:0:0:0:
256,192,162918,1,8,0:0:0:0:
256,192,163608,1,8,0:0:0:0:
256,192,163953,1,0,0:0:0:0:
256,192,164642,1,0,0:0:0:0:
256,192,164987,1,8,0:0:0:0:
256,192,165332,1,0,0:0:0:0:
256,192,165677,1,8,0:0:0:0:
256,192,166366,1,8,0:0:0:0:
256,192,166711,1,0,0:0:0:0:
256,192,167056,1,8,0:0:0:0:
256,192,167401,1,0,0:0:0:0:
256,192,167573,1,8,0:0:0:0:
256,192,168091,1,8,0:0:0:0:
256,192,168435,1,0,0:0:0:0:
