osu file format v14

[General]
AudioFilename: audio.mp3
AudioLeadIn: 0
PreviewTime: 37611
Countdown: 0
SampleSet: Normal
StackLeniency: 0.7
Mode: 1
LetterboxInBreaks: 0
WidescreenStoryboard: 0

[Editor]
DistanceSpacing: 0.8
BeatDivisor: 4
GridSize: 8
TimelineZoom: 1.5

[Metadata]
Title:Ideal
TitleUnicode:Ideal
Artist:cute girls doing cute things
ArtistUnicode:cute girls doing cute things
Creator:Reficul
Version:Oni
Source:osu!
Tags:Midnaait FA Featured Artist Mappers Guild MPG Electronic Instrumental cgdct
BeatmapID:2682746
BeatmapSetID:1292718

[Difficulty]
HPDrainRate:5.5
CircleSize:5
OverallDifficulty:6
ApproachRate:5
SliderMultiplier:1.4
SliderTickRate:1

[Events]
//Background and Video events
0,0,"bg2222.jpg",0,-30
//Break Periods
//Storyboard Layer 0 (Background)
//Storyboard Layer 1 (Fail)
//Storyboard Layer 2 (Pass)
//Storyboard Layer 3 (Foreground)
//Storyboard Layer 4 (Overlay)
//Storyboard Sound Samples

[TimingPoints]
87,468.75,4,1,0,35,1,0
525,-100,4,1,0,36,0,0
760,-100,4,1,0,38,0,0
994,-100,4,1,0,39,0,0
1346,-100,4,1,0,40,0,0
1697,-100,4,1,0,41,0,0
1932,-100,4,1,0,43,0,0
2400,-100,4,1,0,44,0,0
2635,-100,4,1,0,45,0,0
2869,-100,4,1,0,47,0,0
3103,-100,4,1,0,48,0,0
3221,-100,4,1,0,49,0,0
3455,-100,4,1,0,50,0,0
3572,-100,4,1,0,52,0,0
3807,-100,4,1,0,53,0,0
4158,-100,4,1,0,54,0,0
4275,-100,4,1,0,56,0,0
4510,-100,4,1,0,57,0,0
4744,-100,4,1,0,58,0,0
4978,-100,4,1,0,59,0,0
5096,-100,4,1,0,61,0,0
5330,-100,4,1,0,62,0,0
5447,-100,4,1,0,63,0,0
5682,-100,4,1,0,65,0,0
5916,-100,4,1,0,66,0,0
6033,-100,4,1,0,67,0,0
6150,-100,4,1,0,68,0,0
6385,-100,4,1,0,70,0,0
6619,-100,4,1,0,71,0,0
6736,-100,4,1,0,72,0,0
6853,-100,4,1,0,74,0,0
6971,-100,4,1,0,75,0,0
7088,-100,4,1,0,76,0,0
7205,-100,4,1,0,77,0,0
7322,-100,4,1,0,79,0,0
7557,-100,4,1,0,80,0,0
7821,-100,4,1,0,85,0,0
20594,-100,4,1,0,20,0,0
22235,-100,4,1,0,85,0,0
35946,-100,4,1,0,67,0,0
37587,-100,4,1,0,85,0,1
50712,-100,4,1,0,81,0,0
50916,-100,4,1,0,77,0,0
51033,-100,4,1,0,72,0,0
51385,-100,4,1,0,68,0,0
51619,-100,4,1,0,64,0,0
51736,-100,4,1,0,60,0,0
51853,-100,4,1,0,56,0,0
52088,-100,4,1,0,52,0,0
52205,-100,4,1,0,48,0,0
52322,-100,4,1,0,43,0,0
52439,-100,4,1,0,39,0,0
52557,-100,4,1,0,35,0,0
53025,-100,4,1,0,50,0,0
53260,-100,4,1,0,56,0,0
53494,-100,4,1,0,62,0,0
53846,-100,4,1,0,68,0,0
54080,-100,4,1,0,73,0,0
54197,-100,4,1,0,79,0,0
54462,-100,4,1,0,85,0,1
67587,-100,4,1,0,85,0,0
67997,-100,4,1,0,53,0,0
68232,-100,4,1,0,59,0,0
68466,-100,4,1,0,65,0,0
68818,-100,4,1,0,71,0,0
68934,-100,4,1,0,74,0,0
69169,-100,4,1,0,79,0,0
69434,-100,4,1,0,85,0,0
82587,468.75,4,1,0,85,1,8
83524,468.75,4,1,0,85,1,0
111531,-100,4,1,0,20,0,0
113172,-100,4,1,0,85,0,0
126883,-100,4,1,0,67,0,0
128524,-100,4,1,0,85,0,1
141649,-100,4,1,0,81,0,0
141824,-100,4,1,0,77,0,0
141941,-100,4,1,0,72,0,0
142293,-100,4,1,0,68,0,0
142527,-100,4,1,0,64,0,0
142644,-100,4,1,0,60,0,0
142761,-100,4,1,0,56,0,0
142996,-100,4,1,0,52,0,0
143113,-100,4,1,0,48,0,0
143230,-100,4,1,0,43,0,0
143347,-100,4,1,0,39,0,0
143465,-100,4,1,0,35,0,0
143933,-100,4,1,0,50,0,0
144168,-100,4,1,0,56,0,0
144285,-100,4,1,0,59,0,0
144402,-100,4,1,0,62,0,0
144520,-100,4,1,0,65,0,0
144754,-100,4,1,0,68,0,0
144988,-100,4,1,0,73,0,0
145105,-100,4,1,0,79,0,0
145399,-100,4,1,0,85,0,1
158524,-100,4,1,0,85,0,0
172000,-100,4,1,0,20,0,0

[HitObjects]
185,135,87,5,0,0:0:0:0:
185,135,555,1,0,0:0:0:0:
150,134,790,1,0,0:0:0:0:
185,135,1024,1,0,0:0:0:0:
185,135,1376,1,8,0:0:0:0:
185,135,1727,1,8,0:0:0:0:
185,135,1962,1,0,0:0:0:0:
185,135,2430,1,0,0:0:0:0:
189,131,2665,1,8,0:0:0:0:
185,135,2899,1,0,0:0:0:0:
185,135,3133,1,8,0:0:0:0:
185,135,3251,1,0,0:0:0:0:
185,135,3485,1,0,0:0:0:0:
185,135,3602,1,8,0:0:0:0:
185,135,3837,1,0,0:0:0:0:
181,128,4188,1,8,0:0:0:0:
185,135,4305,1,0,0:0:0:0:
177,147,4540,1,8,0:0:0:0:
185,135,4774,1,0,0:0:0:0:
182,123,5008,1,8,0:0:0:0:
182,123,5126,1,8,0:0:0:0:
185,135,5360,1,8,0:0:0:0:
182,123,5477,1,8,0:0:0:0:
185,135,5712,1,0,0:0:0:0:
167,137,5946,1,8,0:0:0:0:
176,123,6063,1,8,0:0:0:0:
176,123,6180,1,0,0:0:0:0:
176,123,6415,1,8,0:0:0:0:
185,135,6649,1,0,0:0:0:0:
185,135,6766,1,8,0:0:0:0:
190,134,6883,1,8,0:0:0:0:
185,135,7001,1,8,0:0:0:0:
190,135,7118,1,0,0:0:0:0:
190,135,7235,1,8,0:0:0:0:
185,135,7352,1,8,0:0:0:0:
191,130,7587,1,4,0:0:0:0:
190,135,8055,1,8,0:0:0:0:
191,130,8290,1,8,0:0:0:0:
191,130,8524,1,8,0:0:0:0:
191,130,8876,1,8,0:0:0:0:
191,130,9227,1,0,0:0:0:0:
191,130,9696,1,0,0:0:0:0:
191,130,9930,1,0,0:0:0:0:
191,130,10165,1,0,0:0:0:0:
191,130,10399,1,0,0:0:0:0:
191,130,10633,1,0,0:0:0:0:
191,130,10868,1,8,0:0:0:0:
191,130,11102,1,8,0:0:0:0:
191,130,11337,1,0,0:0:0:0:
192,135,11805,1,0,0:0:0:0:
191,130,12274,1,8,0:0:0:0:
191,130,12508,1,8,0:0:0:0:
191,130,12743,1,8,0:0:0:0:
191,130,12977,1,0,0:0:0:0:
191,130,13329,1,0,0:0:0:0:
191,130,13680,1,8,0:0:0:0:
191,130,14032,1,0,0:0:0:0:
191,130,14383,1,8,0:0:0:0:
191,130,14735,1,8,0:0:0:0:
191,130,15087,1,0,0:0:0:0:
191,130,15555,1,0,0:0:0:0:
191,130,15790,1,8,0:0:0:0:
191,130,16024,1,0,0:0:0:0:
191,130,16376,1,8,0:0:0:0:
83,160,16493,1,0,0:0:0:0:
191,130,16727,1,8,0:0:0:0:
191,130,17196,1,8,0:0:0:0:
191,130,17430,1,8,0:0:0:0:
191,130,17665,1,0,0:0:0:0:
191,130,17899,1,8,0:0:0:0:
191,130,18133,1,0,0:0:0:0:
191,130,18368,1,8,0:0:0:0:
191,130,18602,1,8,0:0:0:0:
191,130,18837,1,0,0:0:0:0:
191,130,19305,1,0,0:0:0:0:
191,130,19774,1,8,0:0:0:0:
191,130,20008,1,0,0:0:0:0:
191,130,20243,1,0,0:0:0:0:
191,130,20477,1,8,0:0:0:0:
256,192,20712,8,0,22118,0:0:0:0:
193,128,22587,5,0,0:0:0:0:
185,117,22821,1,8,0:0:0:0:
193,128,23055,1,0,0:0:0:0:
203,124,23172,1,8,0:0:0:0:
197,130,23290,1,0,0:0:0:0:
197,131,23524,1,8,0:0:0:0:
197,130,23641,1,8,0:0:0:0:
197,130,23993,1,8,0:0:0:0:
197,130,24110,1,8,0:0:0:0:
197,131,24462,1,0,0:0:0:0:
197,130,24696,1,8,0:0:0:0:
197,130,24813,1,0,0:0:0:0:
174,126,25047,1,0,0:0:0:0:
197,131,25165,1,8,0:0:0:0:
197,131,25399,1,0,0:0:0:0:
197,130,25516,1,8,0:0:0:0:
197,130,25633,1,0,0:0:0:0:
197,130,25751,1,8,0:0:0:0:
197,130,25868,1,0,0:0:0:0:
197,131,26102,1,8,0:0:0:0:
197,131,26219,1,8,0:0:0:0:
197,131,26337,1,0,0:0:0:0:
197,130,26688,1,0,0:0:0:0:
197,131,27040,1,0,0:0:0:0:
197,131,27274,1,8,0:0:0:0:
197,130,27391,1,8,0:0:0:0:
197,131,27743,1,8,0:0:0:0:
197,131,27860,1,8,0:0:0:0:
190,131,28212,1,0,0:0:0:0:
197,131,28446,1,8,0:0:0:0:
206,127,28563,1,0,0:0:0:0:
206,127,28797,1,0,0:0:0:0:
197,131,28915,1,8,0:0:0:0:
197,131,29149,1,8,0:0:0:0:
197,131,29266,1,8,0:0:0:0:
197,131,29383,1,0,0:0:0:0:
197,131,29501,1,0,0:0:0:0:
197,131,29618,1,8,0:0:0:0:
197,131,29735,1,8,0:0:0:0:
201,129,29852,1,0,0:0:0:0:
197,131,30087,1,8,0:0:0:0:
202,130,30555,1,8,0:0:0:0:
202,131,30790,1,0,0:0:0:0:
202,131,31024,1,8,0:0:0:0:
202,131,31141,1,8,0:0:0:0:
202,130,31493,1,8,0:0:0:0:
202,131,31610,1,8,0:0:0:0:
202,131,31962,1,0,0:0:0:0:
202,130,32196,1,8,0:0:0:0:
274,137,32313,1,0,0:0:0:0:
202,130,32547,1,0,0:0:0:0:
202,131,32665,1,8,0:0:0:0:
202,131,32899,1,0,0:0:0:0:
202,130,33016,1,8,0:0:0:0:
202,130,33133,1,0,0:0:0:0:
202,130,33251,1,8,0:0:0:0:
202,130,33368,1,0,0:0:0:0:
202,131,33602,1,8,0:0:0:0:
202,131,33719,1,8,0:0:0:0:
202,131,33837,1,0,0:0:0:0:
202,130,34188,1,0,0:0:0:0:
202,131,34540,1,0,0:0:0:0:
202,131,34774,1,8,0:0:0:0:
202,131,34891,1,8,0:0:0:0:
202,130,35008,1,0,0:0:0:0:
202,130,35126,1,0,0:0:0:0:
202,131,35243,1,8,0:0:0:0:
202,131,35360,1,8,0:0:0:0:
202,131,35477,1,8,0:0:0:0:
209,132,35594,1,8,0:0:0:0:
202,131,35712,1,0,0:0:0:0:
201,136,36180,1,8,0:0:0:0:
201,136,36415,1,8,0:0:0:0:
201,136,36532,1,8,0:0:0:0:
201,136,36649,1,0,0:0:0:0:
201,136,36766,1,8,0:0:0:0:
201,136,36883,1,0,0:0:0:0:
201,136,37118,1,8,0:0:0:0:
204,140,37352,1,0,0:0:0:0:
201,136,37587,1,4,0:0:0:0:
201,136,38055,1,8,0:0:0:0:
201,136,38290,1,8,0:0:0:0:
201,136,38524,1,0,0:0:0:0:
201,136,38758,1,8,0:0:0:0:
201,136,38876,1,8,0:0:0:0:
201,136,39110,1,0,0:0:0:0:
201,136,39227,1,8,0:0:0:0:
201,136,39344,1,8,0:0:0:0:
201,136,39462,1,0,0:0:0:0:
201,136,39696,1,0,0:0:0:0:
201,136,39813,1,8,0:0:0:0:
201,136,40165,1,0,0:0:0:0:
201,136,40399,1,8,0:0:0:0:
201,136,40633,1,0,0:0:0:0:
201,136,40751,1,8,0:0:0:0:
201,136,40985,1,0,0:0:0:0:
201,136,41102,1,8,0:0:0:0:
201,136,41219,1,8,0:0:0:0:
201,136,41337,1,0,0:0:0:0:
201,136,41571,1,0,0:0:0:0:
201,136,41688,1,8,0:0:0:0:
193,149,41922,1,0,0:0:0:0:
210,136,42040,1,0,0:0:0:0:
212,138,42274,1,8,0:0:0:0:
212,138,42391,1,0,0:0:0:0:
212,139,42626,1,8,0:0:0:0:
211,142,42860,1,0,0:0:0:0:
214,140,42977,1,8,0:0:0:0:
215,140,43094,1,8,0:0:0:0:
215,141,43212,1,0,0:0:0:0:
211,142,43446,1,0,0:0:0:0:
212,139,43563,1,8,0:0:0:0:
214,140,43915,1,0,0:0:0:0:
215,141,44149,1,0,0:0:0:0:
211,142,44266,1,8,0:0:0:0:
211,142,44383,1,8,0:0:0:0:
206,140,44501,1,8,0:0:0:0:
206,140,44618,1,0,0:0:0:0:
206,141,44735,1,0,0:0:0:0:
206,141,44852,1,8,0:0:0:0:
171,141,44969,1,8,0:0:0:0:
206,141,45087,1,0,0:0:0:0:
220,140,45555,1,0,0:0:0:0:
188,129,45672,1,0,0:0:0:0:
220,142,45790,1,8,0:0:0:0:
222,131,46024,1,0,0:0:0:0:
222,131,46258,1,8,0:0:0:0:
224,131,46376,1,8,0:0:0:0:
224,131,46610,1,0,0:0:0:0:
224,131,46727,1,8,0:0:0:0:
222,131,46844,1,8,0:0:0:0:
222,131,46962,1,0,0:0:0:0:
225,131,47196,1,0,0:0:0:0:
222,131,47313,1,8,0:0:0:0:
224,131,47665,1,0,0:0:0:0:
207,121,47899,1,8,0:0:0:0:
212,126,48016,1,0,0:0:0:0:
212,126,48251,1,8,0:0:0:0:
207,121,48485,1,0,0:0:0:0:
207,121,48602,1,8,0:0:0:0:
207,121,48719,1,8,0:0:0:0:
207,121,48837,1,0,0:0:0:0:
207,122,49071,1,0,0:0:0:0:
207,122,49188,1,8,0:0:0:0:
146,124,49422,1,8,0:0:0:0:
207,121,49540,1,0,0:0:0:0:
207,122,49774,1,0,0:0:0:0:
207,122,50008,1,0,0:0:0:0:
207,122,50126,1,8,0:0:0:0:
207,121,50360,1,0,0:0:0:0:
207,121,50477,1,8,0:0:0:0:
207,121,50594,1,8,0:0:0:0:
205,128,50712,1,0,0:0:0:0:
180,136,50946,1,8,0:0:0:0:
184,116,51063,1,8,0:0:0:0:
203,128,51415,1,8,0:0:0:0:
190,121,51649,1,0,0:0:0:0:
190,121,51766,1,8,0:0:0:0:
190,121,51883,1,8,0:0:0:0:
184,124,52118,1,0,0:0:0:0:
190,121,52235,1,8,0:0:0:0:
155,141,52352,1,8,0:0:0:0:
155,121,52469,1,8,0:0:0:0:
190,121,52821,1,8,0:0:0:0:
190,121,53055,1,0,0:0:0:0:
190,124,53290,1,0,0:0:0:0:
190,121,53524,1,8,0:0:0:0:
190,121,53876,1,8,0:0:0:0:
199,113,54110,1,0,0:0:0:0:
190,124,54227,1,0,0:0:0:0:
190,121,54462,1,12,0:0:0:0:
190,121,54930,1,8,0:0:0:0:
188,121,55165,1,8,0:0:0:0:
190,121,55399,1,0,0:0:0:0:
190,121,55633,1,8,0:0:0:0:
190,121,55751,1,8,0:0:0:0:
188,121,55985,1,0,0:0:0:0:
188,121,56102,1,8,0:0:0:0:
190,121,56219,1,8,0:0:0:0:
190,121,56337,1,0,0:0:0:0:
185,123,56571,1,0,0:0:0:0:
183,124,56688,1,8,0:0:0:0:
175,110,56922,1,8,0:0:0:0:
182,125,57040,1,0,0:0:0:0:
172,100,57274,1,0,0:0:0:0:
173,100,57391,1,8,0:0:0:0:
172,100,57508,1,8,0:0:0:0:
172,100,57626,1,8,0:0:0:0:
172,100,57743,1,0,0:0:0:0:
172,100,57977,1,0,0:0:0:0:
172,100,58212,1,8,0:0:0:0:
173,100,58446,1,0,0:0:0:0:
172,100,58563,1,8,0:0:0:0:
172,100,58915,1,0,0:0:0:0:
172,100,59149,1,0,0:0:0:0:
173,100,59266,1,8,0:0:0:0:
173,100,59383,1,8,0:0:0:0:
172,100,59501,1,8,0:0:0:0:
172,100,59618,1,0,0:0:0:0:
172,100,59852,1,8,0:0:0:0:
172,100,60087,1,0,0:0:0:0:
172,100,60555,1,8,0:0:0:0:
172,100,60790,1,8,0:0:0:0:
172,100,61024,1,0,0:0:0:0:
172,100,61258,1,8,0:0:0:0:
172,100,61376,1,8,0:0:0:0:
168,94,61610,1,0,0:0:0:0:
168,94,61727,1,8,0:0:0:0:
168,94,61844,1,8,0:0:0:0:
168,93,61962,1,0,0:0:0:0:
168,92,62196,1,0,0:0:0:0:
168,92,62313,1,8,0:0:0:0:
168,94,62665,1,0,0:0:0:0:
168,93,62899,1,0,0:0:0:0:
168,92,63016,1,8,0:0:0:0:
168,92,63251,1,8,0:0:0:0:
167,89,63485,1,0,0:0:0:0:
167,89,63602,1,8,0:0:0:0:
169,88,63719,1,8,0:0:0:0:
181,88,63837,1,0,0:0:0:0:
181,87,64071,1,0,0:0:0:0:
181,86,64188,1,8,0:0:0:0:
228,91,64422,1,8,0:0:0:0:
181,85,64540,1,0,0:0:0:0:
181,87,64774,1,8,0:0:0:0:
181,87,65008,1,0,0:0:0:0:
181,86,65126,1,8,0:0:0:0:
181,85,65360,1,0,0:0:0:0:
181,85,65477,1,8,0:0:0:0:
178,77,65594,1,8,0:0:0:0:
182,77,65712,1,0,0:0:0:0:
182,75,65946,1,8,0:0:0:0:
182,75,66063,1,8,0:0:0:0:
182,78,66415,1,0,0:0:0:0:
184,75,66532,1,8,0:0:0:0:
182,77,66649,1,0,0:0:0:0:
182,75,66883,1,0,0:0:0:0:
103,108,67118,1,8,0:0:0:0:
182,75,67235,1,8,0:0:0:0:
151,95,67352,1,8,0:0:0:0:
151,95,67469,1,8,0:0:0:0:
163,92,68055,1,0,0:0:0:0:
163,92,68290,1,0,0:0:0:0:
163,92,68524,1,8,0:0:0:0:
163,92,68876,1,0,0:0:0:0:
163,92,68993,1,8,0:0:0:0:
163,92,69227,1,8,0:0:0:0:
163,92,69462,1,0,0:0:0:0:
156,94,69579,1,0,0:0:0:0:
156,94,69930,1,8,0:0:0:0:
156,94,70165,1,8,0:0:0:0:
156,94,70399,1,0,0:0:0:0:
156,94,70633,1,8,0:0:0:0:
156,94,70868,1,8,0:0:0:0:
156,94,71102,1,8,0:0:0:0:
156,94,71337,1,0,0:0:0:0:
151,123,71805,1,0,0:0:0:0:
142,105,71922,1,8,0:0:0:0:
142,105,72040,1,0,0:0:0:0:
161,110,72274,1,8,0:0:0:0:
161,110,72508,1,8,0:0:0:0:
161,110,72743,1,8,0:0:0:0:
161,110,72977,1,0,0:0:0:0:
161,110,73329,1,0,0:0:0:0:
161,110,73680,1,8,0:0:0:0:
161,110,74032,1,8,0:0:0:0:
154,111,74149,1,0,0:0:0:0:
154,111,74266,1,0,0:0:0:0:
161,110,74383,1,0,0:0:0:0:
154,111,74618,1,8,0:0:0:0:
161,110,74735,1,0,0:0:0:0:
161,110,75087,1,0,0:0:0:0:
161,110,75555,1,8,0:0:0:0:
161,110,75790,1,8,0:0:0:0:
161,110,76024,1,0,0:0:0:0:
161,110,76376,1,0,0:0:0:0:
145,102,76493,1,8,0:0:0:0:
161,110,76727,1,8,0:0:0:0:
156,96,76962,1,0,0:0:0:0:
161,110,77079,1,8,0:0:0:0:
151,106,77196,1,8,0:0:0:0:
161,110,77430,1,8,0:0:0:0:
161,110,77665,1,8,0:0:0:0:
161,110,77899,1,0,0:0:0:0:
161,110,78133,1,8,0:0:0:0:
161,110,78368,1,8,0:0:0:0:
161,110,78602,1,8,0:0:0:0:
161,110,78837,1,0,0:0:0:0:
161,110,79305,1,0,0:0:0:0:
156,94,79422,1,8,0:0:0:0:
156,94,79540,1,0,0:0:0:0:
161,110,79774,1,0,0:0:0:0:
161,110,80008,1,0,0:0:0:0:
161,110,80243,1,8,0:0:0:0:
161,110,80477,1,8,0:0:0:0:
161,110,80829,1,0,0:0:0:0:
161,110,81180,1,8,0:0:0:0:
161,110,81532,1,8,0:0:0:0:
155,94,81649,1,0,0:0:0:0:
155,95,81766,1,0,0:0:0:0:
161,110,81883,1,8,0:0:0:0:
155,95,82118,1,8,0:0:0:0:
161,110,82235,1,8,0:0:0:0:
97,126,83524,1,0,0:0:0:0:
109,125,83992,1,0,0:0:0:0:
109,125,84227,1,0,0:0:0:0:
109,125,84461,1,0,0:0:0:0:
109,125,84813,1,8,0:0:0:0:
104,118,84930,1,0,0:0:0:0:
109,125,85164,1,8,0:0:0:0:
109,125,85399,1,0,0:0:0:0:
109,125,85516,1,8,0:0:0:0:
109,125,85633,1,0,0:0:0:0:
109,125,85867,1,8,0:0:0:0:
109,125,86102,1,0,0:0:0:0:
109,125,86336,1,8,0:0:0:0:
109,125,86570,1,8,0:0:0:0:
109,125,86805,1,8,0:0:0:0:
109,125,87039,1,8,0:0:0:0:
109,125,87274,1,0,0:0:0:0:
109,125,87742,1,0,0:0:0:0:
109,125,88211,1,0,0:0:0:0:
109,125,88445,1,0,0:0:0:0:
109,125,88680,1,8,0:0:0:0:
109,125,88914,1,8,0:0:0:0:
109,105,89031,1,8,0:0:0:0:
109,125,89149,1,0,0:0:0:0:
109,125,89266,1,8,0:0:0:0:
109,125,89383,1,0,0:0:0:0:
109,125,89617,1,8,0:0:0:0:
109,125,89852,1,8,0:0:0:0:
109,125,90086,1,0,0:0:0:0:
109,125,90320,1,0,0:0:0:0:
109,125,90555,1,8,0:0:0:0:
109,125,90789,1,8,0:0:0:0:
109,125,91024,1,0,0:0:0:0:
109,125,91492,1,8,0:0:0:0:
109,125,91727,1,8,0:0:0:0:
109,125,91961,1,0,0:0:0:0:
131,119,92195,1,8,0:0:0:0:
109,125,92313,1,8,0:0:0:0:
131,119,92430,1,0,0:0:0:0:
109,125,92664,1,8,0:0:0:0:
109,125,92899,1,0,0:0:0:0:
109,125,93016,1,8,0:0:0:0:
109,125,93133,1,8,0:0:0:0:
109,125,93367,1,0,0:0:0:0:
109,125,93602,1,8,0:0:0:0:
109,125,93836,1,0,0:0:0:0:
109,125,94070,1,8,0:0:0:0:
109,125,94305,1,8,0:0:0:0:
109,125,94539,1,8,0:0:0:0:
109,125,94774,1,0,0:0:0:0:
131,114,95008,1,8,0:0:0:0:
131,114,95125,1,8,0:0:0:0:
109,125,95242,1,0,0:0:0:0:
131,114,95477,1,8,0:0:0:0:
109,125,95711,1,0,0:0:0:0:
109,125,95945,1,8,0:0:0:0:
109,125,96180,1,8,0:0:0:0:
109,125,96414,1,8,0:0:0:0:
109,125,96649,1,0,0:0:0:0:
109,125,96766,1,8,0:0:0:0:
109,125,96883,1,8,0:0:0:0:
109,125,97117,1,0,0:0:0:0:
125,127,98524,1,4,0:0:0:0:
125,127,98992,1,8,0:0:0:0:
125,127,99227,1,8,0:0:0:0:
125,127,99461,1,8,0:0:0:0:
125,127,99813,1,8,0:0:0:0:
125,127,100164,1,0,0:0:0:0:
125,127,100633,1,0,0:0:0:0:
125,127,100867,1,0,0:0:0:0:
125,127,101102,1,0,0:0:0:0:
125,127,101336,1,0,0:0:0:0:
125,127,101570,1,0,0:0:0:0:
125,127,101805,1,8,0:0:0:0:
125,127,102039,1,8,0:0:0:0:
125,127,102274,1,0,0:0:0:0:
125,127,102742,1,0,0:0:0:0:
125,127,103211,1,8,0:0:0:0:
125,127,103445,1,8,0:0:0:0:
125,127,103680,1,8,0:0:0:0:
125,127,103914,1,0,0:0:0:0:
125,127,104266,1,0,0:0:0:0:
125,127,104617,1,8,0:0:0:0:
125,127,104969,1,0,0:0:0:0:
125,127,105320,1,8,0:0:0:0:
125,127,105672,1,8,0:0:0:0:
125,127,106024,1,0,0:0:0:0:
125,127,106492,1,8,0:0:0:0:
125,127,106727,1,8,0:0:0:0:
125,127,106961,1,0,0:0:0:0:
125,127,107313,1,8,0:0:0:0:
125,127,107430,1,0,0:0:0:0:
125,127,107664,1,8,0:0:0:0:
125,127,108133,1,8,0:0:0:0:
125,127,108367,1,8,0:0:0:0:
125,127,108602,1,0,0:0:0:0:
125,127,108836,1,8,0:0:0:0:
125,127,109070,1,0,0:0:0:0:
125,127,109305,1,8,0:0:0:0:
125,127,109539,1,8,0:0:0:0:
125,127,109774,1,0,0:0:0:0:
125,127,110242,1,0,0:0:0:0:
125,127,110711,1,8,0:0:0:0:
125,127,110945,1,0,0:0:0:0:
125,127,111180,1,0,0:0:0:0:
125,127,111414,1,8,0:0:0:0:
256,192,111649,12,0,113055,0:0:0:0:
193,128,113524,5,0,0:0:0:0:
185,117,113758,1,8,0:0:0:0:
193,128,113992,1,0,0:0:0:0:
189,122,114109,1,8,0:0:0:0:
197,130,114227,1,0,0:0:0:0:
197,131,114461,1,8,0:0:0:0:
197,130,114578,1,8,0:0:0:0:
197,130,114930,1,8,0:0:0:0:
197,130,115047,1,8,0:0:0:0:
197,131,115399,1,0,0:0:0:0:
197,130,115633,1,8,0:0:0:0:
197,130,115750,1,0,0:0:0:0:
174,126,115984,1,0,0:0:0:0:
197,131,116102,1,8,0:0:0:0:
197,131,116336,1,0,0:0:0:0:
197,130,116453,1,8,0:0:0:0:
197,130,116570,1,0,0:0:0:0:
197,130,116688,1,8,0:0:0:0:
197,130,116805,1,0,0:0:0:0:
197,131,117039,1,8,0:0:0:0:
197,131,117156,1,8,0:0:0:0:
197,131,117274,1,0,0:0:0:0:
197,130,117625,1,0,0:0:0:0:
197,131,117977,1,0,0:0:0:0:
197,131,118211,1,8,0:0:0:0:
197,130,118328,1,8,0:0:0:0:
197,131,118680,1,8,0:0:0:0:
197,131,118797,1,8,0:0:0:0:
190,131,119149,1,0,0:0:0:0:
197,131,119383,1,8,0:0:0:0:
206,127,119500,1,0,0:0:0:0:
206,127,119734,1,0,0:0:0:0:
197,131,119852,1,8,0:0:0:0:
197,131,120086,1,8,0:0:0:0:
197,131,120203,1,8,0:0:0:0:
197,131,120320,1,0,0:0:0:0:
197,131,120438,1,0,0:0:0:0:
197,131,120555,1,8,0:0:0:0:
197,131,120672,1,8,0:0:0:0:
201,129,120789,1,0,0:0:0:0:
197,131,121024,1,8,0:0:0:0:
202,130,121492,1,8,0:0:0:0:
202,131,121727,1,0,0:0:0:0:
202,131,121961,1,8,0:0:0:0:
202,131,122078,1,8,0:0:0:0:
202,130,122430,1,8,0:0:0:0:
202,131,122547,1,8,0:0:0:0:
202,131,122899,1,0,0:0:0:0:
202,130,123133,1,8,0:0:0:0:
274,137,123250,1,0,0:0:0:0:
202,130,123484,1,0,0:0:0:0:
202,131,123602,1,8,0:0:0:0:
202,131,123836,1,0,0:0:0:0:
202,130,123953,1,8,0:0:0:0:
202,130,124070,1,0,0:0:0:0:
202,130,124188,1,8,0:0:0:0:
202,130,124305,1,0,0:0:0:0:
202,131,124539,1,8,0:0:0:0:
202,131,124656,1,8,0:0:0:0:
202,131,124774,1,0,0:0:0:0:
202,130,125125,1,0,0:0:0:0:
202,131,125477,1,0,0:0:0:0:
202,131,125711,1,8,0:0:0:0:
202,131,125828,1,8,0:0:0:0:
202,130,125945,1,0,0:0:0:0:
202,130,126063,1,0,0:0:0:0:
202,131,126180,1,8,0:0:0:0:
202,131,126297,1,8,0:0:0:0:
202,131,126414,1,8,0:0:0:0:
209,132,126531,1,8,0:0:0:0:
202,131,126649,1,0,0:0:0:0:
201,136,127117,1,8,0:0:0:0:
201,136,127352,1,8,0:0:0:0:
201,136,127469,1,8,0:0:0:0:
201,136,127586,1,0,0:0:0:0:
201,136,127703,1,8,0:0:0:0:
201,136,127820,1,0,0:0:0:0:
201,136,128055,1,8,0:0:0:0:
204,140,128289,1,0,0:0:0:0:
201,136,128524,1,4,0:0:0:0:
201,136,128992,1,8,0:0:0:0:
201,136,129227,1,8,0:0:0:0:
152,145,129344,1,8,0:0:0:0:
201,136,129461,1,0,0:0:0:0:
201,136,129695,1,8,0:0:0:0:
201,136,129813,1,8,0:0:0:0:
201,136,130047,1,0,0:0:0:0:
201,136,130164,1,8,0:0:0:0:
201,136,130281,1,8,0:0:0:0:
201,136,130399,1,0,0:0:0:0:
201,136,130633,1,0,0:0:0:0:
201,136,130867,1,8,0:0:0:0:
201,136,131102,1,0,0:0:0:0:
174,141,131219,1,8,0:0:0:0:
201,136,131336,1,0,0:0:0:0:
201,136,131570,1,0,0:0:0:0:
201,136,131688,1,8,0:0:0:0:
201,136,131922,1,0,0:0:0:0:
201,136,132039,1,8,0:0:0:0:
201,136,132156,1,8,0:0:0:0:
201,136,132274,1,0,0:0:0:0:
201,136,132508,1,0,0:0:0:0:
201,136,132742,1,8,0:0:0:0:
210,136,132977,1,0,0:0:0:0:
212,138,133094,1,0,0:0:0:0:
212,138,133211,1,8,0:0:0:0:
152,129,133445,1,8,0:0:0:0:
184,145,133563,1,8,0:0:0:0:
211,142,133797,1,0,0:0:0:0:
214,140,133914,1,8,0:0:0:0:
215,140,134031,1,8,0:0:0:0:
215,141,134149,1,0,0:0:0:0:
211,142,134383,1,0,0:0:0:0:
212,139,134617,1,8,0:0:0:0:
214,140,134852,1,0,0:0:0:0:
211,142,134969,1,0,0:0:0:0:
215,141,135086,1,8,0:0:0:0:
211,142,135320,1,8,0:0:0:0:
206,140,135438,1,8,0:0:0:0:
206,140,135555,1,0,0:0:0:0:
206,141,135672,1,0,0:0:0:0:
206,141,135789,1,8,0:0:0:0:
203,149,135906,1,8,0:0:0:0:
206,141,136024,1,0,0:0:0:0:
220,140,136492,1,8,0:0:0:0:
220,142,136727,1,0,0:0:0:0:
188,129,136844,1,8,0:0:0:0:
222,131,136961,1,0,0:0:0:0:
222,131,137195,1,8,0:0:0:0:
224,131,137313,1,8,0:0:0:0:
224,131,137547,1,0,0:0:0:0:
224,131,137664,1,8,0:0:0:0:
222,131,137781,1,8,0:0:0:0:
222,131,137899,1,0,0:0:0:0:
225,131,138133,1,0,0:0:0:0:
222,131,138250,1,8,0:0:0:0:
224,131,138602,1,0,0:0:0:0:
207,121,138836,1,8,0:0:0:0:
212,126,138953,1,0,0:0:0:0:
212,126,139188,1,8,0:0:0:0:
207,121,139422,1,0,0:0:0:0:
207,121,139539,1,8,0:0:0:0:
207,121,139656,1,8,0:0:0:0:
207,121,139774,1,0,0:0:0:0:
207,122,140008,1,0,0:0:0:0:
207,122,140125,1,8,0:0:0:0:
146,124,140359,1,8,0:0:0:0:
207,121,140477,1,0,0:0:0:0:
207,122,140711,1,8,0:0:0:0:
207,122,140945,1,0,0:0:0:0:
207,122,141063,1,8,0:0:0:0:
207,121,141297,1,0,0:0:0:0:
207,121,141414,1,8,0:0:0:0:
207,121,141531,1,8,0:0:0:0:
205,128,141649,1,0,0:0:0:0:
180,136,141883,1,8,0:0:0:0:
184,116,142000,1,8,0:0:0:0:
203,128,142352,1,8,0:0:0:0:
190,121,142586,1,0,0:0:0:0:
190,121,142703,1,8,0:0:0:0:
190,121,142820,1,8,0:0:0:0:
184,124,143055,1,0,0:0:0:0:
190,121,143172,1,8,0:0:0:0:
155,141,143289,1,8,0:0:0:0:
155,121,143406,1,8,0:0:0:0:
190,121,143758,1,8,0:0:0:0:
190,121,143992,1,0,0:0:0:0:
190,124,144227,1,0,0:0:0:0:
167,114,144344,1,0,0:0:0:0:
190,121,144461,1,8,0:0:0:0:
167,116,144578,1,0,0:0:0:0:
190,121,144813,1,8,0:0:0:0:
199,113,145047,1,0,0:0:0:0:
190,124,145164,1,0,0:0:0:0:
190,121,145399,1,12,0:0:0:0:
190,121,145867,1,8,0:0:0:0:
188,121,146102,1,8,0:0:0:0:
190,121,146336,1,0,0:0:0:0:
190,121,146570,1,8,0:0:0:0:
190,121,146688,1,8,0:0:0:0:
188,121,146922,1,0,0:0:0:0:
188,121,147039,1,8,0:0:0:0:
190,121,147156,1,8,0:0:0:0:
190,121,147274,1,0,0:0:0:0:
185,123,147508,1,0,0:0:0:0:
183,124,147625,1,8,0:0:0:0:
175,110,147859,1,8,0:0:0:0:
182,125,147977,1,0,0:0:0:0:
172,100,148211,1,0,0:0:0:0:
173,100,148328,1,8,0:0:0:0:
172,100,148445,1,8,0:0:0:0:
172,100,148563,1,8,0:0:0:0:
172,100,148680,1,0,0:0:0:0:
172,100,148914,1,0,0:0:0:0:
172,100,149149,1,8,0:0:0:0:
173,100,149383,1,0,0:0:0:0:
172,100,149500,1,8,0:0:0:0:
172,100,149852,1,0,0:0:0:0:
172,100,150086,1,0,0:0:0:0:
173,100,150203,1,8,0:0:0:0:
173,100,150320,1,8,0:0:0:0:
172,100,150438,1,8,0:0:0:0:
172,100,150555,1,0,0:0:0:0:
172,100,150789,1,8,0:0:0:0:
172,100,151024,1,0,0:0:0:0:
172,100,151492,1,8,0:0:0:0:
172,100,151727,1,8,0:0:0:0:
122,135,151844,1,8,0:0:0:0:
172,100,151961,1,0,0:0:0:0:
172,100,152195,1,8,0:0:0:0:
172,100,152313,1,8,0:0:0:0:
168,94,152547,1,0,0:0:0:0:
168,94,152664,1,8,0:0:0:0:
168,94,152781,1,8,0:0:0:0:
168,93,152899,1,0,0:0:0:0:
168,92,153133,1,0,0:0:0:0:
168,92,153250,1,8,0:0:0:0:
168,94,153602,1,0,0:0:0:0:
168,93,153836,1,0,0:0:0:0:
168,92,153953,1,8,0:0:0:0:
168,92,154188,1,8,0:0:0:0:
167,89,154422,1,0,0:0:0:0:
167,89,154539,1,8,0:0:0:0:
169,88,154656,1,8,0:0:0:0:
181,88,154774,1,0,0:0:0:0:
181,87,155008,1,0,0:0:0:0:
181,86,155125,1,8,0:0:0:0:
228,91,155359,1,8,0:0:0:0:
181,85,155477,1,0,0:0:0:0:
181,87,155711,1,8,0:0:0:0:
181,87,155945,1,0,0:0:0:0:
181,86,156063,1,8,0:0:0:0:
181,85,156297,1,0,0:0:0:0:
181,85,156414,1,8,0:0:0:0:
178,77,156531,1,8,0:0:0:0:
182,77,156649,1,0,0:0:0:0:
182,75,156883,1,0,0:0:0:0:
166,108,157000,1,8,0:0:0:0:
184,75,157234,1,8,0:0:0:0:
182,78,157352,1,0,0:0:0:0:
182,77,157586,1,0,0:0:0:0:
152,74,157703,1,0,0:0:0:0:
182,75,157820,1,8,0:0:0:0:
140,107,157938,1,8,0:0:0:0:
103,108,158055,1,0,0:0:0:0:
182,75,158172,1,8,0:0:0:0:
151,95,158289,1,8,0:0:0:0:
151,95,158406,1,8,0:0:0:0:
181,97,158524,1,0,0:0:0:0:
184,90,158992,1,8,0:0:0:0:
184,90,159227,1,8,0:0:0:0:
184,89,159344,1,8,0:0:0:0:
184,89,159461,1,0,0:0:0:0:
184,90,159578,1,8,0:0:0:0:
184,90,159813,1,8,0:0:0:0:
184,90,159930,1,0,0:0:0:0:
184,90,160164,1,8,0:0:0:0:
184,89,160399,1,0,0:0:0:0:
139,130,160516,1,8,0:0:0:0:
184,90,160633,1,0,0:0:0:0:
184,90,160867,1,8,0:0:0:0:
184,90,161102,1,8,0:0:0:0:
184,89,161219,1,0,0:0:0:0:
184,90,161453,1,0,0:0:0:0:
184,90,161570,1,8,0:0:0:0:
184,90,161805,1,8,0:0:0:0:
184,90,161922,1,8,0:0:0:0:
184,90,162039,1,0,0:0:0:0:
187,93,162274,1,0,0:0:0:0:
187,93,162742,1,8,0:0:0:0:
187,93,163211,1,0,0:0:0:0:
187,93,163445,1,0,0:0:0:0:
187,93,163680,1,8,0:0:0:0:
187,93,163797,1,0,0:0:0:0:
187,93,163914,1,8,0:0:0:0:
187,93,164149,1,0,0:0:0:0:
187,93,164383,1,0,0:0:0:0:
192,90,164617,1,8,0:0:0:0:
192,90,164852,1,8,0:0:0:0:
178,86,164969,1,8,0:0:0:0:
192,90,165086,1,0,0:0:0:0:
192,90,165320,1,8,0:0:0:0:
178,86,165438,1,8,0:0:0:0:
192,90,165555,1,0,0:0:0:0:
192,90,165789,1,8,0:0:0:0:
192,90,166024,1,0,0:0:0:0:
192,90,166492,1,8,0:0:0:0:
192,90,166727,1,8,0:0:0:0:
192,90,166844,1,8,0:0:0:0:
192,90,166961,1,0,0:0:0:0:
194,94,167078,1,8,0:0:0:0:
194,95,167313,1,8,0:0:0:0:
194,95,167430,1,0,0:0:0:0:
194,95,167664,1,8,0:0:0:0:
194,94,167899,1,0,0:0:0:0:
194,94,168016,1,8,0:0:0:0:
194,94,168133,1,0,0:0:0:0:
194,95,168367,1,8,0:0:0:0:
194,95,168602,1,0,0:0:0:0:
194,94,168719,1,8,0:0:0:0:
119,112,168953,1,8,0:0:0:0:
194,94,169070,1,0,0:0:0:0:
194,95,169305,1,8,0:0:0:0:
179,89,169422,1,8,0:0:0:0:
194,95,169539,1,0,0:0:0:0:
194,94,169774,1,0,0:0:0:0:
195,82,169891,1,8,0:0:0:0:
195,82,170125,1,0,0:0:0:0:
184,89,170242,1,8,0:0:0:0:
196,82,170359,1,8,0:0:0:0:
184,89,170477,1,0,0:0:0:0:
184,89,170711,1,0,0:0:0:0:
184,89,170945,1,8,0:0:0:0:
184,89,171180,1,8,0:0:0:0:
184,89,171414,1,8,0:0:0:0:
184,89,171649,1,0,0:0:0:0:
256,192,172117,12,0,173524,0:0:0:0:
