osu file format v14

[General]
AudioFilename: audio.mp3
AudioLeadIn: 0
PreviewTime: 37611
Countdown: 0
SampleSet: Normal
StackLeniency: 0.7
Mode: 1
LetterboxInBreaks: 0
WidescreenStoryboard: 1

[Editor]
DistanceSpacing: 0.8
BeatDivisor: 4
GridSize: 8
TimelineZoom: 0.5999999

[Metadata]
Title:Ideal
TitleUnicode:Ideal
Artist:cute girls doing cute things
ArtistUnicode:cute girls doing cute things
Creator:Reficul
Version:Kantan
Source:osu!
Tags:Midnaait FA Featured Artist Mappers Guild MPG Electronic Instrumental cgdct
BeatmapID:2682744
BeatmapSetID:1292718

[Difficulty]
HPDrainRate:7
CircleSize:5
OverallDifficulty:3
ApproachRate:5
SliderMultiplier:1.4
SliderTickRate:1

[Events]
//Background and Video events
0,0,"bg2222.jpg",0,-30
//Break Periods
//Storyboard Layer 0 (Background)
//Storyboard Layer 1 (Fail)
//Storyboard Layer 2 (Pass)
//Storyboard Layer 3 (Foreground)
//Storyboard Layer 4 (Overlay)
//Storyboard Sound Samples

[TimingPoints]
87,468.75,4,1,0,35,1,0
994,-100,4,1,0,39,0,0
1932,-100,4,1,0,43,0,0
2869,-100,4,1,0,47,0,0
3221,-100,4,1,0,49,0,0
3807,-100,4,1,0,53,0,0
4744,-100,4,1,0,58,0,0
5682,-100,4,1,0,65,0,0
6619,-100,4,1,0,71,0,0
7088,-100,4,1,0,76,0,0
7557,-100,4,1,0,80,0,0
7821,-100,4,1,0,85,0,0
37587,-100,4,1,0,85,0,1
50712,-100,4,1,0,81,0,0
52322,-100,4,1,0,43,0,0
53494,-100,4,1,0,62,0,0
54462,-100,4,1,0,85,0,1
67587,-100,4,1,0,85,0,0
82587,468.75,4,1,0,85,1,8
83524,468.75,4,1,0,85,1,0
128524,-100,4,1,0,85,0,1
141649,-100,4,1,0,81,0,0
143230,-100,4,1,0,43,0,0
144402,-100,4,1,0,62,0,0
145399,-100,4,1,0,85,0,1
158524,-100,4,1,0,85,0,0
172000,-100,4,1,0,20,0,0

[HitObjects]
239,155,87,5,0,0:0:0:0:
235,141,1024,1,0,0:0:0:0:
234,157,1962,1,8,0:0:0:0:
233,154,2899,1,8,0:0:0:0:
233,154,3368,1,8,0:0:0:0:
233,154,3837,1,0,0:0:0:0:
231,159,4774,1,8,0:0:0:0:
231,159,5712,1,0,0:0:0:0:
231,159,6649,1,8,0:0:0:0:
231,159,7118,1,8,0:0:0:0:
231,159,7587,1,4,0:0:0:0:
231,159,9227,1,8,0:0:0:0:
227,160,10399,1,8,0:0:0:0:
227,160,10868,1,8,0:0:0:0:
227,160,11337,1,0,0:0:0:0:
227,160,12274,1,8,0:0:0:0:
220,155,12977,1,0,0:0:0:0:
220,155,13680,1,8,0:0:0:0:
220,155,14383,1,8,0:0:0:0:
220,155,15087,1,0,0:0:0:0:
220,155,16727,1,8,0:0:0:0:
220,155,17430,1,0,0:0:0:0:
219,156,17899,1,8,0:0:0:0:
219,156,18368,1,8,0:0:0:0:
219,156,18837,1,0,0:0:0:0:
219,156,19774,1,8,0:0:0:0:
219,156,20477,1,8,0:0:0:0:
201,138,22587,1,0,0:0:0:0:
195,136,23524,1,8,0:0:0:0:
195,136,23993,1,8,0:0:0:0:
194,148,24462,1,0,0:0:0:0:
194,148,25399,1,8,0:0:0:0:
184,151,26337,1,0,0:0:0:0:
184,151,27274,1,8,0:0:0:0:
184,151,27743,1,8,0:0:0:0:
184,151,28212,1,0,0:0:0:0:
184,151,29149,1,8,0:0:0:0:
176,140,30087,1,0,0:0:0:0:
176,140,31493,1,8,0:0:0:0:
176,140,31962,1,0,0:0:0:0:
176,140,32899,1,8,0:0:0:0:
176,140,33837,1,0,0:0:0:0:
176,140,34305,1,0,0:0:0:0:
176,140,34774,1,8,0:0:0:0:
176,140,35243,1,8,0:0:0:0:
176,140,35712,1,0,0:0:0:0:
177,140,37587,1,4,0:0:0:0:
120,119,38524,1,8,0:0:0:0:
143,126,38993,1,8,0:0:0:0:
133,129,39462,1,0,0:0:0:0:
133,129,40399,1,8,0:0:0:0:
128,121,41337,1,0,0:0:0:0:
132,136,42274,1,8,0:0:0:0:
132,136,42743,1,8,0:0:0:0:
132,136,43680,1,0,0:0:0:0:
132,136,44149,1,8,0:0:0:0:
132,136,44618,1,8,0:0:0:0:
132,136,45087,1,0,0:0:0:0:
132,133,46493,1,8,0:0:0:0:
132,133,46962,1,0,0:0:0:0:
132,133,47899,1,8,0:0:0:0:
132,133,48368,1,8,0:0:0:0:
132,133,48837,1,0,0:0:0:0:
132,133,49774,1,8,0:0:0:0:
132,133,50712,1,0,0:0:0:0:
131,136,52587,1,0,0:0:0:0:
131,136,53524,1,8,0:0:0:0:
131,136,54462,1,4,0:0:0:0:
123,134,54930,1,8,0:0:0:0:
123,134,55399,1,8,0:0:0:0:
123,134,55868,1,8,0:0:0:0:
123,134,56337,1,0,0:0:0:0:
138,131,57274,1,8,0:0:0:0:
139,141,57743,1,8,0:0:0:0:
144,140,58680,1,0,0:0:0:0:
144,140,59149,1,8,0:0:0:0:
144,140,59618,1,8,0:0:0:0:
144,140,60087,1,0,0:0:0:0:
150,146,61493,1,8,0:0:0:0:
150,146,61962,1,0,0:0:0:0:
150,146,62899,1,8,0:0:0:0:
150,146,63368,1,8,0:0:0:0:
150,146,63837,1,0,0:0:0:0:
150,146,64774,1,0,0:0:0:0:
150,146,65243,1,0,0:0:0:0:
150,146,65712,1,8,0:0:0:0:
150,146,66649,1,8,0:0:0:0:
150,146,67118,1,8,0:0:0:0:
147,147,69462,1,0,0:0:0:0:
147,147,70399,1,8,0:0:0:0:
147,147,70868,1,8,0:0:0:0:
147,147,71337,1,0,0:0:0:0:
144,151,72274,1,8,0:0:0:0:
144,151,72743,1,8,0:0:0:0:
144,151,73680,1,8,0:0:0:0:
144,151,74149,1,0,0:0:0:0:
144,151,74618,1,8,0:0:0:0:
144,151,75087,1,0,0:0:0:0:
142,155,76493,1,8,0:0:0:0:
142,155,76962,1,0,0:0:0:0:
142,155,77899,1,8,0:0:0:0:
142,155,78368,1,8,0:0:0:0:
142,155,78837,1,0,0:0:0:0:
138,150,79774,1,8,0:0:0:0:
138,150,80243,1,8,0:0:0:0:
145,153,81180,1,8,0:0:0:0:
138,149,81649,1,0,0:0:0:0:
133,139,82118,1,8,0:0:0:0:
186,149,83524,1,0,0:0:0:0:
164,148,84461,1,0,0:0:0:0:
164,148,85399,1,0,0:0:0:0:
171,147,85867,1,0,0:0:0:0:
172,147,86336,1,8,0:0:0:0:
165,149,86805,1,8,0:0:0:0:
172,152,88211,1,0,0:0:0:0:
172,152,88680,1,0,0:0:0:0:
172,152,89617,1,8,0:0:0:0:
172,152,90086,1,0,0:0:0:0:
172,152,90555,1,8,0:0:0:0:
174,141,91024,1,0,0:0:0:0:
174,154,91961,1,8,0:0:0:0:
174,154,92430,1,8,0:0:0:0:
174,154,92899,1,0,0:0:0:0:
176,142,93836,1,8,0:0:0:0:
177,135,94305,1,8,0:0:0:0:
178,147,95711,1,0,0:0:0:0:
178,147,96180,1,8,0:0:0:0:
170,152,96649,1,8,0:0:0:0:
159,161,97117,1,0,0:0:0:0:
161,149,98524,1,4,0:0:0:0:
231,159,100164,1,8,0:0:0:0:
227,160,101336,1,8,0:0:0:0:
227,160,101805,1,8,0:0:0:0:
227,160,102274,1,0,0:0:0:0:
227,160,103211,1,8,0:0:0:0:
220,155,103914,1,0,0:0:0:0:
220,155,104617,1,8,0:0:0:0:
220,155,105320,1,8,0:0:0:0:
220,155,106024,1,0,0:0:0:0:
220,155,107664,1,8,0:0:0:0:
220,155,108367,1,0,0:0:0:0:
219,156,108836,1,8,0:0:0:0:
219,156,109305,1,8,0:0:0:0:
219,156,109774,1,0,0:0:0:0:
219,156,110711,1,8,0:0:0:0:
219,156,111414,1,8,0:0:0:0:
201,138,113524,1,0,0:0:0:0:
195,136,114461,1,8,0:0:0:0:
195,136,114930,1,8,0:0:0:0:
194,148,115399,1,0,0:0:0:0:
194,148,116336,1,8,0:0:0:0:
184,151,117274,1,0,0:0:0:0:
184,151,118211,1,8,0:0:0:0:
184,151,118680,1,8,0:0:0:0:
184,151,119149,1,0,0:0:0:0:
184,151,120086,1,8,0:0:0:0:
176,140,121024,1,0,0:0:0:0:
176,140,122430,1,8,0:0:0:0:
176,140,122899,1,0,0:0:0:0:
176,140,123836,1,8,0:0:0:0:
176,140,124774,1,0,0:0:0:0:
176,140,125242,1,0,0:0:0:0:
176,140,125711,1,8,0:0:0:0:
176,140,126180,1,8,0:0:0:0:
176,140,126649,1,0,0:0:0:0:
177,140,128524,1,0,0:0:0:0:
120,119,129461,1,8,0:0:0:0:
143,126,129930,1,8,0:0:0:0:
133,129,130399,1,0,0:0:0:0:
133,129,131336,1,8,0:0:0:0:
128,121,132274,1,0,0:0:0:0:
132,136,132742,1,8,0:0:0:0:
132,136,133211,1,0,0:0:0:0:
108,134,134149,1,0,0:0:0:0:
132,136,134617,1,0,0:0:0:0:
132,136,135086,1,8,0:0:0:0:
132,136,135555,1,8,0:0:0:0:
132,136,136024,1,0,0:0:0:0:
132,133,137430,1,8,0:0:0:0:
132,133,137899,1,0,0:0:0:0:
132,133,138836,1,8,0:0:0:0:
132,133,139305,1,8,0:0:0:0:
132,133,139774,1,0,0:0:0:0:
132,133,140711,1,8,0:0:0:0:
132,133,141649,1,0,0:0:0:0:
131,136,143524,1,0,0:0:0:0:
131,136,144461,1,8,0:0:0:0:
131,136,145399,1,0,0:0:0:0:
123,134,145867,1,8,0:0:0:0:
123,134,146336,1,8,0:0:0:0:
123,134,146805,1,8,0:0:0:0:
123,134,147274,1,0,0:0:0:0:
138,131,148211,1,8,0:0:0:0:
139,141,148680,1,8,0:0:0:0:
144,140,149617,1,0,0:0:0:0:
144,140,150086,1,8,0:0:0:0:
144,140,150555,1,8,0:0:0:0:
144,140,151024,1,0,0:0:0:0:
150,146,152430,1,8,0:0:0:0:
150,146,152899,1,0,0:0:0:0:
150,146,153836,1,8,0:0:0:0:
150,146,154305,1,8,0:0:0:0:
150,146,154774,1,0,0:0:0:0:
150,146,155711,1,0,0:0:0:0:
150,146,156180,1,0,0:0:0:0:
150,146,156649,1,8,0:0:0:0:
150,146,158524,1,0,0:0:0:0:
160,143,159461,1,0,0:0:0:0:
165,146,159930,1,8,0:0:0:0:
165,146,160399,1,0,0:0:0:0:
165,146,161336,1,8,0:0:0:0:
171,144,162274,1,0,0:0:0:0:
166,141,163211,1,8,0:0:0:0:
166,141,163680,1,8,0:0:0:0:
166,146,164617,1,0,0:0:0:0:
166,146,165086,1,8,0:0:0:0:
166,146,165555,1,8,0:0:0:0:
166,146,166024,1,0,0:0:0:0:
166,146,167430,1,8,0:0:0:0:
166,146,167899,1,0,0:0:0:0:
166,146,168836,1,0,0:0:0:0:
166,146,169305,1,8,0:0:0:0:
166,146,169774,1,0,0:0:0:0:
166,146,170711,1,8,0:0:0:0:
166,146,171180,1,8,0:0:0:0:
166,146,171649,1,0,0:0:0:0:
256,192,172117,12,0,173524,0:0:0:0:
