osu file format v14

[General]
AudioFilename: audio.mp3
AudioLeadIn: 0
PreviewTime: 37500
Countdown: 0
SampleSet: Soft
StackLeniency: 0.7
Mode: 0
LetterboxInBreaks: 0
WidescreenStoryboard: 1

[Editor]
Bookmarks: 37500,50625,54375,67500,80625
DistanceSpacing: 0.9
BeatDivisor: 4
GridSize: 16
TimelineZoom: 1

[Metadata]
Title:Ideal (Cut Ver.)
TitleUnicode:Ideal (Cut Ver.)
Artist:cute girls doing cute things
ArtistUnicode:cute girls doing cute things
Creator:Pachiru
Version:Chapter II
Source:osu!
Tags:electronic cgdct featured artist fa mpg mappers guild instrumental affirmation shurelia
BeatmapID:2595381
BeatmapSetID:1248714

[Difficulty]
HPDrainRate:4
CircleSize:3
OverallDifficulty:4
ApproachRate:5
SliderMultiplier:1.2
SliderTickRate:1

[Events]
//Background and Video events
0,0,"audio.jpg",0,0
//Break Periods
//Storyboard Layer 0 (Background)
//Storyboard Layer 1 (Fail)
//Storyboard Layer 2 (Pass)
//Storyboard Layer 3 (Foreground)
//Storyboard Layer 4 (Overlay)
//Storyboard Sound Samples

[TimingPoints]
0,468.75,4,2,1,13,1,0
3750,-100,4,2,1,27,0,0
4687,-100,4,2,1,35,0,0
5625,-100,4,2,1,43,0,0
6562,-100,4,2,1,67,0,0
7500,-100,4,2,1,73,0,0
8671,-100,4,2,1,5,0,0
8789,-100,4,2,1,73,0,0
9023,-100,4,2,1,5,0,0
9140,-100,4,2,1,73,0,0
13125,-100,4,2,1,5,0,0
13242,-100,4,2,1,73,0,0
13476,-100,4,2,1,5,0,0
13593,-100,4,2,1,73,0,0
13828,-100,4,2,1,5,0,0
13945,-100,4,2,1,73,0,0
14179,-100,4,2,1,5,0,0
14296,-100,4,2,1,73,0,0
14531,-100,4,2,1,5,0,0
14648,-100,4,2,1,73,0,0
14882,-100,4,2,1,5,0,0
15000,-100,4,2,1,73,0,0
16171,-100,4,2,1,5,0,0
16289,-100,4,2,1,73,0,0
16523,-100,4,2,1,5,0,0
16640,-100,4,2,1,73,0,0
26484,-100,4,2,1,5,0,0
26601,-100,4,2,1,73,0,0
26835,-100,4,2,1,5,0,0
26953,-100,4,2,1,73,0,0
28125,-100,4,2,1,73,0,0
28242,-100,4,2,1,73,0,0
28476,-100,4,2,1,5,0,0
28593,-100,4,2,1,73,0,0
37500,-100,4,2,1,73,0,1
37968,-100,4,2,2,73,0,1
50625,-100,4,2,2,73,0,0
51210,-100,4,2,2,63,0,0
51679,-100,4,2,2,53,0,0
52148,-100,4,2,2,43,0,0
53789,-100,4,2,2,53,0,0
54140,-100,4,2,2,73,0,0
54375,-100,4,2,2,73,0,1
67500,-100,4,2,2,73,0,0
81210,-100,4,2,2,43,0,0

[Colours]
Combo1 : 255,170,255
Combo2 : 0,128,192
Combo3 : 83,255,255
Combo4 : 255,100,177

[HitObjects]
256,192,0,12,0,6562,0:0:0:0:
22,179,7500,6,0,P|42:140|132:124,1,120,2|0,0:0|0:0,0:0:0:0:
166,138,8203,1,2,0:0:0:0:
166,138,8437,2,0,L|156:232,2,90,2|2|2,0:0|0:0|0:0,0:0:0:0:
257,80,9609,6,0,L|250:21,2,60,2|2|2,0:0|0:0|0:0,0:0:0:0:
283,127,10312,2,0,L|271:194,2,60,2|2|2,0:0|0:0|0:0,0:0:0:0:
336,109,11015,1,2,0:0:0:0:
336,109,11250,5,0,3:0:0:0:
438,143,11718,1,0,3:0:0:0:
453,249,12187,6,0,P|479:256|511:248,2,60,2|2|2,0:0|0:0|0:0,0:0:0:0:
410,282,12890,2,0,P|362:270|323:281,1,90,2|2,0:0|0:0,0:0:0:0:
282,350,13593,2,0,P|238:360|195:348,1,90,2|2,0:0|0:0,0:0:0:0:
159,276,14296,2,0,P|111:264|72:275,1,90,2|2,0:0|0:0,0:0:0:0:
33,203,15000,5,0,3:0:0:0:
103,121,15468,2,0,P|131:107|171:109,1,60,2|2,3:2|0:0,0:0:0:0:
211,118,15937,2,0,B|198:65|224:83|213:25,2,90,2|2|2,3:2|0:0|0:0,2:0:0:0:
264,211,17109,6,0,L|257:280,2,60,2|2|2,0:0|3:2|0:0,0:0:0:0:
300,170,17812,2,0,L|293:110,2,60,2|2|2,3:2|0:0|3:2,0:0:0:0:
344,210,18515,1,0,0:0:0:0:
344,210,18750,5,0,3:0:0:0:
430,274,19218,1,0,3:0:0:0:
492,185,19687,2,0,L|477:126,2,60,2|2|2,3:2|0:0|3:2,0:0:0:0:
510,241,20390,1,2,0:0:0:0:
510,241,20625,5,0,3:0:0:0:
100,67,22500,6,0,B|131:54|161:74|161:74|188:93|227:84,1,120,0|0,3:0|3:0,0:0:0:0:
251,48,23203,1,8,0:0:0:0:
251,48,23437,1,2,3:2:0:0:
337,112,23906,1,2,3:2:0:0:
429,55,24375,6,0,B|454:94|454:94|441:168,1,120,0|0,3:0|3:0,0:0:0:0:
433,223,25078,1,8,0:0:0:0:
433,223,25312,2,0,P|457:234|496:231,2,60,2|2|8,3:2|0:0|3:3,0:0:0:0:
348,292,26250,6,0,P|322:256|323:193,2,90,6|2|2,3:1|0:1|0:1,0:0:0:0:
388,327,27187,1,2,3:2:0:0:
287,366,27656,1,2,3:2:0:0:
211,288,28125,6,0,B|173:283|152:302|152:302|127:323|79:313,1,120,0|2,3:0|3:2,0:0:0:0:
16,245,29062,2,0,P|5:216|10:182,1,60,2|2,3:2|0:0,0:0:0:0:
36,141,29531,2,0,P|64:130|99:135,1,60,8|8,3:3|0:3,0:0:0:0:
143,151,30000,5,4,3:3:0:0:
219,75,30468,2,0,P|253:82|287:71,1,60,0|10,3:0|0:0,0:0:0:0:
326,53,30937,1,2,3:2:0:0:
410,120,31406,1,0,3:0:0:0:
341,203,31875,6,0,P|372:230|395:317,1,120,8|2,0:0|3:2,0:0:0:0:
394,357,32578,1,2,0:0:0:0:
394,357,32812,2,0,P|363:365|330:357,1,60,10|10,3:2|0:0,0:0:0:0:
285,341,33281,2,0,P|255:335|226:343,1,60,2|8,3:2|0:0,0:0:0:0:
178,367,33750,5,10,3:2:0:0:
87,307,34218,1,8,3:2:0:0:
141,213,34687,2,0,L|130:147,1,60,10|8,3:2|0:0,0:0:0:0:
158,107,35156,2,0,L|147:41,1,60,10|8,3:2|0:0,0:0:0:0:
172,0,35625,5,8,3:2:0:0:
276,27,36093,1,8,3:3:0:0:
379,57,36562,1,8,0:3:0:0:
483,85,37031,1,8,0:0:0:0:
402,157,37500,6,0,B|412:214|412:214|417:218|417:218|430:288,1,120,0|8,3:0|3:2,0:0:0:0:
440,325,38203,1,2,0:0:0:0:
440,325,38437,2,0,L|372:339,1,60,0|0,3:0|0:0,0:0:0:0:
329,320,38906,2,0,L|261:334,1,60,10|0,3:2|0:0,0:0:0:0:
223,312,39375,5,2,3:2:0:0:
117,334,39843,1,10,3:2:0:0:
148,230,40312,2,0,P|147:193|132:165,1,60,0|0,3:0|0:0,0:0:0:0:
104,129,40781,2,0,P|92:101|93:71,1,60,10|2,3:2|0:0,0:0:0:0:
110,20,41250,6,0,P|151:48|222:47,1,120,2|8,3:2|3:2,0:0:0:0:
272,35,41953,1,2,0:0:0:0:
272,35,42187,2,0,P|301:27|332:37,1,60,8|0,3:2|0:0,0:0:0:0:
375,62,42656,2,0,P|403:70|435:65,1,60,8|0,3:2|0:0,0:0:0:0:
482,43,43125,5,0,3:0:0:0:
459,148,43593,1,8,3:2:0:0:
436,253,44062,2,0,P|406:261|369:250,1,60,0|2,1:0|0:0,0:0:0:0:
328,234,44531,2,0,P|298:228|270:236,1,60,8|2,3:2|0:0,0:0:0:0:
229,271,45000,6,0,B|173:268|173:268|167:274|167:274|101:272,1,120,0|8,3:0|3:2,0:0:0:0:
57,269,45703,1,2,0:0:0:0:
57,269,45937,2,0,P|40:229|48:186,1,60,0|0,3:0|0:0,0:0:0:0:
42,159,46406,2,0,P|56:118|92:92,1,60,8|0,3:2|0:0,0:0:0:0:
109,72,46875,5,0,3:0:0:0:
205,120,47343,1,8,3:2:0:0:
288,51,47812,2,0,B|318:40|318:40|347:53,1,60,0|0,3:0|0:0,0:0:0:0:
390,77,48281,2,0,B|415:88|415:88|445:77,1,60,8|0,3:2|0:0,0:0:0:0:
496,57,48750,6,0,L|483:191,1,120,0|8,3:0|3:2,0:0:0:0:
480,230,49453,1,2,2:0:0:0:
480,230,49687,2,0,L|472:306,1,60,0|0,3:0|0:0,0:0:0:0:
419,286,50156,2,0,L|411:362,1,60,8|0,3:2|0:1,0:0:0:0:
256,192,50625,12,0,52500,0:0:0:0:
83,326,54375,6,0,P|106:288|77:212,1,120,0|8,3:0|3:2,0:0:0:0:
40,189,55078,1,0,0:0:0:0:
40,189,55312,2,0,L|47:127,1,60,0|0,3:0|0:0,0:0:0:0:
96,107,55781,2,0,L|103:45,1,60,8|0,3:2|0:1,0:0:0:0:
142,10,56250,5,0,3:0:0:0:
235,63,56718,1,8,3:2:0:0:
332,16,57187,2,0,P|357:6|392:10,1,60,0|0,3:0|0:0,0:0:0:0:
438,32,57656,2,0,P|448:57|444:92,1,60,10|2,3:2|0:0,0:0:0:0:
420,137,58125,6,0,B|426:192|426:192|421:198|421:198|428:259,1,120,0|8,3:0|3:2,0:0:0:0:
431,308,58828,1,0,0:1:0:0:
431,308,59062,2,0,P|401:319|362:314,1,60,2|2,3:2|0:0,0:0:0:0:
319,308,59531,2,0,P|289:307|261:317,1,60,8|2,3:2|0:0,0:0:0:0:
214,345,60000,5,0,3:0:0:0:
151,256,60468,1,8,3:2:0:0:
215,169,60937,2,0,B|243:157|243:157|278:163,1,60,2|8,3:2|0:2,0:0:0:0:
325,171,61406,2,0,B|354:175|354:175|382:163,1,60,2|2,3:2|0:0,0:0:0:0:
431,142,61875,6,2,P|456:99|412:41,1,120,2|8,0:1|3:2,0:1:0:0:
370,26,62578,1,0,0:0:0:0:
370,26,62812,2,0,P|335:18|302:31,1,60,0|0,3:0|0:0,0:0:0:0:
265,51,63281,2,0,P|234:58|206:51,1,60,8|2,3:2|0:0,0:0:0:0:
159,25,63750,5,0,3:0:0:0:
57,61,64218,1,8,3:2:0:0:
142,127,64687,2,0,B|154:161|154:161|140:196,1,60,0|0,3:0|0:0,0:0:0:0:
129,234,65156,2,0,B|117:268|117:268|131:303,1,60,8|2,3:2|0:0,0:0:0:0:
151,337,65625,6,0,B|205:304|266:335|266:335|327:364|383:328|383:328|437:298|504:327,1,360
462,220,67500,6,0,B|472:187|456:161|456:161|439:129|452:90,1,120,0|8,3:0|3:2,0:0:0:0:
476,57,68203,2,0,B|389:47|389:47|384:50|384:50|279:42,1,180,0|10,0:0|3:2,0:0:0:0:
243,36,69140,1,0,0:0:0:0:
243,36,69375,1,0,3:0:0:0:
282,136,69843,2,0,P|237:148|179:120,1,90,8|2,3:2|0:0,0:0:0:0:
123,100,70546,2,0,P|80:87|37:99,1,90,2|2,0:0|0:0,0:0:0:0:
4,172,71250,6,0,B|9:228|9:228|15:238|15:238|20:312,1,120,0|8,3:0|3:2,0:0:0:0:
126,281,72187,2,0,L|121:220,2,60,2|2|8,3:2|0:0|3:2,0:0:0:0:
158,324,72890,2,2,B|194:311|223:325|223:325|251:340|286:330,1,120,0|0,0:0|0:0,0:1:0:0:
327,319,73593,2,0,P|333:288|313:247,1,60,10|2,3:2|0:0,0:0:0:0:
306,210,74062,2,0,P|300:179|320:138,1,60,2|2,3:2|0:0,0:0:0:0:
336,106,74531,1,0,0:0:0:0:
295,11,75000,6,0,B|260:-3|260:-3|164:10,1,120,6|8,3:2|3:2,0:0:0:0:
134,39,75703,2,0,B|86:47|51:9|51:9|77:55|62:117,1,180,0|8,0:0|3:2,0:0:0:0:
52,145,76640,1,0,0:0:0:0:
52,145,76875,1,0,3:0:0:0:
99,241,77343,2,0,B|82:284|82:284|109:344,1,90,8|2,3:2|0:0,0:0:0:0:
167,368,78046,2,0,B|210:385|210:385|270:358,1,90,2|2,0:0|0:0,0:0:0:0:
320,326,78750,5,0,3:0:0:0:
265,232,79218,1,8,3:2:0:0:
330,146,79687,2,0,P|323:118|329:83,2,60,2|2|8,3:2|0:0|3:2,0:0:0:0:
371,189,80390,1,0,0:0:0:0:
371,189,80625,1,0,3:0:0:0:
256,192,81093,12,0,82500,0:0:0:0:
