osu file format v14

[General]
AudioFilename: audio.mp3
AudioLeadIn: 0
PreviewTime: 37500
Countdown: 0
SampleSet: Soft
StackLeniency: 0.7
Mode: 0
LetterboxInBreaks: 0
WidescreenStoryboard: 1

[Editor]
Bookmarks: 37500,50625,54375,67500,80625
DistanceSpacing: 0.9
BeatDivisor: 4
GridSize: 16
TimelineZoom: 1

[Metadata]
Title:Ideal (Cut Ver.)
TitleUnicode:Ideal (Cut Ver.)
Artist:cute girls doing cute things
ArtistUnicode:cute girls doing cute things
Creator:Pachiru
Version:Chapter I
Source:osu!
Tags:electronic cgdct featured artist fa mpg mappers guild instrumental affirmation shurelia
BeatmapID:2595380
BeatmapSetID:1248714

[Difficulty]
HPDrainRate:3
CircleSize:2.5
OverallDifficulty:3
ApproachRate:3.5
SliderMultiplier:1
SliderTickRate:1

[Events]
//Background and Video events
0,0,"audio.jpg",0,0
//Break Periods
//Storyboard Layer 0 (Background)
//Storyboard Layer 1 (Fail)
//Storyboard Layer 2 (Pass)
//Storyboard Layer 3 (Foreground)
//Storyboard Layer 4 (Overlay)
//Storyboard Sound Samples

[TimingPoints]
0,468.75,4,2,1,13,1,0
3750,-100,4,2,1,27,0,0
4687,-100,4,2,1,35,0,0
5625,-100,4,2,1,43,0,0
6562,-100,4,2,1,67,0,0
7500,-100,4,2,1,73,0,0
8671,-100,4,2,1,5,0,0
8789,-100,4,2,1,73,0,0
9023,-100,4,2,1,5,0,0
9140,-100,4,2,1,73,0,0
13125,-100,4,2,1,5,0,0
13242,-100,4,2,1,73,0,0
13476,-100,4,2,1,5,0,0
13593,-100,4,2,1,73,0,0
13828,-100,4,2,1,5,0,0
13945,-100,4,2,1,73,0,0
14179,-100,4,2,1,5,0,0
14296,-100,4,2,1,73,0,0
14531,-100,4,2,1,5,0,0
14648,-100,4,2,1,73,0,0
14882,-100,4,2,1,5,0,0
15000,-100,4,2,1,73,0,0
16171,-100,4,2,1,5,0,0
16289,-100,4,2,1,73,0,0
16523,-100,4,2,1,5,0,0
16640,-100,4,2,1,73,0,0
26484,-100,4,2,1,5,0,0
26601,-100,4,2,1,73,0,0
26835,-100,4,2,1,5,0,0
26953,-100,4,2,1,73,0,0
28125,-100,4,2,1,73,0,0
28242,-100,4,2,1,73,0,0
28476,-100,4,2,1,5,0,0
28593,-100,4,2,1,73,0,0
37500,-100,4,2,1,73,0,1
37968,-100,4,2,2,73,0,1
50625,-100,4,2,2,73,0,0
51210,-100,4,2,2,63,0,0
51679,-100,4,2,2,53,0,0
52148,-100,4,2,2,43,0,0
53789,-100,4,2,2,53,0,0
54140,-100,4,2,2,73,0,0
54375,-100,4,2,2,73,0,1
67500,-100,4,2,2,73,0,0
81210,-100,4,2,2,43,0,0

[Colours]
Combo1 : 255,170,255
Combo2 : 0,128,192
Combo3 : 83,255,255
Combo4 : 255,100,177

[HitObjects]
256,192,0,12,0,6562,0:0:0:0:
64,330,7500,6,0,B|151:321|151:321|162:325|162:325|265:314,1,200,2|2,0:0|0:0,0:0:0:0:
396,303,9140,2,0,P|414:261|219:228,1,350,2|2,0:0|0:0,0:0:0:0:
195,307,11250,5,0,3:0:0:0:
121,254,11718,1,0,3:0:0:0:
53,193,12187,2,0,P|32:141|47:94,1,100,2|2,0:0|0:0,0:0:0:0:
75,68,12890,2,0,B|151:64|151:64|157:70|157:70|223:67|223:67|229:72|229:72|288:69|288:69|295:75|295:75|353:72|353:72|381:71,1,300,2|2,0:0|0:0,0:0:0:0:
485,132,15000,5,0,3:0:0:0:
419,193,15468,2,0,P|391:231|393:292,1,100,2|2,3:2|3:2,0:0:0:0:
326,346,16406,1,0,3:0:0:0:
252,293,16875,2,0,B|194:284|160:319|160:319|125:356|61:349,1,200,0|2,3:0|3:2,0:0:0:0:
32,266,18281,1,2,3:2:0:0:
71,184,18750,6,0,B|89:137|89:137|67:84,1,100,0|0,3:0|3:0,0:0:0:0:
149,49,19687,2,0,B|171:94|171:94|219:109,1,100,2|2,3:2|3:2,0:0:0:0:
303,140,20625,5,0,3:0:0:0:
303,140,22500,6,0,P|350:122|403:132,1,100,0|0,3:0|3:0,0:0:0:0:
471,182,23437,2,0,P|489:229|479:282,1,100,2|2,3:2|3:2,0:0:0:0:
400,317,24375,2,0,B|343:305|326:252|326:252|325:308|275:336,1,200,0|2,3:0|3:2,0:0:0:0:
191,326,25781,1,8,3:3:0:0:
107,292,26250,6,0,B|117:260|117:260|105:189,1,100,6|0,3:1|0:0,0:0:0:0:
88,106,27187,1,2,3:2:0:0:
161,43,27656,1,2,3:2:0:0:
246,71,28125,2,0,B|274:65|297:75|297:75|319:88|344:84,1,100,0|2,3:0|3:2,0:0:0:0:
412,141,29062,2,0,P|457:111|472:54,2,100,2|8|4,3:2|3:3|3:3,0:0:0:0:
323,173,30468,5,0,3:0:0:0:
342,260,30937,1,2,3:2:0:0:
289,331,31406,1,0,3:0:0:0:
205,297,31875,2,0,B|169:283|169:283|56:310|56:310|5:287,1,200,8|10,0:0|3:2,0:0:0:0:
63,215,33281,1,2,3:2:0:0:
256,192,33750,12,8,35625,3:2:0:0:
420,323,37500,6,0,P|434:284|425:228,1,100,0|8,3:0|3:2,0:0:0:0:
369,156,38437,1,0,3:0:0:0:
409,75,38906,1,10,3:2:0:0:
342,14,39375,2,0,B|294:22|294:22|290:28|290:28|245:37,1,100,2|10,3:2|3:2,0:0:0:0:
161,65,40312,1,0,3:0:0:0:
77,30,40781,1,10,3:2:0:0:
20,100,41250,6,0,P|52:136|59:199,1,100,2|8,3:2|3:2,0:0:0:0:
47,274,42187,1,8,3:2:0:0:
120,326,42656,1,8,3:2:0:0:
197,280,43125,2,0,P|220:250|225:187,1,100,0|8,3:0|3:2,0:0:0:0:
204,102,44062,2,0,P|264:102|321:178,1,150,0|8,1:0|3:2,0:0:0:0:
332,209,45000,5,0,3:0:0:0:
412,169,45468,1,8,3:2:0:0:
496,224,45937,2,0,P|464:268|457:318,1,100,0|8,3:0|3:2,0:0:0:0:
372,345,46875,2,0,P|328:313|278:306,1,100,0|8,3:0|3:2,0:0:0:0:
193,303,47812,1,0,3:0:0:0:
121,358,48281,1,8,3:2:0:0:
73,281,48750,6,0,B|57:248|57:248|75:183,1,100,0|8,3:0|3:2,0:0:0:0:
99,100,49687,1,0,3:0:0:0:
174,149,50156,1,8,3:2:0:0:
256,192,50625,12,0,52500,0:0:0:0:
57,84,54375,6,0,B|106:78|106:78|114:82|114:82|162:76,1,100,0|8,3:0|3:2,0:0:0:0:
232,30,55312,1,0,3:0:0:0:
311,71,55781,1,8,3:2:0:0:
387,23,56250,6,0,P|431:42|452:95,1,100,0|8,3:0|3:2,0:0:0:0:
409,166,57187,1,0,3:0:0:0:
465,236,57656,1,10,3:2:0:0:
443,323,58125,2,0,B|410:344|410:344|346:335,1,100,0|8,3:0|3:2,0:0:0:0:
277,282,59062,1,2,3:2:0:0:
212,344,59531,1,8,3:2:0:0:
131,304,60000,6,0,B|110:271|110:271|127:190,1,100,0|8,3:0|3:2,0:0:0:0:
142,123,60937,1,2,3:2:0:0:
55,149,61406,1,10,3:2:0:0:
28,62,61875,2,2,B|67:51|67:51|74:54|74:54|124:40,1,100,2|8,0:1|3:2,0:1:0:0:
210,16,62812,1,0,3:0:0:0:
276,77,63281,1,8,3:2:0:0:
352,28,63750,6,0,P|392:31|419:90,1,100,0|8,3:0|3:2,0:0:0:0:
393,164,64687,1,0,3:0:0:0:
454,229,65156,1,8,3:2:0:0:
392,295,65625,6,0,B|338:281|299:313|299:313|254:343|196:327|196:327|145:315|99:352,1,300
35,292,67500,5,0,3:0:0:0:
62,206,67968,1,8,3:2:0:0:
96,122,68437,2,0,P|136:104|198:110,1,100,0|10,3:0|3:2,0:0:0:0:
272,146,69375,1,0,3:0:0:0:
350,101,69843,2,0,B|391:82|401:38|401:38|400:112|452:149,1,200,8|8,3:2|3:2,0:0:0:0:
489,218,71250,6,0,P|449:236|416:296,1,100,0|8,3:0|3:2,0:0:0:0:
383,364,72187,1,2,3:2:0:0:
306,321,72656,1,8,3:2:0:0:
228,274,73125,2,0,B|176:257|134:289|134:289|92:319|40:288|40:288|96:258|97:192,1,300,0|2,3:0|3:2,0:0:0:0:
73,122,75000,6,0,B|98:102|98:102|169:111,1,100,6|8,3:2|3:2,0:0:0:0:
254,124,75937,1,0,3:0:0:0:
211,203,76406,1,8,3:2:0:0:
161,278,76875,2,0,P|107:297|56:277,2,100,0|8|0,3:0|3:2|3:0,0:0:0:0:
211,203,78281,1,8,3:2:0:0:
279,261,78750,5,0,3:0:0:0:
346,320,79218,1,8,3:2:0:0:
427,281,79687,2,0,B|423:237|423:237|420:231|420:231|416:181,1,100,2|8,3:2|3:2,0:0:0:0:
404,92,80625,5,0,3:0:0:0:
