osu file format v14

[General]
AudioFilename: audio.mp3
AudioLeadIn: 0
PreviewTime: -1
Countdown: 1
SampleSet: Normal
StackLeniency: 0.7
Mode: 0
LetterboxInBreaks: 0
WidescreenStoryboard: 1

[Editor]
DistanceSpacing: 1
BeatDivisor: 4
GridSize: 4
TimelineZoom: 1

[Metadata]
Title:mrbeast
TitleUnicode:mrbeast
Artist:cute
ArtistUnicode:cute
Creator:Vovy
Version:not bpm
Source:mrbeast
Tags:kawaii cute mrbeast
BeatmapID:1057613
BeatmapSetID:496413

[Difficulty]
HPDrainRate:5
CircleSize:5
OverallDifficulty:5
ApproachRate:5
SliderMultiplier:1.4
SliderTickRate:2

[Events]
//Background and Video events
Video,-770,"My new entro 4 mrbe(a)st.mp4"
0,0,"maxresdefault.jpg",0,0
//Break Periods
//Storyboard Layer 0 (Background)
//Storyboard Layer 1 (Fail)
//Storyboard Layer 2 (Pass)
//Storyboard Layer 3 (Foreground)
//Storyboard Sound Samples

[TimingPoints]
7878,500.003278688527,4,1,0,100,1,0

[HitObjects]
256,192,2,12,0,7002,0:0:0:0:
168,192,8378,5,0,0:0:0:0:
192,192,8503,1,0,0:0:0:0:
208,172,8628,1,0,0:0:0:0:
232,160,8753,1,0,0:0:0:0:
244,160,8878,1,0,0:0:0:0:
272,172,9003,1,0,0:0:0:0:
276,192,9128,1,0,0:0:0:0:
256,208,9253,1,0,0:0:0:0:
272,228,9378,1,0,0:0:0:0:
296,220,9503,1,0,0:0:0:0:
308,204,9628,1,0,0:0:0:0:
300,184,9753,1,0,0:0:0:0:
304,164,9878,1,0,0:0:0:0:
300,140,10003,1,0,0:0:0:0:
300,124,10128,1,0,0:0:0:0:
264,128,10253,2,0,L|208:128,1,35
232,176,10503,2,0,L|232:216,1,35
288,216,10753,2,0,L|352:216,1,35
336,164,11003,2,0,L|336:128,1,35
284,112,11253,1,0,0:0:0:0:
260,108,11378,1,0,0:0:0:0:
232,124,11503,1,0,0:0:0:0:
216,144,11628,1,0,0:0:0:0:
224,164,11753,1,0,0:0:0:0:
208,180,11878,1,0,0:0:0:0:
224,200,12003,1,0,0:0:0:0:
252,200,12128,1,0,0:0:0:0:
272,184,12253,1,0,0:0:0:0:
296,176,12378,2,0,L|328:152,1,35
288,116,12628,2,0,L|248:104,1,35
228,148,12878,2,0,L|204:188,1,35
160,176,13128,2,0,L|160:244,1,35
188,212,13378,1,0,0:0:0:0:
208,212,13503,1,0,0:0:0:0:
224,212,13628,1,0,0:0:0:0:
244,212,13753,1,0,0:0:0:0:
268,208,13878,1,0,0:0:0:0:
288,200,14003,1,0,0:0:0:0:
300,180,14128,1,0,0:0:0:0:
308,156,14253,2,0,L|288:120,1,35
232,120,14503,2,0,L|208:180,1,35
248,200,14753,2,0,L|280:224,1,35
312,176,15003,2,0,L|332:148,1,35
288,112,15253,2,0,L|244:88,1,35
212,128,15503,1,0,0:0:0:0:
200,160,15628,1,0,0:0:0:0:
216,176,15753,1,0,0:0:0:0:
236,176,15878,1,0,0:0:0:0:
260,176,16003,1,0,0:0:0:0:
276,176,16128,1,0,0:0:0:0:
272,220,16253,2,0,L|276:280,1,35
220,260,16503,2,0,L|176:256,1,35
188,208,16753,2,0,L|184:164,1,35
236,172,17003,2,0,L|272:176,1,35
272,236,17253,1,0,0:0:0:0:
248,256,17378,1,0,0:0:0:0:
220,244,17503,1,0,0:0:0:0:
224,216,17628,1,0,0:0:0:0:
244,200,17753,1,0,0:0:0:0:
260,180,17878,1,0,0:0:0:0:
240,164,18003,1,0,0:0:0:0:
236,140,18128,1,0,0:0:0:0:
260,128,18253,1,0,0:0:0:0:
208,136,18378,2,0,L|160:136,1,35
176,188,18628,2,0,L|180:224,1,35
228,220,18878,2,0,L|272:200,1,35
264,148,19128,2,0,L|252:92,1,35
312,96,19378,2,0,L|352:96,1,35
352,132,19628,1,0,0:0:0:0:
344,156,19753,1,0,0:0:0:0:
320,168,19878,1,0,0:0:0:0:
256,192,20378,12,0,20878,0:0:0:0:
256,192,21378,12,0,21878,0:0:0:0:
256,192,22378,5,0,0:0:0:0:
272,180,22503,1,0,0:0:0:0:
284,160,22628,1,0,0:0:0:0:
276,144,22753,1,0,0:0:0:0:
256,132,22878,1,0,0:0:0:0:
232,136,23003,1,0,0:0:0:0:
216,152,23128,1,0,0:0:0:0:
224,180,23253,1,0,0:0:0:0:
252,196,23378,1,0,0:0:0:0:
280,192,23503,2,0,L|312:168,1,35
356,140,23753,2,0,L|384:112,1,35
344,80,24003,1,0,0:0:0:0:
300,116,24128,2,0,L|272:136,1,35
224,168,24378,1,0,0:0:0:0:
208,188,24503,1,0,0:0:0:0:
208,208,24628,1,0,0:0:0:0:
192,220,24753,1,0,0:0:0:0:
172,212,24878,1,0,0:0:0:0:
152,196,25003,1,0,0:0:0:0:
152,168,25128,1,0,0:0:0:0:
176,152,25253,1,0,0:0:0:0:
200,144,25378,1,0,0:0:0:0:
220,128,25503,1,0,0:0:0:0:
240,124,25628,1,0,0:0:0:0:
264,116,25753,1,0,0:0:0:0:
288,108,25878,1,0,0:0:0:0:
320,120,26003,1,0,0:0:0:0:
324,144,26128,2,0,L|324:188,1,35
296,200,26378,2,0,L|240:216,1,35
236,192,26628,2,0,L|220:152,1,35
236,132,26878,2,0,L|268:104,1,35
304,136,27128,2,0,L|332:164,1,35
296,200,27378,1,0,0:0:0:0:
276,208,27503,1,0,0:0:0:0:
248,204,27628,1,0,0:0:0:0:
236,184,27753,1,0,0:0:0:0:
232,164,27878,1,0,0:0:0:0:
244,144,28003,1,0,0:0:0:0:
260,136,28128,1,0,0:0:0:0:
292,128,28253,1,0,0:0:0:0:
300,148,28378,1,0,0:0:0:0:
288,172,28503,1,0,0:0:0:0:
272,200,28628,1,0,0:0:0:0:
244,208,28753,1,0,0:0:0:0:
228,188,28878,1,0,0:0:0:0:
212,168,29003,1,0,0:0:0:0:
208,144,29128,1,0,0:0:0:0:
216,116,29253,1,0,0:0:0:0:
232,104,29378,1,0,0:0:0:0:
256,192,30378,12,0,30878,0:0:0:0:
256,192,31378,12,0,31878,0:0:0:0:
252,188,32378,5,0,0:0:0:0:
252,168,32503,1,0,0:0:0:0:
236,160,32628,1,0,0:0:0:0:
216,160,32753,1,0,0:0:0:0:
204,160,32878,1,0,0:0:0:0:
192,184,33003,1,0,0:0:0:0:
208,208,33128,1,0,0:0:0:0:
208,228,33253,1,0,0:0:0:0:
228,244,33378,1,0,0:0:0:0:
252,232,33503,1,0,0:0:0:0:
264,212,33628,1,0,0:0:0:0:
268,192,33753,1,0,0:0:0:0:
256,172,33878,1,0,0:0:0:0:
252,152,34003,1,0,0:0:0:0:
268,128,34128,1,0,0:0:0:0:
296,128,34253,1,0,0:0:0:0:
300,152,34378,1,0,0:0:0:0:
292,176,34503,1,0,0:0:0:0:
268,184,34628,1,0,0:0:0:0:
240,200,34753,1,0,0:0:0:0:
232,224,34878,1,0,0:0:0:0:
244,240,35003,1,0,0:0:0:0:
264,244,35128,1,0,0:0:0:0:
284,228,35253,1,0,0:0:0:0:
296,208,35378,1,0,0:0:0:0:
292,184,35503,1,0,0:0:0:0:
276,168,35628,1,0,0:0:0:0:
256,160,35753,1,0,0:0:0:0:
232,140,35878,1,0,0:0:0:0:
208,136,36003,1,0,0:0:0:0:
192,144,36128,1,0,0:0:0:0:
160,156,36253,1,0,0:0:0:0:
160,176,36378,2,0,L|164:252,1,70
220,248,36878,2,0,L|292:252,1,70
296,200,37378,2,0,L|296:128,1,70
236,128,37878,2,0,L|156:128,1,70
116,128,38378,1,0,0:0:0:0:
256,192,38628,12,0,40074,0:0:0:0:
