osu file format v14

[General]
AudioFilename: audio.mp3
AudioLeadIn: 0
PreviewTime: -1
Countdown: 1
SampleSet: Normal
StackLeniency: 0.7
Mode: 0
LetterboxInBreaks: 0
WidescreenStoryboard: 1

[Editor]
DistanceSpacing: 1
BeatDivisor: 4
GridSize: 4
TimelineZoom: 1

[Metadata]
Title:mrbeast
TitleUnicode:mrbeast
Artist:cute
ArtistUnicode:cute
Creator:Vovy
Version:cursor dance XD
Source:mrbeast
Tags:kawaii cute mrbeast
BeatmapID:1057039
BeatmapSetID:496413

[Difficulty]
HPDrainRate:5
CircleSize:5
OverallDifficulty:5
ApproachRate:5
SliderMultiplier:1.4
SliderTickRate:2

[Events]
//Background and Video events
Video,-770,"My new entro 4 mrbe(a)st.mp4"
0,0,"maxresdefault.jpg",0,0
//Break Periods
//Storyboard Layer 0 (Background)
//Storyboard Layer 1 (Fail)
//Storyboard Layer 2 (Pass)
//Storyboard Layer 3 (Foreground)
//Storyboard Sound Samples

[TimingPoints]
7878,500.003278688527,4,1,0,100,1,0

[HitObjects]
256,192,627,12,0,6877,0:0:0:0:
259,97,8378,5,0,0:0:0:0:
253,260,8878,1,0,0:0:0:0:
256,93,9378,1,0,0:0:0:0:
253,261,9878,1,0,0:0:0:0:
219,106,10378,2,0,P|255:71|291:88,1,70
292,225,10878,2,0,P|268:253|214:260,1,70
214,106,11378,2,0,P|255:82|289:79,1,70
292,228,11878,2,0,P|257:258|225:224,1,70
252,91,12378,1,0,0:0:0:0:
252,259,12628,1,0,0:0:0:0:
314,91,12878,1,0,0:0:0:0:
193,259,13128,1,0,0:0:0:0:
363,118,13378,1,0,0:0:0:0:
135,240,13628,1,0,0:0:0:0:
315,89,13878,1,0,0:0:0:0:
103,194,14128,1,0,0:0:0:0:
197,171,14378,2,0,P|236:144|261:162,1,70
282,203,14878,2,0,P|252:224|216:218,1,70
195,166,15378,2,0,P|239:144|272:157,1,70
281,204,15878,2,0,P|255:221|212:209,1,70
156,182,16378,1,0,0:0:0:0:
356,183,16628,1,0,0:0:0:0:
155,182,16878,1,0,0:0:0:0:
353,184,17128,1,0,0:0:0:0:
154,182,17378,1,0,0:0:0:0:
353,189,17628,1,0,0:0:0:0:
152,184,17878,1,0,0:0:0:0:
152,149,18128,1,0,0:0:0:0:
358,227,18378,1,0,0:0:0:0:
174,112,18628,1,0,0:0:0:0:
336,267,18878,1,0,0:0:0:0:
219,93,19128,1,0,0:0:0:0:
292,289,19378,1,0,0:0:0:0:
283,90,19628,1,0,0:0:0:0:
236,289,19878,1,0,0:0:0:0:
214,143,20378,2,0,L|306:142,1,70
290,197,20878,2,0,L|214:199,1,70
215,142,21378,2,0,L|291:142,1,70
290,197,21878,2,0,L|209:198,1,70
216,140,22378,1,0,0:0:0:0:
288,140,22628,1,0,0:0:0:0:
288,200,22878,1,0,0:0:0:0:
216,200,23128,1,0,0:0:0:0:
216,140,23378,1,0,0:0:0:0:
288,144,23628,1,0,0:0:0:0:
288,200,23878,1,0,0:0:0:0:
220,200,24128,1,0,0:0:0:0:
164,116,24378,1,0,0:0:0:0:
332,116,24628,1,0,0:0:0:0:
328,240,24878,1,0,0:0:0:0:
172,236,25128,1,0,0:0:0:0:
172,116,25378,1,0,0:0:0:0:
336,120,25628,1,0,0:0:0:0:
332,244,25878,1,0,0:0:0:0:
176,240,26128,1,0,0:0:0:0:
168,120,26378,2,0,L|264:120,1,70
336,120,26878,2,0,L|336:196,1,70
344,240,27378,2,0,L|244:240,1,70
176,240,27878,2,0,L|176:164,1,70
176,108,28378,2,0,L|272:108,1,70
336,112,28878,2,0,L|336:196,1,70
336,236,29378,2,0,L|248:236,1,70
168,240,29878,2,0,L|168:156,1,70
256,192,30378,12,0,30878,0:0:0:0:
256,192,31378,12,0,31878,0:0:0:0:
96,88,32378,6,0,L|192:88,1,70
232,88,32878,1,0,0:0:0:0:
232,104,33003,1,0,0:0:0:0:
232,120,33128,1,0,0:0:0:0:
232,180,33378,2,0,L|328:180,1,70
304,184,33878,2,0,L|224:184,1,70
228,184,34378,2,0,L|316:180,1,70
300,184,34878,1,0,0:0:0:0:
300,200,35003,1,0,0:0:0:0:
300,216,35128,1,0,0:0:0:0:
304,272,35378,2,0,L|224:272,1,70
232,208,35878,2,0,L|232:120,1,70
292,136,36378,1,0,0:0:0:0:
316,132,36503,1,0,0:0:0:0:
344,144,36628,1,0,0:0:0:0:
364,168,36753,1,0,0:0:0:0:
360,200,36878,1,0,0:0:0:0:
344,224,37003,1,0,0:0:0:0:
320,236,37128,1,0,0:0:0:0:
292,240,37253,1,0,0:0:0:0:
272,232,37378,1,0,0:0:0:0:
252,224,37503,1,0,0:0:0:0:
224,208,37628,1,0,0:0:0:0:
204,188,37753,1,0,0:0:0:0:
180,172,37878,1,0,0:0:0:0:
192,140,38003,1,0,0:0:0:0:
208,120,38128,1,0,0:0:0:0:
204,96,38253,1,0,0:0:0:0:
188,84,38378,1,0,0:0:0:0:
256,192,38628,12,0,40074,0:0:0:0:
