osu file format v14

[General]
AudioFilename: audio.mp3
AudioLeadIn: 0
PreviewTime: -1
Countdown: 1
SampleSet: Normal
StackLeniency: 0.7
Mode: 0
LetterboxInBreaks: 0
WidescreenStoryboard: 0

[Editor]
DistanceSpacing: 1
BeatDivisor: 4
GridSize: 4
TimelineZoom: 1

[Metadata]
Title:mrbeast
TitleUnicode:mrbeast
Artist:cute
ArtistUnicode:cute
Creator:Vovy
Version:bruh
Source:mrbeast
Tags:kawaii cute mrbeast
BeatmapID:1056618
BeatmapSetID:496413

[Difficulty]
HPDrainRate:5
CircleSize:5
OverallDifficulty:5
ApproachRate:5
SliderMultiplier:1.4
SliderTickRate:2

[Events]
//Background and Video events
Video,-770,"My new entro 4 mrbe(a)st.mp4"
0,0,"maxresdefault.jpg",0,0
//Break Periods
//Storyboard Layer 0 (Background)
//Storyboard Layer 1 (Fail)
//Storyboard Layer 2 (Pass)
//Storyboard Layer 3 (Foreground)
//Storyboard Sound Samples

[TimingPoints]
7878,500.003278688527,4,1,0,100,1,0

[HitObjects]
256,192,1127,12,0,6877,0:0:0:0:
257,194,8377,5,0,0:0:0:0:
255,115,8877,1,0,0:0:0:0:
205,115,9377,1,0,0:0:0:0:
168,168,9877,1,0,0:0:0:0:
129,230,10377,1,0,0:0:0:0:
254,231,10877,1,0,0:0:0:0:
254,168,11378,1,0,0:0:0:0:
163,187,11878,2,0,L|312:188,1,140
302,187,12878,2,0,L|201:59,1,140
212,77,13878,2,0,P|145:208|139:218,1,140
254,163,14878,1,0,0:0:0:0:
255,75,15378,1,0,0:0:0:0:
255,190,16378,1,0,0:0:0:0:
253,126,16878,1,0,0:0:0:0:
201,95,17378,1,0,0:0:0:0:
274,127,17878,1,0,0:0:0:0:
341,172,18378,1,0,0:0:0:0:
255,106,18878,1,0,0:0:0:0:
168,190,19378,1,0,0:0:0:0:
255,192,20378,2,0,L|426:189,1,140
392,187,21378,2,0,L|242:191,1,140
251,188,22378,1,0,0:0:0:0:
254,130,22878,1,0,0:0:0:0:
198,130,23378,1,0,0:0:0:0:
200,190,23878,1,0,0:0:0:0:
197,188,24378,2,0,P|355:189|370:187,1,140
335,188,25378,2,0,P|280:198|192:187,1,140
330,186,26378,1,0,0:0:0:0:
323,188,26878,1,0,0:0:0:0:
322,84,27378,1,0,0:0:0:0:
247,86,27878,2,0,L|164:86,1,70
176,152,28378,1,0,0:0:0:0:
178,234,28878,1,0,0:0:0:0:
234,234,29378,1,0,0:0:0:0:
255,235,30378,2,0,L|404:232,1,140
394,227,31378,2,0,L|285:129,1,140
257,191,32378,1,0,0:0:0:0:
345,191,32878,1,0,0:0:0:0:
343,102,33378,1,0,0:0:0:0:
257,102,33878,2,0,L|117:103,1,140
255,102,34878,1,0,0:0:0:0:
259,192,35378,1,0,0:0:0:0:
163,264,35878,1,0,0:0:0:0:
366,266,36378,1,0,0:0:0:0:
371,191,36878,1,0,0:0:0:0:
297,189,37378,1,0,0:0:0:0:
255,191,37878,1,0,0:0:0:0:
199,139,38378,1,0,0:0:0:0:
256,192,38878,12,0,39860,0:0:0:0:
